  0
SECTION
  2
HEADER
  9
$ACADVER
  1
AC1015
  9
$ACADMAINTVER
 70
    13
  9
$DWGCODEPAGE
  3
ANSI_1257
  9
$INSBASE
 10
0.0
 20
0.0
 30
0.0
  9
$EXTMIN
 10
99.34491682411881
 20
94.91514087514531
 30
0.0
  9
$EXTMAX
 10
926.3449168241189
 20
696.9151408751453
 30
0.0
  9
$LIMMIN
 10
0.0
 20
0.0
  9
$LIMMAX
 10
420.0
 20
297.0
  9
$ORTHOMODE
 70
     1
  9
$REGENMODE
 70
     1
  9
$FILLMODE
 70
     1
  9
$QTEXTMODE
 70
     0
  9
$MIRRTEXT
 70
     1
  9
$LTSCALE
 40
1.0
  9
$ATTMODE
 70
     1
  9
$TEXTSIZE
 40
3.0
  9
$TRACEWID
 40
1.0
  9
$TEXTSTYLE
  7
ARIAL
  9
$CLAYER
  8
kiri
  9
$CELTYPE
  6
ByLayer
  9
$CECOLOR
 62
   256
  9
$CELTSCALE
 40
1.0
  9
$DISPSILH
 70
     0
  9
$DIMSCALE
 40
1.0
  9
$DIMASZ
 40
2.5
  9
$DIMEXO
 40
0.625
  9
$DIMDLI
 40
3.75
  9
$DIMRND
 40
0.0
  9
$DIMDLE
 40
0.0
  9
$DIMEXE
 40
1.25
  9
$DIMTP
 40
0.0
  9
$DIMTM
 40
0.0
  9
$DIMTXT
 40
2.5
  9
$DIMCEN
 40
2.5
  9
$DIMTSZ
 40
0.0
  9
$DIMTOL
 70
     0
  9
$DIMLIM
 70
     0
  9
$DIMTIH
 70
     0
  9
$DIMTOH
 70
     0
  9
$DIMSE1
 70
     0
  9
$DIMSE2
 70
     0
  9
$DIMTAD
 70
     1
  9
$DIMZIN
 70
     8
  9
$DIMBLK
  1
ArchTick
  9
$DIMASO
 70
     1
  9
$DIMSHO
 70
     1
  9
$DIMPOST
  1

  9
$DIMAPOST
  1

  9
$DIMALT
 70
     0
  9
$DIMALTD
 70
     3
  9
$DIMALTF
 40
0.03937007874016
  9
$DIMLFAC
 40
1.0
  9
$DIMTOFL
 70
     1
  9
$DIMTVP
 40
0.0
  9
$DIMTIX
 70
     0
  9
$DIMSOXD
 70
     0
  9
$DIMSAH
 70
     0
  9
$DIMBLK1
  1

  9
$DIMBLK2
  1

  9
$DIMSTYLE
  2
ISO-25
  9
$DIMCLRD
 70
     0
  9
$DIMCLRE
 70
     0
  9
$DIMCLRT
 70
     0
  9
$DIMTFAC
 40
1.0
  9
$DIMGAP
 40
0.625
  9
$DIMJUST
 70
     0
  9
$DIMSD1
 70
     0
  9
$DIMSD2
 70
     0
  9
$DIMTOLJ
 70
     0
  9
$DIMTZIN
 70
     8
  9
$DIMALTZ
 70
     0
  9
$DIMALTTZ
 70
     0
  9
$DIMUPT
 70
     0
  9
$DIMDEC
 70
     2
  9
$DIMTDEC
 70
     2
  9
$DIMALTU
 70
     2
  9
$DIMALTTD
 70
     3
  9
$DIMTXSTY
  7
Standard
  9
$DIMAUNIT
 70
     0
  9
$DIMADEC
 70
     3
  9
$DIMALTRND
 40
0.0
  9
$DIMAZIN
 70
     0
  9
$DIMDSEP
 70
    44
  9
$DIMATFIT
 70
     3
  9
$DIMFRAC
 70
     0
  9
$DIMLDRBLK
  1

  9
$DIMLUNIT
 70
     2
  9
$DIMLWD
 70
    -2
  9
$DIMLWE
 70
    -2
  9
$DIMTMOVE
 70
     0
  9
$LUNITS
 70
     2
  9
$LUPREC
 70
     4
  9
$SKETCHINC
 40
1.0
  9
$FILLETRAD
 40
1.0
  9
$AUNITS
 70
     0
  9
$AUPREC
 70
     0
  9
$MENU
  1
.
  9
$ELEVATION
 40
0.0
  9
$PELEVATION
 40
0.0
  9
$THICKNESS
 40
0.0
  9
$LIMCHECK
 70
     0
  9
$CHAMFERA
 40
10.0
  9
$CHAMFERB
 40
10.0
  9
$CHAMFERC
 40
20.0
  9
$CHAMFERD
 40
0.0
  9
$SKPOLY
 70
     0
  9
$TDCREATE
 40
2453250.516038403
  9
$TDUCREATE
 40
2453250.432705069
  9
$TDUPDATE
 40
2453334.540577431
  9
$TDUUPDATE
 40
2453334.457244097
  9
$TDINDWG
 40
0.4211098264
  9
$TDUSRTIMER
 40
0.4211096528
  9
$USRTIMER
 70
     1
  9
$ANGBASE
 50
0.0
  9
$ANGDIR
 70
     0
  9
$PDMODE
 70
     0
  9
$PDSIZE
 40
0.0
  9
$PLINEWID
 40
0.0
  9
$SPLFRAME
 70
     0
  9
$SPLINETYPE
 70
     6
  9
$SPLINESEGS
 70
     8
  9
$HANDSEED
  5
8C7
  9
$SURFTAB1
 70
     6
  9
$SURFTAB2
 70
     6
  9
$SURFTYPE
 70
     6
  9
$SURFU
 70
     6
  9
$SURFV
 70
     6
  9
$UCSBASE
  2

  9
$UCSNAME
  2

  9
$UCSORG
 10
0.0
 20
0.0
 30
0.0
  9
$UCSXDIR
 10
1.0
 20
0.0
 30
0.0
  9
$UCSYDIR
 10
0.0
 20
1.0
 30
0.0
  9
$UCSORTHOREF
  2

  9
$UCSORTHOVIEW
 70
     0
  9
$UCSORGTOP
 10
0.0
 20
0.0
 30
0.0
  9
$UCSORGBOTTOM
 10
0.0
 20
0.0
 30
0.0
  9
$UCSORGLEFT
 10
0.0
 20
0.0
 30
0.0
  9
$UCSORGRIGHT
 10
0.0
 20
0.0
 30
0.0
  9
$UCSORGFRONT
 10
0.0
 20
0.0
 30
0.0
  9
$UCSORGBACK
 10
0.0
 20
0.0
 30
0.0
  9
$PUCSBASE
  2

  9
$PUCSNAME
  2

  9
$PUCSORG
 10
0.0
 20
0.0
 30
0.0
  9
$PUCSXDIR
 10
1.0
 20
0.0
 30
0.0
  9
$PUCSYDIR
 10
0.0
 20
1.0
 30
0.0
  9
$PUCSORTHOREF
  2

  9
$PUCSORTHOVIEW
 70
     0
  9
$PUCSORGTOP
 10
0.0
 20
0.0
 30
0.0
  9
$PUCSORGBOTTOM
 10
0.0
 20
0.0
 30
0.0
  9
$PUCSORGLEFT
 10
0.0
 20
0.0
 30
0.0
  9
$PUCSORGRIGHT
 10
0.0
 20
0.0
 30
0.0
  9
$PUCSORGFRONT
 10
0.0
 20
0.0
 30
0.0
  9
$PUCSORGBACK
 10
0.0
 20
0.0
 30
0.0
  9
$USERI1
 70
     0
  9
$USERI2
 70
     0
  9
$USERI3
 70
     0
  9
$USERI4
 70
     0
  9
$USERI5
 70
     0
  9
$USERR1
 40
0.0
  9
$USERR2
 40
0.0
  9
$USERR3
 40
0.0
  9
$USERR4
 40
0.0
  9
$USERR5
 40
0.0
  9
$WORLDVIEW
 70
     1
  9
$SHADEDGE
 70
     3
  9
$SHADEDIF
 70
    70
  9
$TILEMODE
 70
     0
  9
$MAXACTVP
 70
    64
  9
$PINSBASE
 10
0.0
 20
0.0
 30
0.0
  9
$PLIMCHECK
 70
     0
  9
$PEXTMIN
 10
3.750931452298459
 20
3.864418074508137
 30
-0.0015258207003583
  9
$PEXTMAX
 10
286.7707966098082
 20
199.8824116526475
 30
0.0000000349246037
  9
$PLIMMIN
 10
-3.17498779296875
 20
-3.174999952316284
  9
$PLIMMAX
 10
293.8780212402343
 20
206.7136566638946
  9
$UNITMODE
 70
     0
  9
$VISRETAIN
 70
     1
  9
$PLINEGEN
 70
     0
  9
$PSLTSCALE
 70
     1
  9
$TREEDEPTH
 70
  3020
  9
$CMLSTYLE
  2
Standard
  9
$CMLJUST
 70
     0
  9
$CMLSCALE
 40
20.0
  9
$PROXYGRAPHICS
 70
     1
  9
$MEASUREMENT
 70
     1
  9
$CELWEIGHT
370
    -1
  9
$ENDCAPS
280
     0
  9
$JOINSTYLE
280
     0
  9
$LWDISPLAY
290
     0
  9
$INSUNITS
 70
     4
  9
$HYPERLINKBASE
  1

  9
$STYLESHEET
  1

  9
$XEDIT
290
     1
  9
$CEPSNTYPE
380
     0
  9
$PSTYLEMODE
290
     1
  9
$FINGERPRINTGUID
  2
{14ABBC5B-8629-44B9-A03D-556EEDA96D67}
  9
$VERSIONGUID
  2
{B5EE8299-F5E9-48DB-961D-D511F1494978}
  9
$EXTNAMES
290
     1
  9
$PSVPSCALE
 40
0.0
  9
$OLESTARTUP
290
     0
  0
ENDSEC
  0
SECTION
  2
CLASSES
  0
CLASS
  1
ACDBDICTIONARYWDFLT
  2
AcDbDictionaryWithDefault
  3
AutoCAD 2000
 90
        0
280
     0
281
     0
  0
CLASS
  1
ACDBPLACEHOLDER
  2
AcDbPlaceHolder
  3
AutoCAD 2000
 90
        0
280
     0
281
     0
  0
CLASS
  1
LAYOUT
  2
AcDbLayout
  3
AutoCAD 2000
 90
        0
280
     0
281
     0
  0
CLASS
  1
DICTIONARYVAR
  2
AcDbDictionaryVar
  3
AutoCAD 2000
 90
        0
280
     0
281
     0
  0
CLASS
  1
DIMASSOC
  2
AcDbDimAssoc
  3
"AcDbDimAssoc|Product Desc:     AcDim ARX App For Dimension|Company:          Autodesk, Inc.|WEB Address:      www.autodesk.com"
 90
    32768
280
     0
281
     0
  0
CLASS
  1
IMAGEDEF
  2
AcDbRasterImageDef
  3
ISM
 90
        0
280
     0
281
     0
  0
CLASS
  1
RASTERVARIABLES
  2
AcDbRasterVariables
  3
ISM
 90
        0
280
     0
281
     0
  0
CLASS
  1
IMAGEDEF_REACTOR
  2
AcDbRasterImageDefReactor
  3
ISM
 90
        1
280
     0
281
     0
  0
CLASS
  1
IMAGE
  2
AcDbRasterImage
  3
ISM
 90
      127
280
     0
281
     1
  0
ENDSEC
  0
SECTION
  2
TABLES
  0
TABLE
  2
VPORT
  5
8
330
0
100
AcDbSymbolTable
 70
     1
  0
VPORT
  5
8A2
330
8
100
AcDbSymbolTableRecord
100
AcDbViewportTableRecord
  2
*Active
 70
     0
 10
0.0
 20
0.0
 11
1.0
 21
1.0
 12
521.7877406716873
 22
295.1319871268601
 13
0.0
 23
0.0
 14
10.0
 24
10.0
 15
10.0
 25
10.0
 16
0.0
 26
0.0
 36
1.0
 17
0.0
 27
0.0
 37
0.0
 40
304.6023002060019
 41
1.89090909090909
 42
50.0
 43
0.0
 44
0.0
 50
0.0
 51
0.0
 71
     0
 72
   100
 73
     1
 74
     3
 75
     0
 76
     0
 77
     0
 78
     0
281
     0
 65
     1
110
0.0
120
0.0
130
0.0
111
1.0
121
0.0
131
0.0
112
0.0
122
1.0
132
0.0
 79
     0
146
0.0
  0
ENDTAB
  0
TABLE
  2
LTYPE
  5
5
330
0
100
AcDbSymbolTable
 70
     4
  0
LTYPE
  5
14
330
5
100
AcDbSymbolTableRecord
100
AcDbLinetypeTableRecord
  2
ByBlock
 70
     0
  3

 72
    65
 73
     0
 40
0.0
  0
LTYPE
  5
15
330
5
100
AcDbSymbolTableRecord
100
AcDbLinetypeTableRecord
  2
ByLayer
 70
     0
  3

 72
    65
 73
     0
 40
0.0
  0
LTYPE
  5
16
330
5
100
AcDbSymbolTableRecord
100
AcDbLinetypeTableRecord
  2
Continuous
 70
     0
  3
Solid line
 72
    65
 73
     0
 40
0.0
  0
LTYPE
  5
28A
330
5
100
AcDbSymbolTableRecord
100
AcDbLinetypeTableRecord
  2
DASHDOT
 70
     0
  3
__ . __ . __ . __ . __ . __ . __ . __ . __ . __
 72
    65
 73
     4
 40
1.0
 49
0.5
 74
     0
 49
-0.25
 74
     0
 49
0.0
 74
     0
 49
-0.25
 74
     0
  0
LTYPE
  5
28B
330
5
100
AcDbSymbolTableRecord
100
AcDbLinetypeTableRecord
  2
DASHED
 70
     0
  3
Dashed __ __ __ __ __ __ __ __ __ __ __ __ __ _
 72
    65
 73
     2
 40
0.75
 49
0.5
 74
     0
 49
-0.25
 74
     0
  0
LTYPE
  5
7F1
330
5
100
AcDbSymbolTableRecord
100
AcDbLinetypeTableRecord
  2
ACAD_ISO02W100
 70
     0
  3
ISO dash __ __ __ __ __ __ __ __ __ __ __ __ __
 72
    65
 73
     2
 40
15.0
 49
12.0
 74
     0
 49
-3.0
 74
     0
  0
ENDTAB
  0
TABLE
  2
LAYER
  5
2
102
{ACAD_XDICTIONARY
360
2B
102
}
330
0
100
AcDbSymbolTable
 70
    13
  0
LAYER
  5
10
330
2
100
AcDbSymbolTableRecord
100
AcDbLayerTableRecord
  2
0
 70
     0
 62
     7
  6
Continuous
370
    25
390
F
  0
LAYER
  5
28C
330
2
100
AcDbSymbolTableRecord
100
AcDbLayerTableRecord
  2
kiri
 70
     0
 62
     7
  6
Continuous
370
     9
390
F
  0
LAYER
  5
28D
330
2
100
AcDbSymbolTableRecord
100
AcDbLayerTableRecord
  2
DIM
 70
     0
 62
     7
  6
Continuous
370
    25
390
F
  0
LAYER
  5
28E
330
2
100
AcDbSymbolTableRecord
100
AcDbLayerTableRecord
  2
DEFPOINTS
 70
     0
 62
     7
  6
Continuous
290
     0
370
    -3
390
F
  0
LAYER
  5
484
330
2
100
AcDbSymbolTableRecord
100
AcDbLayerTableRecord
  2
neelu alusplekk
 70
     0
 62
     1
  6
Continuous
370
    25
390
F
  0
LAYER
  5
4A9
330
2
100
AcDbSymbolTableRecord
100
AcDbLayerTableRecord
  2
minu
 70
     0
 62
     5
  6
Continuous
370
    25
390
F
  0
LAYER
  5
4B0
330
2
100
AcDbSymbolTableRecord
100
AcDbLayerTableRecord
  2
3D alumiiniumneel
 70
     0
 62
     6
  6
Continuous
370
    -3
390
F
  0
LAYER
  5
4EE
330
2
100
AcDbSymbolTableRecord
100
AcDbLayerTableRecord
  2
Medis
 70
     0
 62
     5
  6
Continuous
370
    -3
390
F
  0
LAYER
  5
4EF
330
2
100
AcDbSymbolTableRecord
100
AcDbLayerTableRecord
  2
hatch
 70
     0
 62
     8
  6
Continuous
370
    -3
390
F
  0
LAYER
  5
4F0
330
2
100
AcDbSymbolTableRecord
100
AcDbLayerTableRecord
  2
cherpes
 70
     0
 62
     3
  6
Continuous
370
    -3
390
F
  0
LAYER
  5
547
330
2
100
AcDbSymbolTableRecord
100
AcDbLayerTableRecord
  2
neeluplekiklamber
 70
     0
 62
     3
  6
Continuous
370
    25
390
F
  0
LAYER
  5
7F2
330
2
100
AcDbSymbolTableRecord
100
AcDbLayerTableRecord
  2
hüdroiso
 70
     0
 62
     4
  6
ACAD_ISO02W100
370
    53
390
F
  0
LAYER
  5
86D
330
2
100
AcDbSymbolTableRecord
100
AcDbLayerTableRecord
  2
vaateväli
 70
     0
 62
     7
  6
Continuous
290
     0
370
    -3
390
F
  0
ENDTAB
  0
TABLE
  2
STYLE
  5
3
330
0
100
AcDbSymbolTable
 70
     4
  0
STYLE
  5
11
330
3
100
AcDbSymbolTableRecord
100
AcDbTextStyleTableRecord
  2
Standard
 70
     0
 40
0.0
 41
1.0
 50
0.0
 71
     0
 42
2.5
  3
txt
  4

  0
STYLE
  5
28F
330
3
100
AcDbSymbolTableRecord
100
AcDbTextStyleTableRecord
  2
STYLE1
 70
     0
 40
0.0
 41
1.0
 50
0.0
 71
     0
 42
20.0
  3
C:\Program Files\AutoCAD LT\romans.shx
  4

  0
STYLE
  5
446
330
3
100
AcDbSymbolTableRecord
100
AcDbTextStyleTableRecord
  2
ARIAL
 70
     0
 40
0.0
 41
1.0
 50
0.0
 71
     0
 42
3.0
  3
ARIAL.TTF
  4

1001
ACAD
1000
Arial
1071
       34
  0
STYLE
  5
7F0
330
3
100
AcDbSymbolTableRecord
100
AcDbTextStyleTableRecord
  2

 70
     1
 40
0.0
 41
1.0
 50
0.0
 71
     0
 42
2.5
  3
ltypeshp.shx
  4

  0
ENDTAB
  0
TABLE
  2
VIEW
  5
6
330
0
100
AcDbSymbolTable
 70
     0
  0
ENDTAB
  0
TABLE
  2
UCS
  5
7
330
0
100
AcDbSymbolTable
 70
     0
  0
ENDTAB
  0
TABLE
  2
APPID
  5
9
330
0
100
AcDbSymbolTable
 70
     1
  0
APPID
  5
12
330
9
100
AcDbSymbolTableRecord
100
AcDbRegAppTableRecord
  2
ACAD
 70
     0
  0
ENDTAB
  0
TABLE
  2
DIMSTYLE
  5
A
330
0
100
AcDbSymbolTable
 70
     2
100
AcDbDimStyleTable
 71
     1
340
27
  0
DIMSTYLE
105
27
102
{ACAD_REACTORS
330
81E
330
843
102
}
330
A
100
AcDbSymbolTableRecord
100
AcDbDimStyleTableRecord
  2
ISO-25
 70
     0
 41
2.5
 42
0.625
 43
3.75
 44
1.25
 73
     0
 74
     0
 77
     1
 78
     8
140
2.5
141
2.5
143
0.03937007874016
147
0.625
171
     3
172
     1
179
     3
271
     2
272
     2
274
     3
278
    44
283
     0
284
     8
340
11
342
82B
  0
DIMSTYLE
105
290
330
A
100
AcDbSymbolTableRecord
100
AcDbDimStyleTableRecord
  2
MK10
 70
     0
 40
10.0
 41
0.2
 42
0.1
 43
0.4
 44
0.2
141
0.1
147
0.1
173
     1
271
     0
272
     0
340
11
341
278
343
278
344
278
  0
ENDTAB
  0
TABLE
  2
BLOCK_RECORD
  5
1
330
0
100
AcDbSymbolTable
 70
     8
  0
BLOCK_RECORD
  5
1F
330
1
100
AcDbSymbolTableRecord
100
AcDbBlockTableRecord
  2
*Model_Space
340
22
  0
BLOCK_RECORD
  5
1B
330
1
100
AcDbSymbolTableRecord
100
AcDbBlockTableRecord
  2
*Paper_Space
340
1E
  0
BLOCK_RECORD
  5
23
330
1
100
AcDbSymbolTableRecord
100
AcDbBlockTableRecord
  2
*Paper_Space0
340
26
  0
BLOCK_RECORD
  5
278
330
1
100
AcDbSymbolTableRecord
100
AcDbBlockTableRecord
  2
_OBLIQUE
340
0
  0
BLOCK_RECORD
  5
4E1
330
1
100
AcDbSymbolTableRecord
100
AcDbBlockTableRecord
  2
Taselis
340
0
102
{BLKREFS
331
4F2
102
}
1001
ACAD
1000
DesignCenter Data
1002
{
1070
     1
1070
     4
1002
}
  0
BLOCK_RECORD
  5
4F1
330
1
100
AcDbSymbolTableRecord
100
AcDbBlockTableRecord
  2
kivi rooviga
340
0
1001
ACAD
1000
DesignCenter Data
1002
{
1070
     1
1070
     4
1002
}
  0
BLOCK_RECORD
  5
56D
330
1
100
AcDbSymbolTableRecord
100
AcDbBlockTableRecord
  2
neeluplekikinnitusklamber
340
0
102
{BLKREFS
331
57B
331
68E
102
}
1001
ACAD
1000
DesignCenter Data
1002
{
1070
     1
1070
     4
1002
}
  0
BLOCK_RECORD
  5
81F
330
1
100
AcDbSymbolTableRecord
100
AcDbBlockTableRecord
  2
*D5
340
0
  0
BLOCK_RECORD
  5
82B
330
1
100
AcDbSymbolTableRecord
100
AcDbBlockTableRecord
  2
_ArchTick
340
0
102
{BLKREFS
331
83B
331
83C
331
853
331
854
102
}
  0
BLOCK_RECORD
  5
844
330
1
100
AcDbSymbolTableRecord
100
AcDbBlockTableRecord
  2
*D7
340
0
  0
ENDTAB
  0
ENDSEC
  0
SECTION
  2
BLOCKS
  0
BLOCK
  5
20
330
1F
100
AcDbEntity
  8
0
100
AcDbBlockBegin
  2
*Model_Space
 70
     0
 10
0.0
 20
0.0
 30
0.0
  3
*Model_Space
  1

  0
ENDBLK
  5
21
330
1F
100
AcDbEntity
  8
0
100
AcDbBlockEnd
  0
BLOCK
  5
1C
330
1B
100
AcDbEntity
 67
     1
  8
0
100
AcDbBlockBegin
  2
*Paper_Space
 70
     0
 10
0.0
 20
0.0
 30
0.0
  3
*Paper_Space
  1

  0
ENDBLK
  5
1D
330
1B
100
AcDbEntity
 67
     1
  8
0
100
AcDbBlockEnd
  0
BLOCK
  5
24
330
23
100
AcDbEntity
  8
0
100
AcDbBlockBegin
  2
*Paper_Space0
 70
     0
 10
0.0
 20
0.0
 30
0.0
  3
*Paper_Space0
  1

  0
ENDBLK
  5
25
330
23
100
AcDbEntity
  8
0
100
AcDbBlockEnd
  0
BLOCK
  5
27A
330
278
100
AcDbEntity
  8
0
100
AcDbBlockBegin
  2
_OBLIQUE
 70
     0
 10
0.0
 20
0.0
 30
0.0
  3
_OBLIQUE
  1

  0
LINE
  5
279
330
278
100
AcDbEntity
  8
0
  6
ByBlock
 62
     0
100
AcDbLine
 10
-0.5
 20
-0.5
 30
0.0
 11
0.5
 21
0.5
 31
0.0
  0
ENDBLK
  5
27B
330
278
100
AcDbEntity
  8
0
100
AcDbBlockEnd
  0
BLOCK
  5
4EC
330
4E1
100
AcDbEntity
  8
0
 48
10.0
100
AcDbBlockBegin
  2
Taselis
 70
     0
 10
0.0
 20
0.0
 30
0.0
  3
Taselis
  1

  0
LWPOLYLINE
  5
4E2
330
4E1
100
AcDbEntity
  8
Medis
100
AcDbPolyline
 90
        3
 70
     0
 43
0.0
 10
47.51928678782951
 20
2.725465264823924
 10
47.51928678782951
 20
52.72546526482392
 10
-2.480713212170485
 20
52.72546526482392
  0
ARC
  5
4E3
330
4E1
100
AcDbEntity
  8
hatch
100
AcDbCircle
 10
9.936681130283659
 20
5.30757679212752
 30
0.0
 40
27.84358727772876
100
AcDbArc
 50
354.6789553402742
 51
47.895843791943
  0
ARC
  5
4E4
330
4E1
100
AcDbEntity
  8
hatch
100
AcDbCircle
 10
4.493969352171006
 20
3.349279180444227
 30
0.0
 40
18.23049250814192
100
AcDbArc
 50
358.0390610315847
 51
65.28866051751889
  0
ARC
  5
4E5
330
4E1
100
AcDbEntity
  8
hatch
100
AcDbCircle
 10
0.0
 20
0.0
 30
0.0
 40
7.250294329101387
100
AcDbArc
 50
22.08062830991937
 51
110.0081282528801
  0
LINE
  5
4E6
330
4E1
100
AcDbEntity
  8
Medis
100
AcDbLine
 10
-2.480713212170485
 20
52.72546526482392
 30
0.0
 11
-2.480713212170485
 21
2.725465264823924
 31
0.0
  0
LINE
  5
4E7
330
4E1
100
AcDbEntity
  8
Medis
100
AcDbLine
 10
-2.480713212170485
 20
2.725465264823924
 30
0.0
 11
47.51928678782951
 21
2.725465264823924
 31
0.0
  0
LINE
  5
4E8
330
4E1
100
AcDbEntity
  8
hatch
100
AcDbLine
 10
15.817026632345
 20
8.472780682527172
 30
0.0
 11
44.42228716850104
 21
27.98388304566128
 31
0.0
  0
ARC
  5
4E9
330
4E1
100
AcDbEntity
  8
hatch
100
AcDbCircle
 10
3.028791491869469
 20
9.14557503868059
 30
0.0
 40
40.45755794908456
100
AcDbArc
 50
11.02524189206439
 51
73.77367683879859
  0
ARC
  5
4EA
330
4E1
100
AcDbEntity
  8
hatch
100
AcDbCircle
 10
-3.540143199553654
 20
9.581033035634391
 30
0.0
 40
22.18418094587978
100
AcDbArc
 50
43.87388354679734
 51
87.26273583491048
  0
LINE
  5
4EB
330
4E1
100
AcDbEntity
  8
hatch
100
AcDbLine
 10
2.692260615362101
 20
12.17316119744077
 30
0.0
 11
13.12476725364695
 21
42.78540840705
 31
0.0
  0
ENDBLK
  5
4ED
330
4E1
100
AcDbEntity
  8
0
 48
10.0
100
AcDbBlockEnd
  0
BLOCK
  5
532
330
4F1
100
AcDbEntity
  8
0
100
AcDbBlockBegin
  2
kivi rooviga
 70
     0
 10
0.0
 20
0.0
 30
0.0
  3
kivi rooviga
  1

  0
INSERT
  5
4F2
330
4F1
100
AcDbEntity
  8
Medis
 48
10.0
100
AcDbBlockReference
  2
Taselis
 10
-37.96467235486431
 20
-28.70878664662711
 30
0.0
 50
33.81387788677956
  0
LINE
  5
4F3
330
4F1
100
AcDbEntity
  8
hatch
  6
Continuous
 48
10.0
100
AcDbLine
 10
-120.0205544020284
 20
-6.924743486859256
 30
0.0
 11
-120.0205544020284
 21
6.739550573434939
 31
0.0
  0
LINE
  5
4F4
330
4F1
100
AcDbEntity
  8
hatch
  6
Continuous
 48
10.0
100
AcDbLine
 10
-126.3705544020288
 20
-10.38312300148743
 30
0.0
 11
-126.3705544020288
 21
3.281171058804943
 31
0.0
  0
LINE
  5
4F5
330
4F1
100
AcDbEntity
  8
hatch
  6
Continuous
 48
10.0
100
AcDbLine
 10
-132.7205544020291
 20
-13.84150251611742
 30
0.0
 11
-132.7205544020291
 21
-0.1772084558232336
 31
0.0
  0
LINE
  5
4F6
330
4F1
100
AcDbEntity
  8
hatch
  6
Continuous
 48
10.0
100
AcDbLine
 10
-139.0705544020277
 20
-17.2998820307456
 30
0.0
 11
-139.0705544020277
 21
-3.63558797045141
 31
0.0
  0
LINE
  5
4F7
330
4F1
100
AcDbEntity
  8
hatch
  6
Continuous
 48
10.0
100
AcDbLine
 10
-145.420554402028
 20
-20.75826154537378
 30
0.0
 11
-145.420554402028
 21
-7.093967485079588
 31
0.0
  0
LINE
  5
4F8
330
4F1
100
AcDbEntity
  8
hatch
  6
Continuous
 48
10.0
100
AcDbLine
 10
-151.7705544020284
 20
-24.21664106000196
 30
0.0
 11
-151.7705544020284
 21
-10.55234699970776
 31
0.0
  0
LINE
  5
4F9
330
4F1
100
AcDbEntity
  8
hatch
  6
Continuous
 48
10.0
100
AcDbLine
 10
-158.1205544020288
 20
-27.67502057463014
 30
0.0
 11
-158.1205544020288
 21
-14.01072651433776
 31
0.0
  0
LINE
  5
4FA
330
4F1
100
AcDbEntity
  8
hatch
  6
Continuous
 48
10.0
100
AcDbLine
 10
-164.4705544020291
 20
-31.13340008926013
 30
0.0
 11
-164.4705544020291
 21
-17.46910602896593
 31
0.0
  0
LINE
  5
4FB
330
4F1
100
AcDbEntity
  8
hatch
  6
Continuous
 48
10.0
100
AcDbLine
 10
-170.8205544020277
 20
-34.59177960388831
 30
0.0
 11
-170.8205544020277
 21
-20.92748554359411
 31
0.0
  0
LWPOLYLINE
  5
4FC
330
4F1
100
AcDbEntity
  8
cherpes
  6
Continuous
100
AcDbPolyline
 90
        8
 70
   128
 43
0.0
 10
-329.4893082831344
 20
-133.0118327800126
 10
-325.7417219970042
 20
-120.3000414376773
 42
-0.1989122287127879
 10
-323.8181486195438
 20
-117.918353718739
 10
-26.35777877368616
 20
44.08650446846434
 42
-0.3677254187910698
 10
-21.28462774494744
 20
43.02614817824826
 10
-16.13839235376633
 20
36.39521301673369
 42
0.3677253557588628
 10
-11.0652421052049
 20
35.3348563016126
 10
0.8767087814927663
 20
41.83875810850906
  0
LWPOLYLINE
  5
4FD
330
4F1
100
AcDbEntity
  8
cherpes
  6
Continuous
100
AcDbPolyline
 90
       14
 70
   128
 43
0.0
 10
-325.7417220349374
 20
-120.3000424081973
 10
-329.4893044383929
 20
-133.0118343952243
 42
-0.4142134924785241
 10
-336.9410867904511
 20
-137.0702728382447
 10
-340.1195325624915
 20
-136.1332313103329
 42
0.4142104095021589
 10
-345.0873755592232
 20
-138.8388165507338
 10
-345.4589035250113
 20
-140.0989897584594
 42
-0.4142088631848201
 10
-350.4267262657953
 20
-142.8045809704243
 10
-351.7115926358905
 20
-142.4257953001714
 42
0.5973386449645318
 10
-356.6683094489411
 20
-147.4307075928344
 42
-0.3561150479151772
 10
-359.5369932633305
 20
-154.4521619081486
 10
-367.9677235162411
 20
-159.0437626640567
 10
-373.7072227021593
 20
-148.5053530775866
 42
-0.4142135623730951
 10
-367.7085831917605
 20
-128.1579619911525
 10
-12.03716763693899
 20
65.55018564565319
  0
LWPOLYLINE
  5
4FE
330
4F1
100
AcDbEntity
  8
cherpes
  6
Continuous
100
AcDbPolyline
 90
        4
 70
   128
 43
0.0
 10
-373.7072227021593
 20
-148.5053530775866
 10
-390.9257260379066
 20
-116.8901137091296
 42
-0.4142135623730951
 10
-384.927086527506
 20
-96.54272262269195
 10
-92.01427537791586
 20
62.98541370045416
  0
LINE
  5
4FF
330
4F1
100
AcDbEntity
  8
hatch
  6
Continuous
 48
10.0
100
AcDbLine
 10
-12.07055440202771
 20
34.95204769925851
 30
0.0
 11
-12.07055440202771
 21
65.53200232211941
 31
0.0
  0
HATCH
  5
500
330
4F1
100
AcDbEntity
  8
hatch
  6
Continuous
 48
10.0
100
AcDbHatch
 10
0.0
 20
0.0
 30
0.0
210
0.0
220
0.0
230
1.0
  2
ANSI31
 70
     0
 71
     0
 91
        1
 92
        7
 72
     0
 73
     1
 93
        3
 10
0.8767048393825689
 20
41.8387594005045
 10
-6.091554402027554
 20
54.63331997310627
 10
-6.091554402027554
 20
38.04365939843694
 97
        0
 75
     0
 76
     1
 52
45.0
 41
2.0
 77
     0
 78
     1
 53
90.0
 43
-11696.07055440202
 44
11026.64926084355
 45
-6.349999999999999
 46
0.0000000000000013
 79
     0
 47
0.4294323049079476
 98
        1
 10
-2.961523728095357
 20
42.00518200721956
  0
LWPOLYLINE
  5
501
330
4F1
100
AcDbEntity
  8
cherpes
  6
Continuous
100
AcDbPolyline
 90
        3
 70
   128
 43
0.0
 10
-21.58610174626608
 20
83.083169163957
 10
0.8767048393825689
 20
41.83875940050268
 10
-11.065239487339
 20
35.33485772737288
  0
LINE
  5
502
330
4F1
100
AcDbEntity
  8
hatch
  6
Continuous
 48
10.0
100
AcDbLine
 10
-18.42055440202807
 20
39.33578363191202
 30
0.0
 11
-18.42055440202807
 21
62.07362280749123
 31
0.0
  0
LINE
  5
503
330
4F1
100
AcDbEntity
  8
hatch
  6
Continuous
 48
10.0
100
AcDbLine
 10
-24.77055440202843
 20
44.56039845662973
 30
0.0
 11
-24.77055440202843
 21
58.61524329286305
 31
0.0
  0
LINE
  5
504
330
4F1
100
AcDbEntity
  8
hatch
  6
Continuous
 48
10.0
100
AcDbLine
 10
-31.1205544020288
 20
41.49256971793886
 30
0.0
 11
-31.1205544020288
 21
55.15686377823306
 31
0.0
  0
LINE
  5
505
330
4F1
100
AcDbEntity
  8
hatch
  6
Continuous
 48
10.0
100
AcDbLine
 10
-37.47055440202916
 20
38.03419020331068
 30
0.0
 11
-37.47055440202916
 21
51.69848426360488
 31
0.0
  0
LINE
  5
506
330
4F1
100
AcDbEntity
  8
hatch
  6
Continuous
 48
10.0
100
AcDbLine
 10
-43.82055440202771
 20
34.5758106886825
 30
0.0
 11
-43.82055440202771
 21
48.2401047489767
 31
0.0
  0
LINE
  5
507
330
4F1
100
AcDbEntity
  8
hatch
  6
Continuous
 48
10.0
100
AcDbLine
 10
-50.17055440202807
 20
31.11743117405433
 30
0.0
 11
-50.17055440202807
 21
44.78172523434852
 31
0.0
  0
LINE
  5
508
330
4F1
100
AcDbEntity
  8
hatch
  6
Continuous
 48
10.0
100
AcDbLine
 10
-56.52055440202843
 20
27.65905165942615
 30
0.0
 11
-56.52055440202843
 21
41.32334571972035
 31
0.0
  0
LINE
  5
509
330
4F1
100
AcDbEntity
  8
hatch
  6
Continuous
 48
10.0
100
AcDbLine
 10
-62.8705544020288
 20
24.20067214479615
 30
0.0
 11
-62.8705544020288
 21
37.86496620509035
 31
0.0
  0
LINE
  5
50A
330
4F1
100
AcDbEntity
  8
hatch
  6
Continuous
 48
10.0
100
AcDbLine
 10
-69.22055440202917
 20
20.74229263016797
 30
0.0
 11
-69.22055440202917
 21
34.40658669046217
 31
0.0
  0
LINE
  5
50B
330
4F1
100
AcDbEntity
  8
hatch
  6
Continuous
 48
10.0
100
AcDbLine
 10
-75.57055440202771
 20
17.2839131155398
 30
0.0
 11
-75.57055440202771
 21
30.948207175834
 31
0.0
  0
LINE
  5
50C
330
4F1
100
AcDbEntity
  8
hatch
  6
Continuous
 48
10.0
100
AcDbLine
 10
-81.92055440202807
 20
13.82553360091162
 30
0.0
 11
-81.92055440202807
 21
27.48982766120582
 31
0.0
  0
LINE
  5
50D
330
4F1
100
AcDbEntity
  8
hatch
  6
Continuous
 48
10.0
100
AcDbLine
 10
-88.27055440202844
 20
10.36715408628344
 30
0.0
 11
-88.27055440202844
 21
24.03144814657764
 31
0.0
  0
LINE
  5
50E
330
4F1
100
AcDbEntity
  8
hatch
  6
Continuous
 48
10.0
100
AcDbLine
 10
-94.62055440202879
 20
6.908774571653452
 30
0.0
 11
-94.62055440202879
 21
20.57306863194765
 31
0.0
  0
LINE
  5
50F
330
4F1
100
AcDbEntity
  8
hatch
  6
Continuous
 48
10.0
100
AcDbLine
 10
-100.9705544020291
 20
3.450395057025275
 30
0.0
 11
-100.9705544020291
 21
17.11468911731947
 31
0.0
  0
LINE
  5
510
330
4F1
100
AcDbEntity
  8
hatch
  6
Continuous
 48
10.0
100
AcDbLine
 10
-107.3205544020277
 20
-0.0079844576029018
 30
0.0
 11
-107.3205544020277
 21
13.65630960269129
 31
0.0
  0
LINE
  5
511
330
4F1
100
AcDbEntity
  8
hatch
  6
Continuous
 48
10.0
100
AcDbLine
 10
-113.670554402028
 20
-3.466363972231079
 30
0.0
 11
-113.670554402028
 21
10.19793008806311
 31
0.0
  0
LINE
  5
512
330
4F1
100
AcDbEntity
  8
hatch
  6
Continuous
 48
10.0
100
AcDbLine
 10
-177.170554402028
 20
-38.05015911851649
 30
0.0
 11
-177.170554402028
 21
-24.38586505822229
 31
0.0
  0
LINE
  5
513
330
4F1
100
AcDbEntity
  8
hatch
  6
Continuous
 48
10.0
100
AcDbLine
 10
-183.5205544020284
 20
-41.50853863314466
 30
0.0
 11
-183.5205544020284
 21
-27.84424457285047
 31
0.0
  0
LINE
  5
514
330
4F1
100
AcDbEntity
  8
hatch
  6
Continuous
 48
10.0
100
AcDbLine
 10
-189.8705544020288
 20
-44.96691814777284
 30
0.0
 11
-189.8705544020288
 21
-31.30262408747864
 31
0.0
  0
LINE
  5
515
330
4F1
100
AcDbEntity
  8
hatch
  6
Continuous
 48
10.0
100
AcDbLine
 10
-196.2205544020291
 20
-48.42529766240284
 30
0.0
 11
-196.2205544020291
 21
-34.76100360210864
 31
0.0
  0
LINE
  5
516
330
4F1
100
AcDbEntity
  8
hatch
  6
Continuous
 48
10.0
100
AcDbLine
 10
-202.5705544020277
 20
-51.88367717703101
 30
0.0
 11
-202.5705544020277
 21
-38.21938311673682
 31
0.0
  0
LINE
  5
517
330
4F1
100
AcDbEntity
  8
hatch
  6
Continuous
 48
10.0
100
AcDbLine
 10
-208.920554402028
 20
-55.3420566916592
 30
0.0
 11
-208.920554402028
 21
-41.677762631365
 31
0.0
  0
LINE
  5
518
330
4F1
100
AcDbEntity
  8
hatch
  6
Continuous
 48
10.0
100
AcDbLine
 10
-215.2705544020284
 20
-58.80043620628737
 30
0.0
 11
-215.2705544020284
 21
-45.13614214599317
 31
0.0
  0
LINE
  5
519
330
4F1
100
AcDbEntity
  8
hatch
  6
Continuous
 48
10.0
100
AcDbLine
 10
-221.6205544020287
 20
-62.25881572091555
 30
0.0
 11
-221.6205544020287
 21
-48.59452166062135
 31
0.0
  0
LINE
  5
51A
330
4F1
100
AcDbEntity
  8
hatch
  6
Continuous
 48
10.0
100
AcDbLine
 10
-227.9705544020291
 20
-65.71719523554555
 30
0.0
 11
-227.9705544020291
 21
-52.05290117525135
 31
0.0
  0
LINE
  5
51B
330
4F1
100
AcDbEntity
  8
hatch
  6
Continuous
 48
10.0
100
AcDbLine
 10
-234.3205544020277
 20
-69.17557475017372
 30
0.0
 11
-234.3205544020277
 21
-55.51128068987953
 31
0.0
  0
LINE
  5
51C
330
4F1
100
AcDbEntity
  8
hatch
  6
Continuous
 48
10.0
100
AcDbLine
 10
-240.670554402028
 20
-72.6339542648019
 30
0.0
 11
-240.670554402028
 21
-58.9696602045077
 31
0.0
  0
LINE
  5
51D
330
4F1
100
AcDbEntity
  8
hatch
  6
Continuous
 48
10.0
100
AcDbLine
 10
-247.0205544020284
 20
-76.09233377943008
 30
0.0
 11
-247.0205544020284
 21
-62.42803971913588
 31
0.0
  0
LINE
  5
51E
330
4F1
100
AcDbEntity
  8
hatch
  6
Continuous
 48
10.0
100
AcDbLine
 10
-253.3705544020288
 20
-79.55071329405825
 30
0.0
 11
-253.3705544020288
 21
-65.88641923376406
 31
0.0
  0
LINE
  5
51F
330
4F1
100
AcDbEntity
  8
hatch
  6
Continuous
 48
10.0
100
AcDbLine
 10
-259.7205544020291
 20
-83.00909280868642
 30
0.0
 11
-259.7205544020291
 21
-69.34479874839405
 31
0.0
  0
LINE
  5
520
330
4F1
100
AcDbEntity
  8
hatch
  6
Continuous
 48
10.0
100
AcDbLine
 10
-266.0705544020277
 20
-86.46747232331643
 30
0.0
 11
-266.0705544020277
 21
-72.80317826302223
 31
0.0
  0
LINE
  5
521
330
4F1
100
AcDbEntity
  8
hatch
  6
Continuous
 48
10.0
100
AcDbLine
 10
-272.420554402028
 20
-89.9258518379446
 30
0.0
 11
-272.420554402028
 21
-76.26155777765041
 31
0.0
  0
LINE
  5
522
330
4F1
100
AcDbEntity
  8
hatch
  6
Continuous
 48
10.0
100
AcDbLine
 10
-278.7705544020284
 20
-93.38423135257277
 30
0.0
 11
-278.7705544020284
 21
-79.71993729227858
 31
0.0
  0
LINE
  5
523
330
4F1
100
AcDbEntity
  8
hatch
  6
Continuous
 48
10.0
100
AcDbLine
 10
-285.1205544020288
 20
-96.84261086720097
 30
0.0
 11
-285.1205544020288
 21
-83.17831680690677
 31
0.0
  0
LINE
  5
524
330
4F1
100
AcDbEntity
  8
hatch
  6
Continuous
 48
10.0
100
AcDbLine
 10
-291.4705544020291
 20
-100.3009903818291
 30
0.0
 11
-291.4705544020291
 21
-86.63669632153675
 31
0.0
  0
LINE
  5
525
330
4F1
100
AcDbEntity
  8
hatch
  6
Continuous
 48
10.0
100
AcDbLine
 10
-297.8205544020277
 20
-103.7593698964591
 30
0.0
 11
-297.8205544020277
 21
-90.09507583616494
 31
0.0
  0
LINE
  5
526
330
4F1
100
AcDbEntity
  8
hatch
  6
Continuous
 48
10.0
100
AcDbLine
 10
-304.170554402028
 20
-107.2177494110873
 30
0.0
 11
-304.170554402028
 21
-93.55345535079312
 31
0.0
  0
LINE
  5
527
330
4F1
100
AcDbEntity
  8
hatch
  6
Continuous
 48
10.0
100
AcDbLine
 10
-310.5205544020284
 20
-110.6761289257155
 30
0.0
 11
-310.5205544020284
 21
-97.01183486542129
 31
0.0
  0
LINE
  5
528
330
4F1
100
AcDbEntity
  8
hatch
  6
Continuous
 48
10.0
100
AcDbLine
 10
-316.8705544020288
 20
-114.1345084403436
 30
0.0
 11
-316.8705544020288
 21
-100.4702143800494
 31
0.0
  0
LINE
  5
529
330
4F1
100
AcDbEntity
  8
hatch
  6
Continuous
 48
10.0
100
AcDbLine
 10
-323.2205544020291
 20
-117.5928879549718
 30
0.0
 11
-323.2205544020291
 21
-103.9285938946776
 31
0.0
  0
LINE
  5
52A
330
4F1
100
AcDbEntity
  8
hatch
  6
Continuous
 48
10.0
100
AcDbLine
 10
-329.5705544020277
 20
-133.2663925172781
 30
0.0
 11
-329.5705544020277
 21
-107.3869734093076
 31
0.0
  0
LINE
  5
52B
330
4F1
100
AcDbEntity
  8
hatch
  6
Continuous
 48
10.0
100
AcDbLine
 10
-335.920554402028
 20
-137.276942824148
 30
0.0
 11
-335.920554402028
 21
-110.8453529239358
 31
0.0
  0
LINE
  5
52C
330
4F1
100
AcDbEntity
  8
hatch
  6
Continuous
 48
10.0
100
AcDbLine
 10
-342.2705544020284
 20
-136.1021835688769
 30
0.0
 11
-342.2705544020284
 21
-114.3037324385639
 31
0.0
  0
LINE
  5
52D
330
4F1
100
AcDbEntity
  8
hatch
  6
Continuous
 48
10.0
100
AcDbLine
 10
-348.6205544020287
 20
-142.9104563603249
 30
0.0
 11
-348.6205544020287
 21
-117.7621119531921
 31
0.0
  0
LINE
  5
52E
330
4F1
100
AcDbEntity
  8
hatch
  6
Continuous
 48
10.0
100
AcDbLine
 10
-354.9705544020291
 20
-142.8754816001618
 30
0.0
 11
-354.9705544020291
 21
-121.2204914678203
 31
0.0
  0
LINE
  5
52F
330
4F1
100
AcDbEntity
  8
hatch
  6
Continuous
 48
10.0
100
AcDbLine
 10
-361.3205544020277
 20
-155.4235369168344
 30
0.0
 11
-361.3205544020277
 21
-124.6788709824503
 31
0.0
  0
LINE
  5
530
330
4F1
100
AcDbEntity
  8
hatch
  6
Continuous
 48
10.0
100
AcDbLine
 10
-367.670554402028
 20
-158.8819164314626
 30
0.0
 11
-367.670554402028
 21
-128.1372504970785
 31
0.0
  0
LINE
  5
531
330
4F1
100
AcDbEntity
  8
hatch
  6
Continuous
 48
10.0
100
AcDbLine
 10
-374.0205544020284
 20
-147.8974409224464
 30
0.0
 11
-374.0205544020284
 21
-134.7645136566933
 31
0.0
  0
ENDBLK
  5
533
330
4F1
100
AcDbEntity
  8
0
100
AcDbBlockEnd
  0
BLOCK
  5
579
330
56D
100
AcDbEntity
  8
0
100
AcDbBlockBegin
  2
neeluplekikinnitusklamber
 70
     0
 10
0.0
 20
0.0
 30
0.0
  3
neeluplekikinnitusklamber
  1

  0
LINE
  5
56E
330
56D
100
AcDbEntity
  8
neeluplekiklamber
100
AcDbLine
 10
0.0
 20
0.0
 30
0.0
 11
-22.0
 21
0.0
 31
0.0
  0
LWPOLYLINE
  5
56F
330
56D
100
AcDbEntity
  8
neeluplekiklamber
100
AcDbPolyline
 90
        9
 70
     0
 43
0.0
 10
0.0
 20
1.199999999999988
 10
-22.0
 20
1.199999999999988
 10
-22.63476599572277
 20
1.200000000000045
 42
-0.440010530891838
 10
-26.61954478808979
 20
5.54862297099072
 10
-25.29667544619587
 20
20.66908873855527
 42
0.440010530891835
 10
-30.27764893665471
 20
26.1048674522936
 10
-30.90477525729102
 20
26.1048674522936
 42
0.3888787318529907
 10
-31.90096995538283
 20
25.19202319504126
 10
-33.91284425725212
 20
2.196194698091687
  0
LINE
  5
570
330
56D
100
AcDbEntity
  8
neeluplekiklamber
100
AcDbLine
 10
-30.73614343849863
 20
24.7899884433574
 30
0.0
 11
-32.71284425725207
 21
2.196194698091687
 31
0.0
  0
LINE
  5
571
330
56D
100
AcDbEntity
  8
neeluplekiklamber
100
AcDbLine
 10
-27.81954478808984
 20
5.54862297099072
 30
0.0
 11
-26.49667544619592
 21
20.66908873855527
 31
0.0
  0
ARC
  5
572
330
56D
100
AcDbEntity
  8
neeluplekiklamber
100
AcDbCircle
 10
-22.91045680588717
 20
4.939095389519422
 30
0.0
 40
4.946783671192886
100
AcDbArc
 50
172.9222016432324
 51
273.1948250305062
  0
LINE
  5
573
330
56D
100
AcDbEntity
  8
neeluplekiklamber
100
AcDbLine
 10
-33.91284425725212
 20
2.196194698091687
 30
0.0
 11
-32.71284425725207
 21
2.196194698091687
 31
0.0
  0
LINE
  5
574
330
56D
100
AcDbEntity
  8
neeluplekiklamber
100
AcDbLine
 10
-20.79999999999995
 20
1.199999999999988
 30
0.0
 11
-21.43476599572272
 21
1.200000000000045
 31
0.0
  0
LINE
  5
575
330
56D
100
AcDbEntity
  8
neeluplekiklamber
100
AcDbLine
 10
-22.0
 20
0.0
 30
0.0
 11
-22.63476599572277
 21
0.0000000000000568
 31
0.0
  0
ARC
  5
576
330
56D
100
AcDbEntity
  8
neeluplekiklamber
100
AcDbCircle
 10
-30.03665452953191
 20
21.59401914078961
 30
0.0
 40
3.658817863659478
100
AcDbArc
 50
345.3570396998114
 51
93.65539209625577
  0
ARC
  5
577
330
56D
100
AcDbEntity
  8
neeluplekiklamber
100
AcDbCircle
 10
-30.23804608945283
 20
24.74641057198363
 30
0.0
 40
0.5
100
AcDbArc
 50
93.65539209625577
 51
175.000000000007
  0
LINE
  5
578
330
56D
100
AcDbEntity
  8
neeluplekiklamber
100
AcDbLine
 10
0.0
 20
1.199999999999988
 30
0.0
 11
0.0
 21
0.0
 31
0.0
  0
ENDBLK
  5
57A
330
56D
100
AcDbEntity
  8
0
100
AcDbBlockEnd
  0
BLOCK
  5
829
330
81F
100
AcDbEntity
  8
0
100
AcDbBlockBegin
  2
*D5
 70
     1
 10
0.0
 20
0.0
 30
0.0
  3
*D5
  1

  0
LINE
  5
838
330
81F
100
AcDbEntity
  8
kiri
 62
     0
370
    -2
100
AcDbLine
 10
154.7606263271818
 20
92.80397495873614
 30
0.0
 11
153.9882227555561
 21
90.54171905850139
 31
0.0
  0
LINE
  5
839
330
81F
100
AcDbEntity
  8
kiri
 62
     0
370
    -2
100
AcDbLine
 10
178.346782434671
 20
84.75093762708155
 30
0.0
 11
177.5743788630453
 21
82.4886817268468
 31
0.0
  0
LINE
  5
83A
330
81F
100
AcDbEntity
  8
kiri
 62
     0
370
    -2
100
AcDbLine
 10
154.3921178927595
 20
91.72466821976886
 30
0.0
 11
177.9782740002487
 21
83.67163088811427
 31
0.0
  0
INSERT
  5
83B
330
81F
100
AcDbEntity
  8
kiri
 62
     0
370
    -2
100
AcDbBlockReference
  2
_ArchTick
 10
154.3921178927595
 20
91.72466821976886
 30
0.0
 41
2.5
 42
2.5
 43
2.5
 50
161.1485209306111
  0
INSERT
  5
83C
330
81F
100
AcDbEntity
  8
kiri
 62
     0
370
    -2
100
AcDbBlockReference
  2
_ArchTick
 10
177.9782740002487
 20
83.67163088811427
 30
0.0
 41
2.5
 42
2.5
 43
2.5
 50
341.1485209306111
  0
MTEXT
  5
83D
330
81F
100
AcDbEntity
  8
kiri
 62
     0
100
AcDbMText
 10
166.7910386523093
 20
89.47257329584278
 30
0.0
 40
2.5
 41
0.0
 71
     5
 72
     1
  1
100
 11
0.9463593290139737
 21
-0.3231161097627621
 31
0.0
 73
     1
 44
1.0
  0
POINT
  5
83E
330
81F
100
AcDbEntity
  8
DEFPOINTS
 62
     0
100
AcDbPoint
 10
154.9625738957835
 20
93.39544953936988
 30
0.0
  0
POINT
  5
83F
330
81F
100
AcDbEntity
  8
DEFPOINTS
 62
     0
100
AcDbPoint
 10
178.5487300032727
 20
85.34241220771528
 30
0.0
  0
POINT
  5
840
330
81F
100
AcDbEntity
  8
DEFPOINTS
 62
     0
100
AcDbPoint
 10
177.9782740002487
 20
83.67163088811427
 30
0.0
  0
ENDBLK
  5
82A
330
81F
100
AcDbEntity
  8
0
100
AcDbBlockEnd
  0
BLOCK
  5
82D
330
82B
100
AcDbEntity
  8
0
100
AcDbBlockBegin
  2
_ArchTick
 70
     0
 10
0.0
 20
0.0
 30
0.0
  3
_ArchTick
  1

  0
LWPOLYLINE
  5
82C
330
82B
100
AcDbEntity
  8
0
  6
ByBlock
 62
     0
100
AcDbPolyline
 90
        2
 70
     0
 43
0.15
 10
-0.5
 20
-0.5
 10
0.5
 20
0.5
  0
ENDBLK
  5
82E
330
82B
100
AcDbEntity
  8
0
100
AcDbBlockEnd
  0
BLOCK
  5
84E
330
844
100
AcDbEntity
  8
0
100
AcDbBlockBegin
  2
*D7
 70
     1
 10
0.0
 20
0.0
 30
0.0
  3
*D7
  1

  0
LINE
  5
850
330
844
100
AcDbEntity
  8
kiri
 62
     0
370
    -2
100
AcDbLine
 10
147.1611403538056
 20
118.2712718887101
 30
0.0
 11
147.7911678683885
 21
121.123750715147
 31
0.0
  0
LINE
  5
851
330
844
100
AcDbEntity
  8
kiri
 62
     0
370
    -2
100
AcDbLine
 10
178.6835251180685
 20
111.3089170615009
 30
0.0
 11
179.3135526326515
 21
114.1613958879378
 31
0.0
  0
LINE
  5
852
330
844
100
AcDbEntity
  8
kiri
 62
     0
370
    -2
100
AcDbLine
 10
147.5215776387969
 20
119.9031684327471
 30
0.0
 11
179.0439624030598
 21
112.9408136055379
 31
0.0
  0
INSERT
  5
853
330
844
100
AcDbEntity
  8
kiri
 62
     0
370
    -2
100
AcDbBlockReference
  2
_ArchTick
 10
147.5215776387969
 20
119.9031684327471
 30
0.0
 41
2.5
 42
2.5
 43
2.5
 50
167.5450341790132
  0
INSERT
  5
854
330
844
100
AcDbEntity
  8
kiri
 62
     0
370
    -2
100
AcDbBlockReference
  2
_ArchTick
 10
179.0439624030598
 20
112.9408136055379
 30
0.0
 41
2.5
 42
2.5
 43
2.5
 50
347.5450341790132
  0
MTEXT
  5
855
330
844
100
AcDbEntity
  8
kiri
 62
     0
100
AcDbMText
 10
163.6871553653158
 20
118.2528644427424
 30
0.0
 40
2.5
 41
0.0
 71
     5
 72
     1
  1
120-150
 11
0.9764658259199791
 21
-0.2156721836733077
 31
0.0
 73
     1
 44
1.0
  0
POINT
  5
856
330
844
100
AcDbEntity
  8
DEFPOINTS
 62
     0
100
AcDbPoint
 10
147.0263452390097
 20
117.6609807475101
 30
0.0
  0
POINT
  5
857
330
844
100
AcDbEntity
  8
DEFPOINTS
 62
     0
100
AcDbPoint
 10
178.5487300032727
 20
110.6986259203009
 30
0.0
  0
POINT
  5
858
330
844
100
AcDbEntity
  8
DEFPOINTS
 62
     0
100
AcDbPoint
 10
179.0439624030598
 20
112.9408136055379
 30
0.0
  0
ENDBLK
  5
84F
330
844
100
AcDbEntity
  8
0
100
AcDbBlockEnd
  0
ENDSEC
  0
SECTION
  2
ENTITIES
  0
LINE
  5
379
102
{ACAD_REACTORS
330
892
102
}
330
1F
100
AcDbEntity
  8
0
  6
DASHED
100
AcDbLine
 10
722.8430417664419
 20
416.4403555211503
 30
0.0
 11
699.1314059045508
 21
461.4487783416605
 31
0.0
  0
LINE
  5
37C
102
{ACAD_REACTORS
330
892
102
}
330
1F
100
AcDbEntity
  8
0
  6
DASHED
100
AcDbLine
 10
699.6800460335874
 20
408.2238998690521
 30
0.0
 11
699.1314059045508
 21
461.4487783416605
 31
0.0
  0
LINE
  5
3B1
330
1F
100
AcDbEntity
  8
0
100
AcDbLine
 10
489.9923676678768
 20
111.5826050645326
 30
0.0
 11
539.9923676678768
 21
251.5826050645326
 31
0.0
  0
LINE
  5
3B2
330
1F
100
AcDbEntity
  8
0
100
AcDbLine
 10
489.9923676678768
 20
251.5826050645326
 30
0.0
 11
539.9923676678768
 21
111.5217488730658
 31
0.0
  0
LINE
  5
3BE
330
1F
100
AcDbEntity
  8
0
100
AcDbLine
 10
539.9797917109544
 20
111.5217641795626
 30
0.0
 11
926.3449168241189
 21
247.3878375943335
 31
0.0
  0
LINE
  5
3C5
330
1F
100
AcDbEntity
  8
DIM
  6
DASHDOT
100
AcDbLine
 10
926.3449168241189
 20
94.91514087514531
 30
0.0
 11
926.3449168241189
 21
696.9151408751453
 31
0.0
  0
LINE
  5
413
330
1F
100
AcDbEntity
  8
DIM
  6
DASHDOT
100
AcDbLine
 10
99.34491682411886
 20
94.91514087514531
 30
0.0
 11
99.34491682411886
 21
696.9151408751453
 31
0.0
  0
LINE
  5
420
330
1F
100
AcDbEntity
  8
0
100
AcDbLine
 10
489.9923676678768
 20
111.5826050645326
 30
0.0
 11
99.34491682411886
 21
248.7762177844939
 31
0.0
  0
LWPOLYLINE
  5
470
330
1F
100
AcDbEntity
  8
0
100
AcDbPolyline
 90
        3
 70
     0
 43
0.0
 10
539.9923676678768
 20
261.5826050645326
 10
539.9923676678768
 20
270.5303707197307
 10
926.3449168241189
 20
406.3920217739534
  0
LWPOLYLINE
  5
471
330
1F
100
AcDbEntity
  8
0
100
AcDbPolyline
 90
        3
 70
     0
 43
0.0
 10
489.9923676678768
 20
261.5826050645326
 10
489.9923676678768
 20
270.56408421201
 10
99.34491682411886
 20
407.7576969319713
  0
LWPOLYLINE
  5
491
330
1F
100
AcDbEntity
  8
neelu alusplekk
370
    53
100
AcDbPolyline
 90
       11
 70
     0
 43
0.0
 10
342.4109011097773
 20
322.9611569633462
 10
335.9525336683594
 20
325.1875367601233
 42
-0.3810458885813212
 10
335.4646200582696
 20
326.0583690429764
 10
335.5083426361295
 20
326.2562908566983
 42
-0.4500330299192427
 10
336.8165390667002
 20
326.9839545535308
 10
514.9923676678768
 20
264.3280660274258
 10
693.1681962690533
 20
326.9839545535308
 42
-0.4500330299192427
 10
694.476392699624
 20
326.2562908566983
 10
694.520115277484
 20
326.0583690429764
 42
-0.3810458885813212
 10
694.0322016673941
 20
325.1875367601233
 10
687.5738342259762
 20
322.9611569633462
  0
LINE
  5
493
330
1F
100
AcDbEntity
  8
neelu alusplekk
100
AcDbLine
 10
539.9923676678768
 20
111.5217488730658
 30
0.0
 11
489.9923676678768
 21
111.5826050645326
 31
0.0
  0
LINE
  5
494
330
1F
100
AcDbEntity
  8
neelu alusplekk
100
AcDbLine
 10
489.9923676678768
 20
111.5826050645326
 30
0.0
 11
489.9923676678768
 21
261.5826050645326
 31
0.0
  0
LINE
  5
496
330
1F
100
AcDbEntity
  8
neelu alusplekk
100
AcDbLine
 10
539.9923676678768
 20
261.5826050645326
 30
0.0
 11
539.9923676678768
 21
111.5826050645326
 31
0.0
  0
LINE
  5
497
330
1F
100
AcDbEntity
  8
neelu alusplekk
100
AcDbLine
 10
539.9923676678768
 20
111.5826050645326
 30
0.0
 11
539.9923676678768
 21
111.5217488730658
 31
0.0
  0
LINE
  5
49B
330
1F
100
AcDbEntity
  8
minu
100
AcDbLine
 10
420.64774323792
 20
321.4145149488236
 30
0.0
 11
99.34491682411886
 21
434.2546101232175
 31
0.0
  0
LINE
  5
49D
330
1F
100
AcDbEntity
  8
minu
100
AcDbLine
 10
609.3369920978335
 20
321.4162447496594
 30
0.0
 11
926.3449168241189
 21
432.8927191372234
 31
0.0
  0
LINE
  5
49F
330
1F
100
AcDbEntity
  8
minu
100
AcDbLine
 10
445.64774323792
 20
312.6073608045846
 30
0.0
 11
420.64774323792
 21
321.3923218628825
 31
0.0
  0
LINE
  5
4A0
330
1F
100
AcDbEntity
  8
minu
100
AcDbLine
 10
420.64774323792
 20
294.9176017575774
 30
0.0
 11
420.64774323792
 21
321.4145149488236
 31
0.0
  0
LINE
  5
4A1
330
1F
100
AcDbEntity
  8
minu
100
AcDbLine
 10
584.3369920978337
 20
312.6073608045847
 30
0.0
 11
609.3369920978335
 21
321.3923218628825
 31
0.0
  0
LINE
  5
4A2
330
1F
100
AcDbEntity
  8
minu
100
AcDbLine
 10
609.3369920978335
 20
294.9155473863894
 30
0.0
 11
609.3369920978335
 21
321.4162447496594
 31
0.0
  0
LINE
  5
4A3
330
1F
100
AcDbEntity
  8
minu
100
AcDbLine
 10
584.3369920978335
 20
312.6073608045846
 30
0.0
 11
584.3369920978334
 21
365.626339189005
 31
0.0
  0
LINE
  5
4A4
330
1F
100
AcDbEntity
  8
minu
100
AcDbLine
 10
445.64774323792
 20
312.6073608045847
 30
0.0
 11
445.6477432379201
 21
365.6284547338458
 31
0.0
  0
LINE
  5
4A5
330
1F
100
AcDbEntity
  8
minu
100
AcDbLine
 10
445.64774323792
 20
365.6284547338458
 30
0.0
 11
99.34491682411886
 21
487.2484365057101
 31
0.0
  0
LINE
  5
4A6
102
{ACAD_REACTORS
330
633
102
}
330
1F
100
AcDbEntity
  8
minu
100
AcDbLine
 10
584.3369920978335
 20
365.626339189005
 30
0.0
 11
926.3449168241189
 21
485.8941138637633
 31
0.0
  0
LINE
  5
4A7
330
1F
100
AcDbEntity
  8
minu
100
AcDbLine
 10
659.3369920978335
 20
338.9988453240483
 30
0.0
 11
659.3369920978335
 21
392.0002400505882
 31
0.0
  0
LINE
  5
4A8
330
1F
100
AcDbEntity
  8
minu
100
AcDbLine
 10
370.64774323792
 20
338.9742881437641
 30
0.0
 11
370.6477432379201
 21
391.9681145262566
 31
0.0
  0
LINE
  5
4AA
330
1F
100
AcDbEntity
  8
minu
100
AcDbLine
 10
659.3369920978335
 20
392.0002400505882
 30
0.0
 11
584.3369920978337
 21
312.6073608045847
 31
0.0
  0
LINE
  5
4AB
330
1F
100
AcDbEntity
  8
minu
100
AcDbLine
 10
659.3369920978335
 20
338.9988453240483
 30
0.0
 11
584.3369920978335
 21
365.626339189005
 31
0.0
  0
LINE
  5
4AC
330
1F
100
AcDbEntity
  8
minu
100
AcDbLine
 10
445.64774323792
 20
312.6073608045847
 30
0.0
 11
370.6477432379201
 21
391.9681145262566
 31
0.0
  0
LINE
  5
4AD
330
1F
100
AcDbEntity
  8
minu
100
AcDbLine
 10
445.64774323792
 20
365.6284547338458
 30
0.0
 11
370.64774323792
 21
338.9742881437641
 31
0.0
  0
INSERT
  5
57B
102
{ACAD_REACTORS
330
633
102
}
330
1F
100
AcDbEntity
  8
neeluplekiklamber
100
AcDbBlockReference
  2
neeluplekikinnitusklamber
 10
755.7330928407066
 20
425.8982321137664
 30
0.0
 50
19.374
  0
LINE
  5
5B9
330
1F
100
AcDbEntity
  8
3D alumiiniumneel
100
AcDbLine
 10
720.1660288886968
 20
439.886459622648
 30
0.0
 11
720.1660288886968
 21
439.886459622648
 31
0.0
  0
LWPOLYLINE
  5
5C0
102
{ACAD_REACTORS
330
688
330
892
102
}
330
1F
100
AcDbEntity
  8
3D alumiiniumneel
100
AcDbPolyline
 90
        9
 70
     0
 43
0.0
 10
514.9923676678768
 20
342.7108662233894
 10
724.1470970588267
 20
416.9029343948564
 42
0.3888787318529894
 10
724.780796744357
 20
418.0962965456989
 10
719.4489160643463
 20
438.6675465013992
 42
-0.4142135623730943
 10
720.1660288886968
 20
439.886459622648
 42
-0.4142135623730796
 10
721.3849420099454
 20
439.1693467982975
 10
727.1766379451352
 20
416.824055914938
 42
-0.3888787318529894
 10
726.5429382596048
 20
415.6306937640955
 10
514.9923676678766
 20
340.5887647541301
  0
HATCH
  5
633
330
1F
100
AcDbEntity
  8
neeluplekiklamber
100
AcDbHatch
 10
0.0
 20
0.0
 30
0.0
210
0.0
220
0.0
230
1.0
  2
SOLID
 70
     1
 71
     1
 91
        1
 92
        7
 72
     1
 73
     1
 93
       19
 10
725.0122644769469
 20
437.0051543947971
 42
0.4400105308918639
 10
718.510119526328
 20
440.4807691862449
 42
0.0
 10
717.9185053055024
 20
440.2727306423367
 42
0.3888787318529894
 10
717.2815424690464
 20
439.0811070190903
 42
0.0
 10
723.012070929918
 20
416.7200513636259
 42
0.0
 10
724.1441188788394
 20
417.1181310558266
 42
0.0
 10
718.5137769186235
 20
439.0882496568151
 42
-0.3706311318771917
 10
718.8025271527465
 20
439.6725286353217
 42
-0.5111659500090723
 10
723.8802165280254
 20
436.6070747025966
 42
0.0
 10
727.6482155559436
 20
421.9039916364645
 42
0.4344608310783713
 10
733.8639845412964
 20
418.2078068534663
 42
0.0
 10
734.3761831895395
 20
418.3879225384023
 42
0.0002120908267045
 10
734.3800591575587
 20
418.3895315465902
 42
0.0
 10
734.9788804438119
 20
418.6001044234211
 42
0.0
 10
755.7330928407067
 20
425.8982321137665
 42
0.0
 10
755.3350131485059
 20
427.0302800626879
 42
0.0
 10
734.5808007516113
 20
419.7321523723426
 42
0.0
 10
733.9819794653578
 20
419.5215794955117
 42
-0.4400105308917754
 10
728.7802635048639
 20
422.3020713286702
 42
0.0
 97
        2
330
57B
330
4A6
 75
     0
 76
     1
 47
0.1254169320767977
 98
        1
 10
727.0582791209695
 20
428.0129990710966
  0
HATCH
  5
688
330
1F
100
AcDbEntity
  8
3D alumiiniumneel
100
AcDbHatch
 10
0.0
 20
0.0
 30
0.0
210
0.0
220
0.0
230
1.0
  2
STEEL
 70
     0
 71
     1
 91
        1
 92
       33
 93
        8
 72
     1
 10
514.9923676678768
 20
342.7108662233894
 11
724.1470970588267
 21
416.9029343948564
 72
     2
 10
723.8127837715576
 20
417.8453963972498
 40
0.9999999999999904
 50
289.5307847165451
 51
374.5307847165524
 73
     1
 72
     1
 10
724.780796744357
 20
418.0962965456989
 11
719.4489160643463
 21
438.6675465013992
 72
     2
 10
720.4169290371459
 20
438.9184466498484
 40
1.000000000000019
 50
165.4692152834491
 51
255.4692152834522
 73
     0
 72
     2
 10
720.416929037146
 20
438.9184466498484
 40
1.000000000000033
 50
255.4692152834459
 51
345.4692152834475
 73
     0
 72
     1
 10
721.3849420099454
 20
439.1693467982975
 11
727.1766379451352
 21
416.824055914938
 72
     2
 10
726.2086249723356
 20
416.5731557664889
 40
1.000000000000019
 50
345.469215283449
 51
430.4692152834487
 73
     0
 72
     1
 10
726.5429382596048
 20
415.6306937640955
 11
514.9923676678766
 21
340.5887647541301
 97
        1
330
5C0
 75
     0
 76
     1
 52
0.0
 41
1.0
 77
     0
 78
     2
 53
45.0
 43
0.0
 44
0.0
 45
-2.245064030267287
 46
2.245064030267288
 79
     0
 53
45.0
 43
0.0
 44
1.587499999999999
 45
-2.245064030267287
 46
2.245064030267288
 79
     0
 98
        1
 10
0.0
 20
0.0
  0
HATCH
  5
68A
330
1F
100
AcDbEntity
  8
3D alumiiniumneel
100
AcDbHatch
 10
0.0
 20
0.0
 30
0.0
210
0.0
220
0.0
230
1.0
  2
STEEL
 70
     0
 71
     1
 91
        1
 92
       33
 93
        8
 72
     1
 10
514.9923676678768
 20
342.7108662233894
 11
305.8376382769269
 21
416.9029343948564
 72
     2
 10
306.1719515641961
 20
417.8453963972498
 40
1.000000000000028
 50
109.5307847165512
 51
194.5307847165508
 73
     0
 72
     1
 10
305.2039385913965
 20
418.0962965456989
 11
310.5358192714072
 21
438.6675465013992
 72
     2
 10
309.5678062986076
 20
438.9184466498484
 40
1.000000000000074
 50
345.4692152834498
 51
435.469215283449
 73
     1
 72
     2
 10
309.5678062986077
 20
438.9184466498484
 40
1.000000000000005
 50
75.46921528345227
 51
165.4692152834491
 73
     1
 72
     1
 10
308.5997933258081
 20
439.1693467982975
 11
302.8080973906184
 21
416.824055914938
 72
     2
 10
303.7761103634179
 20
416.5731557664889
 40
1.000000000000019
 50
165.4692152834491
 51
250.4692152834487
 73
     1
 72
     1
 10
303.4417970761487
 20
415.6306937640955
 11
514.9923676678769
 21
340.5887647541301
 97
        1
330
68B
 75
     0
 76
     1
 52
0.0
 41
1.0
 77
     0
 78
     2
 53
135.0
 43
1029.984735335753
 44
0.0
 45
2.245064030267287
 46
2.245064030267288
 79
     0
 53
135.0
 43
1029.984735335753
 44
1.587499999999999
 45
2.245064030267287
 46
2.245064030267288
 79
     0
 98
        1
 10
1029.984735335753
 20
0.0
  0
LWPOLYLINE
  5
68B
102
{ACAD_REACTORS
330
68A
330
883
102
}
330
1F
100
AcDbEntity
  8
3D alumiiniumneel
100
AcDbPolyline
 90
        9
 70
     0
 43
0.0
 10
514.9923676678768
 20
342.7108662233894
 10
305.8376382769269
 20
416.9029343948564
 42
-0.3888787318529894
 10
305.2039385913965
 20
418.0962965456989
 10
310.5358192714072
 20
438.6675465013992
 42
0.4142135623730943
 10
309.8187064470568
 20
439.886459622648
 42
0.4142135623730796
 10
308.5997933258081
 20
439.1693467982975
 10
302.8080973906184
 20
416.824055914938
 42
0.3888787318529894
 10
303.4417970761487
 20
415.6306937640955
 10
514.9923676678769
 20
340.5887647541301
  0
LINE
  5
68C
102
{ACAD_REACTORS
330
883
102
}
330
1F
100
AcDbEntity
  8
0
  6
DASHED
100
AcDbLine
 10
330.3046893021662
 20
408.2238998690521
 30
0.0
 11
330.8533294312027
 21
461.4487783416605
 31
0.0
  0
LINE
  5
68D
102
{ACAD_REACTORS
330
883
102
}
330
1F
100
AcDbEntity
  8
0
  6
DASHED
100
AcDbLine
 10
307.1416935693116
 20
416.4403555211503
 30
0.0
 11
330.8533294312027
 21
461.4487783416605
 31
0.0
  0
INSERT
  5
68E
330
1F
100
AcDbEntity
  8
neeluplekiklamber
100
AcDbBlockReference
  2
neeluplekikinnitusklamber
 10
274.251642495047
 20
425.8982321137664
 30
0.0
 41
-1.0
 50
340.6259999999999
  0
HATCH
  5
690
330
1F
100
AcDbEntity
  8
neeluplekiklamber
100
AcDbHatch
 10
0.0
 20
0.0
 30
0.0
210
0.0
220
0.0
230
1.0
  2
SOLID
 70
     1
 71
     0
 91
        1
 92
        7
 72
     1
 73
     1
 93
       19
 10
304.9724708588066
 20
437.0051543947972
 42
-0.4400105308918615
 10
311.4746158094256
 20
440.4807691862449
 42
0.0
 10
312.0662300302512
 20
440.2727306423367
 42
-0.3888787318529894
 10
312.7031928667071
 20
439.0811070190903
 42
0.0
 10
306.9726644058355
 20
416.7200513636259
 42
0.0
 10
305.8406164569142
 20
417.1181310558266
 42
0.0
 10
311.4709584171301
 20
439.0882496568151
 42
0.3706311318771917
 10
311.1822081830071
 20
439.6725286353217
 42
0.5111659500090723
 10
306.1045188077282
 20
436.6070747025966
 42
0.0
 10
302.33651977981
 20
421.9039916364645
 42
-0.4344608310783799
 10
296.120750794457
 20
418.2078068534663
 42
0.0
 10
295.6085521462147
 20
418.387922538402
 42
-0.0002120908267429
 10
295.6046761781948
 20
418.3895315465903
 42
0.0
 10
295.0058548919416
 20
418.6001044234211
 42
0.0
 10
274.2516424950469
 20
425.8982321137665
 42
0.0
 10
274.6497221872477
 20
427.0302800626879
 42
0.0
 10
295.4039345841422
 20
419.7321523723426
 42
0.0
 10
296.0027558703957
 20
419.5215794955117
 42
0.4400105308917754
 10
301.2044718308897
 20
422.3020713286702
 42
0.0
 97
        0
 75
     0
 76
     1
 47
0.1254169320767977
 98
        1
 10
302.9264562147841
 20
428.0129990710966
  0
LINE
  5
691
330
1F
100
AcDbEntity
  8
3D alumiiniumneel
100
AcDbLine
 10
309.8187064470568
 20
439.886459622648
 30
0.0
 11
309.8187064470568
 21
439.886459622648
 31
0.0
  0
LWPOLYLINE
  5
6DE
330
1F
100
AcDbEntity
  8
cherpes
  6
Continuous
100
AcDbPolyline
 90
        2
 70
     0
 43
0.0
 10
388.902828610825
 20
418.4544466954436
 10
330.56024137889
 20
433.0156121540019
  0
LWPOLYLINE
  5
6E0
330
1F
100
AcDbEntity
  8
cherpes
  6
Continuous
100
AcDbPolyline
 90
        2
 70
     0
 43
0.0
 10
400.5261452222832
 20
465.0258811907405
 10
99.34491682411881
 20
540.1948085179267
  0
LWPOLYLINE
  5
714
330
1F
100
AcDbEntity
  8
cherpes
  6
Continuous
100
AcDbPolyline
 90
        2
 70
     0
 43
0.0
 10
399.0732295488598
 20
459.2044474834866
 10
99.34491682411914
 20
534.0107555556534
  0
LWPOLYLINE
  5
715
330
1F
100
AcDbEntity
  8
cherpes
  6
Continuous
100
AcDbPolyline
 90
        2
 70
     0
 43
0.0
 10
396.167401127323
 20
447.5615917898915
 10
99.34491682411881
 20
521.6426620821171
  0
LWPOLYLINE
  5
763
330
1F
100
AcDbEntity
  8
cherpes
  6
Continuous
100
AcDbPolyline
 90
        2
 70
     0
 43
0.0
 10
317.5806142123495
 20
436.2550725161392
 10
311.1558260044706
 20
437.8585736388991
  0
LWPOLYLINE
  5
764
330
1F
100
AcDbEntity
  8
cherpes
  6
Continuous
100
AcDbPolyline
 90
        2
 70
     0
 43
0.0
 10
306.1081791832733
 20
439.1183672823936
 10
99.34491682411886
 20
490.7224221727632
  0
LWPOLYLINE
  5
767
330
1F
100
AcDbEntity
  8
cherpes
  6
Continuous
100
AcDbPolyline
 90
        2
 70
     0
 43
0.0
 10
633.8173342084306
 20
447.5615917898915
 10
926.3449168241189
 20
520.5707388598654
  0
LWPOLYLINE
  5
768
330
1F
100
AcDbEntity
  8
cherpes
  6
Continuous
100
AcDbPolyline
 90
        2
 70
     0
 43
0.0
 10
630.9115057868937
 20
459.2044474834866
 10
926.3449168241189
 20
532.9388323334017
  0
LWPOLYLINE
  5
769
330
1F
100
AcDbEntity
  8
cherpes
  6
Continuous
100
AcDbPolyline
 90
        2
 70
     0
 43
0.0
 10
629.4585901134703
 20
465.0258811907405
 10
926.3449168241189
 20
539.122885295675
  0
LWPOLYLINE
  5
76A
330
1F
100
AcDbEntity
  8
cherpes
  6
Continuous
100
AcDbPolyline
 90
        2
 70
     0
 43
0.0
 10
641.0819067249285
 20
418.4544466954435
 10
699.4244939568635
 20
433.0156121540019
  0
LWPOLYLINE
  5
76C
330
1F
100
AcDbEntity
  8
cherpes
  6
Continuous
100
AcDbPolyline
 90
        2
 70
     0
 43
0.0
 10
712.4041211234041
 20
436.2550725161392
 10
718.828909331283
 20
437.8585736388991
  0
LWPOLYLINE
  5
76D
330
1F
100
AcDbEntity
  8
cherpes
  6
Continuous
100
AcDbPolyline
 90
        2
 70
     0
 43
0.0
 10
723.8765561524802
 20
439.1183672823936
 10
926.3449168241189
 20
489.6504989505114
  0
LINE
  5
791
330
1F
100
AcDbEntity
  8
minu
100
AcDbLine
 10
388.8290976851926
 20
418.1590271445402
 30
0.0
 11
400.5261452222832
 21
465.0258811907405
 31
0.0
  0
LINE
  5
792
330
1F
100
AcDbEntity
  8
minu
100
AcDbLine
 10
641.1556376505609
 20
418.1590271445402
 30
0.0
 11
629.4585901134703
 21
465.0258811907405
 31
0.0
  0
LINE
  5
793
330
1F
100
AcDbEntity
  8
hatch
100
AcDbLine
 10
103.7596427350979
 20
520.5408330838862
 30
0.0
 11
100.2081140852156
 21
533.7953184497838
 31
0.0
  0
LINE
  5
794
330
1F
100
AcDbEntity
  8
hatch
100
AcDbLine
 10
110.8047897197891
 20
518.7825025779707
 30
0.0
 11
107.2532610699067
 21
532.0369879438683
 31
0.0
  0
LINE
  5
795
330
1F
100
AcDbEntity
  8
hatch
100
AcDbLine
 10
117.8499367044802
 20
517.0241720720552
 30
0.0
 11
114.2984080545978
 21
530.2786574379528
 31
0.0
  0
LINE
  5
796
330
1F
100
AcDbEntity
  8
hatch
100
AcDbLine
 10
124.8950836891713
 20
515.2658415661396
 30
0.0
 11
121.3435550392889
 21
528.5203269320373
 31
0.0
  0
LINE
  5
797
330
1F
100
AcDbEntity
  8
hatch
100
AcDbLine
 10
131.9402306738624
 20
513.5075110602241
 30
0.0
 11
128.38870202398
 21
526.7619964261217
 31
0.0
  0
LINE
  5
798
330
1F
100
AcDbEntity
  8
hatch
100
AcDbLine
 10
138.9853776585534
 20
511.7491805543086
 30
0.0
 11
135.433849008671
 21
525.0036659202062
 31
0.0
  0
LINE
  5
799
330
1F
100
AcDbEntity
  8
hatch
100
AcDbLine
 10
146.0305246432445
 20
509.990850048393
 30
0.0
 11
142.4789959933622
 21
523.2453354142905
 31
0.0
  0
LINE
  5
79A
330
1F
100
AcDbEntity
  8
hatch
100
AcDbLine
 10
153.0756716279357
 20
508.2325195424775
 30
0.0
 11
149.5241429780532
 21
521.4870049083751
 31
0.0
  0
LINE
  5
79B
330
1F
100
AcDbEntity
  8
hatch
100
AcDbLine
 10
160.1208186126268
 20
506.4741890365619
 30
0.0
 11
156.5692899627444
 21
519.7286744024596
 31
0.0
  0
LINE
  5
79C
330
1F
100
AcDbEntity
  8
hatch
100
AcDbLine
 10
167.1659655973178
 20
504.7158585306464
 30
0.0
 11
163.6144369474354
 21
517.9703438965441
 31
0.0
  0
LINE
  5
79D
330
1F
100
AcDbEntity
  8
hatch
100
AcDbLine
 10
174.211112582009
 20
502.9575280247309
 30
0.0
 11
170.6595839321266
 21
516.2120133906285
 31
0.0
  0
LINE
  5
79E
330
1F
100
AcDbEntity
  8
hatch
100
AcDbLine
 10
181.2562595667001
 20
501.1991975188153
 30
0.0
 11
177.7047309168177
 21
514.453682884713
 31
0.0
  0
LINE
  5
79F
330
1F
100
AcDbEntity
  8
hatch
100
AcDbLine
 10
188.3014065513912
 20
499.4408670128997
 30
0.0
 11
184.7498779015088
 21
512.6953523787975
 31
0.0
  0
LINE
  5
7A0
330
1F
100
AcDbEntity
  8
hatch
100
AcDbLine
 10
195.3465535360823
 20
497.6825365069842
 30
0.0
 11
191.7950248861998
 21
510.937021872882
 31
0.0
  0
LINE
  5
7A1
330
1F
100
AcDbEntity
  8
hatch
100
AcDbLine
 10
202.3917005207734
 20
495.9242060010687
 30
0.0
 11
198.840171870891
 21
509.1786913669664
 31
0.0
  0
LINE
  5
7A2
330
1F
100
AcDbEntity
  8
hatch
100
AcDbLine
 10
209.4368475054645
 20
494.1658754951531
 30
0.0
 11
205.885318855582
 21
507.420360861051
 31
0.0
  0
LINE
  5
7A3
330
1F
100
AcDbEntity
  8
hatch
100
AcDbLine
 10
216.4819944901556
 20
492.4075449892376
 30
0.0
 11
212.9304658402732
 21
505.6620303551354
 31
0.0
  0
LINE
  5
7A4
330
1F
100
AcDbEntity
  8
hatch
100
AcDbLine
 10
223.5271414748467
 20
490.6492144833221
 30
0.0
 11
219.9756128249642
 21
503.9036998492198
 31
0.0
  0
LINE
  5
7A5
330
1F
100
AcDbEntity
  8
hatch
100
AcDbLine
 10
230.5722884595378
 20
488.8908839774065
 30
0.0
 11
227.0207598096554
 21
502.1453693433044
 31
0.0
  0
LINE
  5
7A6
330
1F
100
AcDbEntity
  8
hatch
100
AcDbLine
 10
237.6174354442289
 20
487.132553471491
 30
0.0
 11
234.0659067943465
 21
500.3870388373888
 31
0.0
  0
LINE
  5
7A7
330
1F
100
AcDbEntity
  8
hatch
100
AcDbLine
 10
244.66258242892
 20
485.3742229655754
 30
0.0
 11
241.1110537790376
 21
498.6287083314732
 31
0.0
  0
LINE
  5
7A8
330
1F
100
AcDbEntity
  8
hatch
100
AcDbLine
 10
251.7077294136111
 20
483.6158924596599
 30
0.0
 11
248.1562007637287
 21
496.8703778255578
 31
0.0
  0
LINE
  5
7A9
330
1F
100
AcDbEntity
  8
hatch
100
AcDbLine
 10
258.7528763983022
 20
481.8575619537443
 30
0.0
 11
255.2013477484198
 21
495.1120473196422
 31
0.0
  0
LINE
  5
7AA
330
1F
100
AcDbEntity
  8
hatch
100
AcDbLine
 10
265.7980233829933
 20
480.0992314478288
 30
0.0
 11
262.2464947331108
 21
493.3537168137267
 31
0.0
  0
LINE
  5
7AB
330
1F
100
AcDbEntity
  8
hatch
100
AcDbLine
 10
272.8431703676844
 20
478.3409009419132
 30
0.0
 11
269.2916417178019
 21
491.5953863078112
 31
0.0
  0
LINE
  5
7AC
330
1F
100
AcDbEntity
  8
hatch
100
AcDbLine
 10
279.8883173523755
 20
476.5825704359977
 30
0.0
 11
276.336788702493
 21
489.8370558018956
 31
0.0
  0
LINE
  5
7AD
330
1F
100
AcDbEntity
  8
hatch
100
AcDbLine
 10
286.9334643370666
 20
474.8242399300822
 30
0.0
 11
283.3819356871842
 21
488.0787252959801
 31
0.0
  0
LINE
  5
7AE
330
1F
100
AcDbEntity
  8
hatch
100
AcDbLine
 10
293.9786113217577
 20
473.0659094241667
 30
0.0
 11
290.4270826718752
 21
486.3203947900646
 31
0.0
  0
LINE
  5
7AF
330
1F
100
AcDbEntity
  8
hatch
100
AcDbLine
 10
301.0237583064488
 20
471.3075789182511
 30
0.0
 11
297.4722296565663
 21
484.562064284149
 31
0.0
  0
LINE
  5
7B0
330
1F
100
AcDbEntity
  8
hatch
100
AcDbLine
 10
308.0689052911399
 20
469.5492484123356
 30
0.0
 11
304.5173766412574
 21
482.8037337782336
 31
0.0
  0
LINE
  5
7B1
330
1F
100
AcDbEntity
  8
hatch
100
AcDbLine
 10
315.114052275831
 20
467.7909179064201
 30
0.0
 11
311.5625236259485
 21
481.045403272318
 31
0.0
  0
LINE
  5
7B2
330
1F
100
AcDbEntity
  8
hatch
100
AcDbLine
 10
322.1591992605222
 20
466.0325874005044
 30
0.0
 11
318.6076706106396
 21
479.2870727664024
 31
0.0
  0
LINE
  5
7B3
330
1F
100
AcDbEntity
  8
hatch
100
AcDbLine
 10
329.2043462452132
 20
464.274256894589
 30
0.0
 11
325.6528175953306
 21
477.528742260487
 31
0.0
  0
LINE
  5
7B4
330
1F
100
AcDbEntity
  8
hatch
100
AcDbLine
 10
336.2494932299043
 20
462.5159263886734
 30
0.0
 11
332.6979645800218
 21
475.7704117545714
 31
0.0
  0
LINE
  5
7B5
330
1F
100
AcDbEntity
  8
hatch
100
AcDbLine
 10
343.2946402145954
 20
460.7575958827578
 30
0.0
 11
339.7431115647129
 21
474.0120812486559
 31
0.0
  0
LINE
  5
7B6
330
1F
100
AcDbEntity
  8
hatch
100
AcDbLine
 10
350.3397871992865
 20
458.9992653768423
 30
0.0
 11
346.788258549404
 21
472.2537507427404
 31
0.0
  0
LINE
  5
7B7
330
1F
100
AcDbEntity
  8
hatch
100
AcDbLine
 10
357.3849341839776
 20
457.2409348709269
 30
0.0
 11
353.8334055340951
 21
470.4954202368249
 31
0.0
  0
LINE
  5
7B8
330
1F
100
AcDbEntity
  8
hatch
100
AcDbLine
 10
364.4300811686687
 20
455.4826043650113
 30
0.0
 11
360.8785525187862
 21
468.7370897309094
 31
0.0
  0
LINE
  5
7B9
330
1F
100
AcDbEntity
  8
hatch
100
AcDbLine
 10
371.4752281533598
 20
453.7242738590958
 30
0.0
 11
367.9236995034773
 21
466.9787592249939
 31
0.0
  0
LINE
  5
7BA
330
1F
100
AcDbEntity
  8
hatch
100
AcDbLine
 10
378.520375138051
 20
451.9659433531802
 30
0.0
 11
374.9688464881684
 21
465.2204287190783
 31
0.0
  0
LINE
  5
7BB
330
1F
100
AcDbEntity
  8
hatch
100
AcDbLine
 10
385.565522122742
 20
450.2076128472646
 30
0.0
 11
382.0139934728595
 21
463.4620982131628
 31
0.0
  0
LINE
  5
7BC
330
1F
100
AcDbEntity
  8
hatch
100
AcDbLine
 10
392.6106691074331
 20
448.4492823413492
 30
0.0
 11
389.0591404575506
 21
461.7037677072473
 31
0.0
  0
LINE
  5
7BD
330
1F
100
AcDbEntity
  8
hatch
100
AcDbLine
 10
397.7371974447202
 20
453.8513341078938
 30
0.0
 11
396.1042874422417
 21
459.9454372013317
 31
0.0
  0
LINE
  5
7C4
330
1F
100
AcDbEntity
  8
hatch
100
AcDbLine
 10
638.0043914865743
 20
448.6065991627929
 30
0.0
 11
632.0772134908326
 21
454.5337771585344
 31
0.0
  0
LINE
  5
7C5
330
1F
100
AcDbEntity
  8
hatch
100
AcDbLine
 10
645.1910088659692
 20
450.4002379044674
 30
0.0
 11
635.2932114859631
 21
460.2980352844735
 31
0.0
  0
LINE
  5
7C6
330
1F
100
AcDbEntity
  8
hatch
100
AcDbLine
 10
652.3776262453639
 20
452.1938766461418
 30
0.0
 11
642.4798288653577
 21
462.0916740261479
 31
0.0
  0
LINE
  5
7C7
330
1F
100
AcDbEntity
  8
hatch
100
AcDbLine
 10
659.5642436247588
 20
453.9875153878162
 30
0.0
 11
649.6664462447526
 21
463.8853127678223
 31
0.0
  0
LINE
  5
7C8
330
1F
100
AcDbEntity
  8
hatch
100
AcDbLine
 10
666.7508610041534
 20
455.7811541294905
 30
0.0
 11
656.8530636241473
 21
465.6789515094966
 31
0.0
  0
LINE
  5
7C9
330
1F
100
AcDbEntity
  8
hatch
100
AcDbLine
 10
673.9374783835481
 20
457.574792871165
 30
0.0
 11
664.039681003542
 21
467.4725902511711
 31
0.0
  0
LINE
  5
7CA
330
1F
100
AcDbEntity
  8
hatch
100
AcDbLine
 10
681.1240957629428
 20
459.3684316128394
 30
0.0
 11
671.2262983829369
 21
469.2662289928454
 31
0.0
  0
LINE
  5
7CB
330
1F
100
AcDbEntity
  8
hatch
100
AcDbLine
 10
688.3107131423376
 20
461.1620703545138
 30
0.0
 11
678.4129157623316
 21
471.0598677345199
 31
0.0
  0
LINE
  5
7CC
330
1F
100
AcDbEntity
  8
hatch
100
AcDbLine
 10
695.4973305217325
 20
462.9557090961883
 30
0.0
 11
685.5995331417264
 21
472.8535064761943
 31
0.0
  0
LINE
  5
7CD
330
1F
100
AcDbEntity
  8
hatch
100
AcDbLine
 10
702.6839479011271
 20
464.7493478378627
 30
0.0
 11
692.7861505211211
 21
474.6471452178687
 31
0.0
  0
LINE
  5
7CE
330
1F
100
AcDbEntity
  8
hatch
100
AcDbLine
 10
709.870565280522
 20
466.5429865795371
 30
0.0
 11
699.972767900516
 21
476.4407839595429
 31
0.0
  0
LINE
  5
7CF
330
1F
100
AcDbEntity
  8
hatch
100
AcDbLine
 10
717.0571826599166
 20
468.3366253212114
 30
0.0
 11
707.1593852799106
 21
478.2344227012173
 31
0.0
  0
LINE
  5
7D0
330
1F
100
AcDbEntity
  8
hatch
100
AcDbLine
 10
724.2438000393113
 20
470.1302640628859
 30
0.0
 11
714.3460026593055
 21
480.0280614428918
 31
0.0
  0
LINE
  5
7D1
330
1F
100
AcDbEntity
  8
hatch
100
AcDbLine
 10
731.430417418706
 20
471.9239028045603
 30
0.0
 11
721.5326200387002
 21
481.8217001845662
 31
0.0
  0
LINE
  5
7D2
330
1F
100
AcDbEntity
  8
hatch
100
AcDbLine
 10
738.6170347981008
 20
473.7175415462347
 30
0.0
 11
728.7192374180951
 21
483.6153389262405
 31
0.0
  0
LINE
  5
7D3
330
1F
100
AcDbEntity
  8
hatch
100
AcDbLine
 10
745.8036521774955
 20
475.5111802879091
 30
0.0
 11
735.9058547974897
 21
485.4089776679149
 31
0.0
  0
LINE
  5
7D4
330
1F
100
AcDbEntity
  8
hatch
100
AcDbLine
 10
752.9902695568903
 20
477.3048190295836
 30
0.0
 11
743.0924721768844
 21
487.2026164095894
 31
0.0
  0
LINE
  5
7D5
330
1F
100
AcDbEntity
  8
hatch
100
AcDbLine
 10
760.176886936285
 20
479.0984577712579
 30
0.0
 11
750.2790895562792
 21
488.9962551512637
 31
0.0
  0
LINE
  5
7D6
330
1F
100
AcDbEntity
  8
hatch
100
AcDbLine
 10
767.3635043156799
 20
480.8920965129323
 30
0.0
 11
757.465706935674
 21
490.7898938929382
 31
0.0
  0
LINE
  5
7D7
330
1F
100
AcDbEntity
  8
hatch
100
AcDbLine
 10
774.5501216950745
 20
482.6857352546068
 30
0.0
 11
764.6523243150689
 21
492.5835326346124
 31
0.0
  0
LINE
  5
7D8
330
1F
100
AcDbEntity
  8
hatch
100
AcDbLine
 10
781.7367390744693
 20
484.4793739962812
 30
0.0
 11
771.8389416944635
 21
494.3771713762869
 31
0.0
  0
LINE
  5
7D9
330
1F
100
AcDbEntity
  8
hatch
100
AcDbLine
 10
788.923356453864
 20
486.2730127379555
 30
0.0
 11
779.0255590738582
 21
496.1708101179612
 31
0.0
  0
LINE
  5
7DA
330
1F
100
AcDbEntity
  8
hatch
100
AcDbLine
 10
796.1099738332587
 20
488.0666514796301
 30
0.0
 11
786.2121764532531
 21
497.9644488596356
 31
0.0
  0
LINE
  5
7DB
330
1F
100
AcDbEntity
  8
hatch
100
AcDbLine
 10
803.2965912126535
 20
489.8602902213044
 30
0.0
 11
793.3987938326479
 21
499.7580876013099
 31
0.0
  0
LINE
  5
7DC
330
1F
100
AcDbEntity
  8
hatch
100
AcDbLine
 10
810.4832085920481
 20
491.6539289629788
 30
0.0
 11
800.5854112120427
 21
501.5517263429845
 31
0.0
  0
LINE
  5
7DD
330
1F
100
AcDbEntity
  8
hatch
100
AcDbLine
 10
817.6698259714431
 20
493.4475677046532
 30
0.0
 11
807.7720285914374
 21
503.3453650846587
 31
0.0
  0
LINE
  5
7DE
330
1F
100
AcDbEntity
  8
hatch
100
AcDbLine
 10
824.8564433508377
 20
495.2412064463277
 30
0.0
 11
814.958645970832
 21
505.1390038263333
 31
0.0
  0
LINE
  5
7DF
330
1F
100
AcDbEntity
  8
hatch
100
AcDbLine
 10
832.0430607302325
 20
497.034845188002
 30
0.0
 11
822.145263350227
 21
506.9326425680075
 31
0.0
  0
LINE
  5
7E0
330
1F
100
AcDbEntity
  8
hatch
100
AcDbLine
 10
839.2296781096272
 20
498.8284839296765
 30
0.0
 11
829.3318807296216
 21
508.726281309682
 31
0.0
  0
LINE
  5
7E1
330
1F
100
AcDbEntity
  8
hatch
100
AcDbLine
 10
846.416295489022
 20
500.622122671351
 30
0.0
 11
836.5184981090164
 21
510.5199200513564
 31
0.0
  0
LINE
  5
7E2
330
1F
100
AcDbEntity
  8
hatch
100
AcDbLine
 10
853.6029128684168
 20
502.4157614130253
 30
0.0
 11
843.7051154884112
 21
512.3135587930307
 31
0.0
  0
LINE
  5
7E3
330
1F
100
AcDbEntity
  8
hatch
100
AcDbLine
 10
860.7895302478114
 20
504.2094001546997
 30
0.0
 11
850.8917328678061
 21
514.1071975347052
 31
0.0
  0
LINE
  5
7E4
330
1F
100
AcDbEntity
  8
hatch
100
AcDbLine
 10
867.976147627206
 20
506.0030388963741
 30
0.0
 11
858.0783502472007
 21
515.9008362763795
 31
0.0
  0
LINE
  5
7E5
330
1F
100
AcDbEntity
  8
hatch
100
AcDbLine
 10
875.1627650066009
 20
507.7966776380486
 30
0.0
 11
865.2649676265955
 21
517.694475018054
 31
0.0
  0
LINE
  5
7E6
330
1F
100
AcDbEntity
  8
hatch
100
AcDbLine
 10
882.3493823859955
 20
509.5903163797229
 30
0.0
 11
872.4515850059901
 21
519.4881137597283
 31
0.0
  0
LINE
  5
7E7
330
1F
100
AcDbEntity
  8
hatch
100
AcDbLine
 10
889.5359997653903
 20
511.3839551213975
 30
0.0
 11
879.6382023853849
 21
521.2817525014029
 31
0.0
  0
LINE
  5
7E8
330
1F
100
AcDbEntity
  8
hatch
100
AcDbLine
 10
896.7226171447851
 20
513.1775938630718
 30
0.0
 11
886.8248197647798
 21
523.0753912430771
 31
0.0
  0
LINE
  5
7E9
330
1F
100
AcDbEntity
  8
hatch
100
AcDbLine
 10
903.9092345241797
 20
514.9712326047462
 30
0.0
 11
894.0114371441746
 21
524.8690299847516
 31
0.0
  0
LINE
  5
7EA
330
1F
100
AcDbEntity
  8
hatch
100
AcDbLine
 10
911.0958519035746
 20
516.7648713464207
 30
0.0
 11
901.1980545235692
 21
526.662668726426
 31
0.0
  0
LINE
  5
7EB
330
1F
100
AcDbEntity
  8
hatch
100
AcDbLine
 10
918.2824692829692
 20
518.5585100880951
 30
0.0
 11
908.384671902964
 21
528.4563074681003
 31
0.0
  0
LINE
  5
7EC
330
1F
100
AcDbEntity
  8
hatch
100
AcDbLine
 10
925.4690866623642
 20
520.3521488297695
 30
0.0
 11
915.5712892823588
 21
530.2499462097747
 31
0.0
  0
LINE
  5
7ED
330
1F
100
AcDbEntity
  8
hatch
100
AcDbLine
 10
926.3449168241189
 20
528.4565747890837
 30
0.0
 11
922.7579066617535
 21
532.0435849514492
 31
0.0
  0
LWPOLYLINE
  5
7F4
330
1F
100
AcDbEntity
  8
hüdroiso
100
AcDbPolyline
 90
        5
 70
     0
 43
0.0
 10
926.3449168241189
 20
408.3920217739534
 10
693.1681962690533
 20
329.4839545535308
 10
514.9923676678768
 20
266.8280660274258
 10
336.8165390667002
 20
329.4839545535308
 10
99.34491682411886
 20
409.7576969319714
  0
HATCH
  5
883
330
1F
100
AcDbEntity
  8
kiri
100
AcDbHatch
 10
0.0
 20
0.0
 30
0.0
210
0.0
220
0.0
230
1.0
  2
GRAVEL
 70
     0
 71
     1
 91
        1
 92
        7
 72
     0
 73
     1
 93
        3
 10
330.8533294312027
 20
461.4487783416607
 10
307.1416935693116
 20
416.4403555211503
 10
330.3046893021662
 20
408.2238998690519
 97
        3
330
68D
330
68B
330
68C
 75
     0
 76
     1
 52
0.0
 41
0.75
 77
     0
 78
    42
 53
228.0127999999999
 43
13.716
 44
19.04999999999999
 45
-152.40012949422
 46
-171.4502106713443
 79
     2
 49
2.562907499999999
 49
-253.72875
 53
184.9696999999999
 43
12.0015
 44
17.145
 45
228.6003697963434
 46
19.04986556540593
 79
     2
 49
4.3980375
 49
-435.4049999999999
 53
132.5104
 43
7.62
 44
16.76399999999999
 45
190.4998613874877
 46
-209.550204693453
 79
     2
 49
3.101114999999999
 49
-307.0102499999999
 53
267.2737
 43
0.1905
 44
12.0015
 45
19.04991728121129
 46
380.9998774002482
 79
     2
 49
4.0050375
 49
-396.498
 53
292.8337
 43
0.0
 44
8.000999999999999
 45
-95.25027041626428
 46
228.6001299753833
 79
     2
 49
3.927255
 49
-388.7985
 53
357.2737
 43
1.524
 44
4.3815
 45
-380.9998774002482
 46
19.04991728121131
 79
     2
 49
4.0050375
 49
-396.498
 53
37.6942
 43
5.5245
 44
4.190999999999998
 45
-247.6501564592995
 46
-190.4998301773867
 79
     2
 49
5.296454999999999
 49
-524.3482499999999
 53
72.2553
 43
9.7155
 44
7.4295
 45
133.3502667410039
 46
419.1001215452729
 79
     2
 49
5.000399999999999
 49
-495.03975
 53
121.4296
 43
11.2395
 44
12.192
 45
-152.4000392644836
 46
247.6497086997951
 79
     2
 49
4.0185975
 49
-397.84125
 53
175.2364
 43
9.144
 44
15.621
 45
209.5498353979083
 46
-19.04982122040866
 79
     2
 49
4.5878475
 49
-224.80425
 53
222.3974
 43
4.572
 44
16.002
 45
-228.6000068792978
 46
-209.5497273797772
 79
     2
 49
5.933085
 49
-587.3759999999999
 53
138.8141
 43
19.04999999999999
 44
11.811
 45
-133.3499150566855
 46
114.29982417843
 79
     2
 49
2.025037499999999
 49
-200.4794999999999
 53
171.4692
 43
17.526
 44
13.1445
 45
247.6496219669355
 46
-38.10009600034273
 79
     2
 49
3.852614999999999
 49
-381.4095
 53
225.0
 43
13.716
 44
13.716
 45
-0.0000000000000027
 46
-19.04998701525148
 79
     2
 49
2.6940675
 49
-24.24667499999999
 53
203.1985999999999
 43
12.3825
 44
16.002
 45
95.25032119193125
 46
38.10016705729698
 79
     2
 49
1.450807499999999
 49
-143.6294999999999
 53
291.8013999999999
 43
11.049
 44
15.4305
 45
-19.05001336420881
 46
57.15003681548899
 79
     2
 49
2.051744999999999
 49
-100.536
 53
30.9638
 43
11.811
 44
13.5255
 45
57.14993966106169
 46
38.10002968995414
 79
     2
 49
3.332399999999999
 49
-107.7472499999999
 53
161.5650999999999
 43
14.66849999999999
 44
15.24
 45
38.10001738635735
 46
-19.04997166848807
 79
     2
 49
2.409652499999999
 49
-57.83174999999999
 53
16.3895
 43
0.0
 44
15.4305
 45
190.5001051047701
 46
57.14988112475854
 79
     2
 49
3.37566
 49
-334.191
 53
70.3462
 43
3.2385
 44
16.383
 45
-76.19978766507381
 46
-209.5497036640875
 79
     2
 49
2.8319925
 49
-280.3664999999999
 53
293.1986
 43
14.66849999999999
 44
19.04999999999999
 45
-38.10016705729698
 46
95.25032119193125
 79
     2
 49
2.901599999999999
 49
-142.179
 53
343.6104999999999
 43
15.8115
 44
16.383
 45
-190.5001051047701
 46
57.14988112475858
 79
     2
 49
3.37566
 49
-334.191
 53
339.444
 43
0.0
 44
3.6195
 45
-95.25011823191933
 46
38.09995377037603
 79
     2
 49
3.255262499999999
 49
-159.50775
 53
294.7751
 43
3.048
 44
2.4765
 45
-95.2497780272013
 46
209.549902696175
 79
     2
 49
2.727539999999999
 49
-270.0269999999999
 53
66.8014
 43
14.859
 44
0.0
 45
38.10016705729701
 46
95.25032119193124
 79
     2
 49
2.901599999999999
 49
-142.179
 53
17.354
 43
16.002
 44
2.666999999999999
 45
-247.6500133639496
 46
-76.19988506704224
 79
     2
 49
3.1933725
 49
-316.143
 53
69.444
 43
5.5245
 44
0.0
 45
-38.09995377037608
 46
-95.25011823191929
 79
     2
 49
1.627634999999999
 49
-161.1359999999999
 53
101.3098999999999
 43
13.716
 44
0.0
 45
-19.04990597165511
 46
76.19975595676965
 79
     2
 49
0.9713625
 49
-96.165
 53
165.9637999999999
 43
13.5255
 44
0.9525
 45
57.1500401602288
 46
-19.04996703092731
 79
     2
 49
3.927255
 49
-74.61787499999999
 53
186.009
 43
9.7155
 44
1.905
 45
190.4997190832096
 46
19.04995551410893
 79
     2
 49
3.639502499999999
 49
-360.3104999999999
 53
303.6900999999999
 43
11.811
 44
11.811
 45
-19.05000653480424
 46
38.09996324423879
 79
     2
 49
2.74743
 49
-65.93835
 53
353.1572
 43
13.335
 44
9.524999999999998
 45
323.8501339248256
 46
-38.10017063741129
 79
     2
 49
4.796677499999999
 49
-474.87
 53
60.94540000000001
 43
18.0975
 44
8.953499999999998
 45
-76.19982274371817
 46
-133.3496820812559
 79
     2
 49
1.961309999999999
 49
-194.1704999999999
 53
90.0
 43
19.04999999999999
 44
10.66799999999999
 45
-19.04999999999999
 46
19.04999999999999
 79
     2
 49
1.143
 49
-17.90699999999999
 53
120.2563999999999
 43
9.3345
 44
2.4765
 45
76.19983850127083
 46
-133.3499327435817
 79
     2
 49
2.646502499999999
 49
-262.00425
 53
48.0128
 43
8.000999999999999
 44
4.762499999999999
 45
152.40012949422
 46
171.4502106713443
 79
     2
 49
5.125822499999999
 49
-251.166
 53
0.0
 43
11.43
 44
8.572499999999999
 45
19.04999999999999
 46
19.04999999999999
 79
     2
 49
4.953
 49
-14.09699999999999
 53
325.3048
 43
16.383
 44
8.572499999999999
 45
-190.4996699321526
 46
133.3500126786357
 79
     2
 49
3.012074999999999
 49
-298.19475
 53
254.0545999999999
 43
18.8595
 44
6.858
 45
-19.05004859776105
 46
-76.20018152402721
 79
     2
 49
2.7737175
 49
-135.91275
 53
207.6459999999999
 43
18.0975
 44
4.190999999999998
 45
-361.9498728676703
 46
-190.5001198104254
 79
     2
 49
4.516087499999999
 49
-447.0937499999999
 53
175.4260999999999
 43
14.09699999999999
 44
2.095499999999999
 45
-247.6500570356063
 46
19.04990783414596
 79
     2
 49
4.777717499999999
 49
-472.9935
 53
175.4260999999999
 43
14.09699999999999
 44
2.095499999999999
 45
-247.6500570356063
 46
19.04990783414596
 79
     2
 49
4.777717499999999
 49
-472.9935
 47
0.115023628833482
 98
        1
 10
320.3749149627324
 20
428.5372755589799
  0
HATCH
  5
892
330
1F
100
AcDbEntity
  8
kiri
100
AcDbHatch
 10
0.0
 20
0.0
 30
0.0
210
0.0
220
0.0
230
1.0
  2
GRAVEL
 70
     0
 71
     1
 91
        1
 92
        7
 72
     0
 73
     1
 93
        3
 10
699.1314059045509
 20
461.4487783416605
 10
699.6800460335874
 20
408.223899869052
 10
722.843041766442
 20
416.4403555211504
 97
        3
330
37C
330
5C0
330
379
 75
     0
 76
     1
 52
0.0
 41
0.75
 77
     0
 78
    42
 53
228.0127999999999
 43
13.716
 44
19.04999999999999
 45
-152.40012949422
 46
-171.4502106713443
 79
     2
 49
2.562907499999999
 49
-253.72875
 53
184.9696999999999
 43
12.0015
 44
17.145
 45
228.6003697963434
 46
19.04986556540593
 79
     2
 49
4.3980375
 49
-435.4049999999999
 53
132.5104
 43
7.62
 44
16.76399999999999
 45
190.4998613874877
 46
-209.550204693453
 79
     2
 49
3.101114999999999
 49
-307.0102499999999
 53
267.2737
 43
0.1905
 44
12.0015
 45
19.04991728121129
 46
380.9998774002482
 79
     2
 49
4.0050375
 49
-396.498
 53
292.8337
 43
0.0
 44
8.000999999999999
 45
-95.25027041626428
 46
228.6001299753833
 79
     2
 49
3.927255
 49
-388.7985
 53
357.2737
 43
1.524
 44
4.3815
 45
-380.9998774002482
 46
19.04991728121131
 79
     2
 49
4.0050375
 49
-396.498
 53
37.6942
 43
5.5245
 44
4.190999999999998
 45
-247.6501564592995
 46
-190.4998301773867
 79
     2
 49
5.296454999999999
 49
-524.3482499999999
 53
72.2553
 43
9.7155
 44
7.4295
 45
133.3502667410039
 46
419.1001215452729
 79
     2
 49
5.000399999999999
 49
-495.03975
 53
121.4296
 43
11.2395
 44
12.192
 45
-152.4000392644836
 46
247.6497086997951
 79
     2
 49
4.0185975
 49
-397.84125
 53
175.2364
 43
9.144
 44
15.621
 45
209.5498353979083
 46
-19.04982122040866
 79
     2
 49
4.5878475
 49
-224.80425
 53
222.3974
 43
4.572
 44
16.002
 45
-228.6000068792978
 46
-209.5497273797772
 79
     2
 49
5.933085
 49
-587.3759999999999
 53
138.8141
 43
19.04999999999999
 44
11.811
 45
-133.3499150566855
 46
114.29982417843
 79
     2
 49
2.025037499999999
 49
-200.4794999999999
 53
171.4692
 43
17.526
 44
13.1445
 45
247.6496219669355
 46
-38.10009600034273
 79
     2
 49
3.852614999999999
 49
-381.4095
 53
225.0
 43
13.716
 44
13.716
 45
-0.0000000000000027
 46
-19.04998701525148
 79
     2
 49
2.6940675
 49
-24.24667499999999
 53
203.1985999999999
 43
12.3825
 44
16.002
 45
95.25032119193125
 46
38.10016705729698
 79
     2
 49
1.450807499999999
 49
-143.6294999999999
 53
291.8013999999999
 43
11.049
 44
15.4305
 45
-19.05001336420881
 46
57.15003681548899
 79
     2
 49
2.051744999999999
 49
-100.536
 53
30.9638
 43
11.811
 44
13.5255
 45
57.14993966106169
 46
38.10002968995414
 79
     2
 49
3.332399999999999
 49
-107.7472499999999
 53
161.5650999999999
 43
14.66849999999999
 44
15.24
 45
38.10001738635735
 46
-19.04997166848807
 79
     2
 49
2.409652499999999
 49
-57.83174999999999
 53
16.3895
 43
0.0
 44
15.4305
 45
190.5001051047701
 46
57.14988112475854
 79
     2
 49
3.37566
 49
-334.191
 53
70.3462
 43
3.2385
 44
16.383
 45
-76.19978766507381
 46
-209.5497036640875
 79
     2
 49
2.8319925
 49
-280.3664999999999
 53
293.1986
 43
14.66849999999999
 44
19.04999999999999
 45
-38.10016705729698
 46
95.25032119193125
 79
     2
 49
2.901599999999999
 49
-142.179
 53
343.6104999999999
 43
15.8115
 44
16.383
 45
-190.5001051047701
 46
57.14988112475858
 79
     2
 49
3.37566
 49
-334.191
 53
339.444
 43
0.0
 44
3.6195
 45
-95.25011823191933
 46
38.09995377037603
 79
     2
 49
3.255262499999999
 49
-159.50775
 53
294.7751
 43
3.048
 44
2.4765
 45
-95.2497780272013
 46
209.549902696175
 79
     2
 49
2.727539999999999
 49
-270.0269999999999
 53
66.8014
 43
14.859
 44
0.0
 45
38.10016705729701
 46
95.25032119193124
 79
     2
 49
2.901599999999999
 49
-142.179
 53
17.354
 43
16.002
 44
2.666999999999999
 45
-247.6500133639496
 46
-76.19988506704224
 79
     2
 49
3.1933725
 49
-316.143
 53
69.444
 43
5.5245
 44
0.0
 45
-38.09995377037608
 46
-95.25011823191929
 79
     2
 49
1.627634999999999
 49
-161.1359999999999
 53
101.3098999999999
 43
13.716
 44
0.0
 45
-19.04990597165511
 46
76.19975595676965
 79
     2
 49
0.9713625
 49
-96.165
 53
165.9637999999999
 43
13.5255
 44
0.9525
 45
57.1500401602288
 46
-19.04996703092731
 79
     2
 49
3.927255
 49
-74.61787499999999
 53
186.009
 43
9.7155
 44
1.905
 45
190.4997190832096
 46
19.04995551410893
 79
     2
 49
3.639502499999999
 49
-360.3104999999999
 53
303.6900999999999
 43
11.811
 44
11.811
 45
-19.05000653480424
 46
38.09996324423879
 79
     2
 49
2.74743
 49
-65.93835
 53
353.1572
 43
13.335
 44
9.524999999999998
 45
323.8501339248256
 46
-38.10017063741129
 79
     2
 49
4.796677499999999
 49
-474.87
 53
60.94540000000001
 43
18.0975
 44
8.953499999999998
 45
-76.19982274371817
 46
-133.3496820812559
 79
     2
 49
1.961309999999999
 49
-194.1704999999999
 53
90.0
 43
19.04999999999999
 44
10.66799999999999
 45
-19.04999999999999
 46
19.04999999999999
 79
     2
 49
1.143
 49
-17.90699999999999
 53
120.2563999999999
 43
9.3345
 44
2.4765
 45
76.19983850127083
 46
-133.3499327435817
 79
     2
 49
2.646502499999999
 49
-262.00425
 53
48.0128
 43
8.000999999999999
 44
4.762499999999999
 45
152.40012949422
 46
171.4502106713443
 79
     2
 49
5.125822499999999
 49
-251.166
 53
0.0
 43
11.43
 44
8.572499999999999
 45
19.04999999999999
 46
19.04999999999999
 79
     2
 49
4.953
 49
-14.09699999999999
 53
325.3048
 43
16.383
 44
8.572499999999999
 45
-190.4996699321526
 46
133.3500126786357
 79
     2
 49
3.012074999999999
 49
-298.19475
 53
254.0545999999999
 43
18.8595
 44
6.858
 45
-19.05004859776105
 46
-76.20018152402721
 79
     2
 49
2.7737175
 49
-135.91275
 53
207.6459999999999
 43
18.0975
 44
4.190999999999998
 45
-361.9498728676703
 46
-190.5001198104254
 79
     2
 49
4.516087499999999
 49
-447.0937499999999
 53
175.4260999999999
 43
14.09699999999999
 44
2.095499999999999
 45
-247.6500570356063
 46
19.04990783414596
 79
     2
 49
4.777717499999999
 49
-472.9935
 53
175.4260999999999
 43
14.09699999999999
 44
2.095499999999999
 45
-247.6500570356063
 46
19.04990783414596
 79
     2
 49
4.777717499999999
 49
-472.9935
 47
0.2318917669605674
 98
        1
 10
710.7466842911835
 20
423.6007813843843
  0
LINE
  5
896
330
1F
100
AcDbEntity
  8
neelu alusplekk
100
AcDbLine
 10
489.9923676678768
 20
251.5826050645326
 30
0.0
 11
539.9923676678768
 21
251.5826050645326
 31
0.0
  0
VIEWPORT
  5
443
330
1B
100
AcDbEntity
 67
     1
  8
0
100
AcDbViewport
 10
170.2297920516593
 20
66.65540451935595
 30
0.0
 40
470.2789831685644
 41
304.544532357251
 68
     1
 69
     1
 12
170.2297920516593
 22
66.65540451935595
 13
0.0
 23
0.0
 14
10.0
 24
10.0
 15
10.0
 25
10.0
 16
0.0
 26
0.0
 36
1.0
 17
0.0
 27
0.0
 37
0.0
 42
50.0
 43
0.0
 44
0.0
 45
304.544532357251
 50
0.0
 51
0.0
 72
   100
 90
    32800
  1

281
     0
 71
     1
 74
     0
110
0.0
120
0.0
130
0.0
111
1.0
121
0.0
131
0.0
112
0.0
122
1.0
132
0.0
 79
     0
146
0.0
  0
VIEWPORT
  5
445
330
1B
100
AcDbEntity
 67
     1
  8
vaateväli
100
AcDbViewport
 10
176.9085283445103
 20
96.23174751092324
 30
0.0
 40
213.932759011875
 41
133.4596143089647
 68
     2
 69
     2
 12
508.4315610328274
 22
332.7375137490961
 13
0.0
 23
0.0
 14
10.0
 24
10.0
 15
10.0
 25
10.0
 16
0.0
 26
0.0
 36
1.0
 17
0.0
 27
0.0
 37
0.0
 42
50.0
 43
0.0
 44
0.0
 45
533.8384572358591
 50
0.0
 51
0.0
 72
   100
 90
    32864
  1

281
     0
 71
     1
 74
     0
110
0.0
120
0.0
130
0.0
111
1.0
121
0.0
131
0.0
112
0.0
122
1.0
132
0.0
 79
     0
146
0.0
  0
MTEXT
  5
45A
330
1B
100
AcDbEntity
 67
     1
  8
kiri
100
AcDbMText
 10
6.801386378671281
 20
28.53743129281991
 30
0.0
 40
3.0
 41
235.0999999999999
 71
     1
 72
     5
  1
{\fArial|b0|i0|c186|p34;NB!!! Antud sõlmed on soovituslikud \Pning tuleks viia kooskõlla vastavalt ülejäänud projekti konstruktiivsete lahendustega.}
  7
ARIAL
 73
     1
 44
1.0
  0
LWPOLYLINE
  5
45B
330
1B
100
AcDbEntity
 67
     1
  8
kiri
100
AcDbPolyline
 90
        5
 70
     1
 43
0.0
 10
162.2903355994044
 20
23.8742549127188
 10
219.2159294339039
 20
23.8742549127188
 10
286.7680343365496
 20
23.8742549127188
 10
286.7680343365496
 20
3.874254912718811
 10
162.2903355994044
 20
3.874254912718804
  0
LWPOLYLINE
  5
45C
330
1B
100
AcDbEntity
 67
     1
  8
kiri
100
AcDbPolyline
 90
        4
 70
     1
 43
0.0
 10
3.76803433654959
 20
3.874254912718939
 10
3.768034336549646
 20
199.8742549127189
 10
286.7680343365496
 20
199.8742549127188
 10
286.7680343365496
 20
3.874254912718868
  0
MTEXT
  5
45D
330
1B
100
AcDbEntity
 67
     1
  8
kiri
100
AcDbMText
 10
235.4426580920478
 20
22.30737471068447
 30
0.0
 40
2.0
 41
67.0
 71
     1
 72
     5
  1
{\fArial|b0|i0|c186|p34;Alumiiniumneelu sõlm }
 73
     1
 44
1.0
  0
LINE
  5
45E
330
1B
100
AcDbEntity
 67
     1
  8
kiri
100
AcDbLine
 10
286.7680343365496
 20
18.8742549127188
 30
0.0
 11
219.2159294339039
 21
18.8742549127188
 31
0.0
  0
LINE
  5
45F
330
1B
100
AcDbEntity
 67
     1
  8
kiri
100
AcDbLine
 10
286.7680343365496
 20
8.424251972275207
 30
0.0
 11
253.9536877395246
 21
8.424251972275207
 31
0.0
  0
LINE
  5
460
330
1B
100
AcDbEntity
 67
     1
  8
kiri
100
AcDbLine
 10
286.7680343365496
 20
13.22328321709721
 30
0.0
 11
253.9536877395246
 21
13.22328321709721
 31
0.0
  0
MTEXT
  5
461
330
1B
100
AcDbEntity
 67
     1
  8
kiri
100
AcDbMText
 10
220.17785195871
 20
17.97811517924809
 30
0.0
 40
2.0
 41
30.0
 71
     1
 72
     5
  1
{\fArial|b0|i0|c186|p34;Lafarge Tekkin OÜ\PRävala pst 8C \PTallinn\PEesti}
 73
     1
 44
1.0
  0
LINE
  5
462
330
1B
100
AcDbEntity
 67
     1
  8
kiri
 48
10.0
100
AcDbLine
 10
219.2159294339039
 20
23.8742549127188
 30
0.0
 11
219.2159294339039
 21
3.874254912718804
 31
0.0
  0
LINE
  5
463
330
1B
100
AcDbEntity
 67
     1
  8
kiri
100
AcDbLine
 10
253.9536877395246
 20
18.8742549127188
 30
0.0
 11
253.9536877395246
 21
3.874254912718804
 31
0.0
  0
MTEXT
  5
464
330
1B
100
AcDbEntity
 67
     1
  8
kiri
100
AcDbMText
 10
257.4677984792481
 20
7.047834111300282
 30
0.0
 40
2.0
 41
29.0
 71
     1
 72
     5
  1
{\fArial|b0|i0|c186|p34;Aasta 2004}
 73
     1
 44
1.0
  0
MTEXT
  5
465
330
1B
100
AcDbEntity
 67
     1
  8
kiri
100
AcDbMText
 10
257.7801492075595
 20
11.75567862688171
 30
0.0
 40
2.0
 41
29.0
 71
     1
 72
     5
  1
{\fArial|b0|i0|c186|p34;Mõõtkava 1:4}
 73
     1
 44
1.0
  0
IMAGE
  5
809
330
1B
100
AcDbEntity
 67
     1
  8
kiri
 92
      140
310
8C0000000100000084000000060000000500000000E9CF50C23D2040D03B6C031A5B5840000000000000000003E9CF50C23D2040E81DB6018DAD6840000000000000000020FD194AB8075B40E81DB6018DAD6840000000000000000020FD194AB8075B40D03B6C031A5B5840000000000000000000E9CF50C23D2040D03B6C
310
031A5B58400000000000000000
100
AcDbRasterImage
 90
        0
 10
8.120623135928781
 20
97.42346273011868
 30
0.0
 11
0.0244140625
 21
0.0
 31
0.0
 12
0.0
 22
0.0244140625
 32
0.0
 13
4096.0
 23
4096.0
340
807
 70
     7
280
     0
281
    50
282
    50
283
     0
360
808
 71
     1
 91
        2
 14
-0.5
 24
-0.5
 14
4095.5
 24
4095.5
  0
LINE
  5
80A
330
1B
100
AcDbEntity
 67
     1
  8
kiri
100
AcDbLine
 10
118.4304345704208
 20
131.9310103655984
 30
0.0
 11
135.8135402393095
 21
155.7218614551809
 31
0.0
  0
LINE
  5
80B
330
1B
100
AcDbEntity
 67
     1
  8
kiri
100
AcDbLine
 10
135.8135402393095
 20
155.7218614551809
 30
0.0
 11
172.9609960490902
 21
155.7218614551809
 31
0.0
  0
LINE
  5
80C
330
1B
100
AcDbEntity
 67
     1
  8
kiri
100
AcDbLine
 10
167.0148615877205
 20
102.760354499002
 30
0.0
 11
179.4686497430611
 21
136.7581223016056
 31
0.0
  0
LINE
  5
80D
330
1B
100
AcDbEntity
 67
     1
  8
kiri
100
AcDbLine
 10
179.4686497430611
 20
136.7581223016056
 30
0.0
 11
211.3924504010506
 21
136.7581223016056
 31
0.0
  0
LINE
  5
80E
330
1B
100
AcDbEntity
 67
     1
  8
kiri
100
AcDbLine
 10
151.7480322453111
 20
58.61158815498971
 30
0.0
 11
141.1883346028366
 21
37.03492057152129
 31
0.0
  0
LINE
  5
80F
330
1B
100
AcDbEntity
 67
     1
  8
kiri
100
AcDbLine
 10
141.1883346028366
 20
37.03492057152129
 30
0.0
 11
113.0273398970575
 21
37.03492057152129
 31
0.0
  0
LINE
  5
810
330
1B
100
AcDbEntity
 67
     1
  8
kiri
100
AcDbLine
 10
178.1467672882981
 20
47.88924286914516
 30
0.0
 11
191.2492040711945
 21
33.9805454529187
 31
0.0
  0
LINE
  5
811
330
1B
100
AcDbEntity
 67
     1
  8
kiri
100
AcDbLine
 10
191.2492040711945
 20
33.9805454529187
 30
0.0
 11
222.1127206918727
 21
33.9805454529187
 31
0.0
  0
LINE
  5
812
330
1B
100
AcDbEntity
 67
     1
  8
kiri
100
AcDbLine
 10
180.0077011185171
 20
79.66565295951841
 30
0.0
 11
231.6218320260459
 21
79.66565295951841
 31
0.0
  0
LINE
  5
813
330
1B
100
AcDbEntity
 67
     1
  8
kiri
100
AcDbLine
 10
227.2275594554671
 20
96.74266620686559
 30
0.0
 11
229.8484570659279
 21
88.5961673001484
 31
0.0
  0
LINE
  5
814
330
1B
100
AcDbEntity
 67
     1
  8
kiri
100
AcDbLine
 10
229.8484570659279
 20
88.5961673001484
 30
0.0
 11
269.7140190321165
 21
88.5961673001484
 31
0.0
  0
LINE
  5
815
330
1B
100
AcDbEntity
 67
     1
  8
kiri
100
AcDbLine
 10
134.5945936668895
 20
97.50718437708838
 30
0.0
 11
122.9427106933467
 21
84.51224119614948
 31
0.0
  0
LINE
  5
816
330
1B
100
AcDbEntity
 67
     1
  8
kiri
100
AcDbLine
 10
122.9427106933467
 20
84.51224119614948
 30
0.0
 11
94.67240104780193
 21
84.51224119614948
 31
0.0
  0
LINE
  5
817
330
1B
100
AcDbEntity
 67
     1
  8
kiri
100
AcDbLine
 10
231.4172276635404
 20
120.4924812889732
 30
0.0
 11
229.7276574201436
 21
142.6047100511014
 31
0.0
  0
LINE
  5
818
330
1B
100
AcDbEntity
 67
     1
  8
kiri
100
AcDbLine
 10
229.7276574201436
 20
142.6047100511014
 30
0.0
 11
259.5910976137497
 21
142.6047100511014
 31
0.0
  0
LINE
  5
819
330
1B
100
AcDbEntity
 67
     1
  8
kiri
100
AcDbLine
 10
225.6758987872972
 20
124.4296933459711
 30
0.0
 11
219.5041877609828
 21
151.6210842714074
 31
0.0
  0
LINE
  5
81A
330
1B
100
AcDbEntity
 67
     1
  8
kiri
100
AcDbLine
 10
219.5041877609828
 20
151.6210842714074
 30
0.0
 11
245.8550618533659
 21
151.6210842714074
 31
0.0
  0
LINE
  5
81B
330
1B
100
AcDbEntity
 67
     1
  8
kiri
100
AcDbLine
 10
157.7868612586044
 20
95.88040693631773
 30
0.0
 11
153.115264872898
 21
74.20532259678975
 31
0.0
  0
LINE
  5
81C
330
1B
100
AcDbEntity
 67
     1
  8
kiri
100
AcDbLine
 10
153.115264872898
 20
74.20532259678975
 30
0.0
 11
133.3842155741435
 21
74.20532259678975
 31
0.0
  0
DIMENSION
  5
81E
330
1B
100
AcDbEntity
 67
     1
  8
kiri
100
AcDbDimension
  2
*D5
 10
177.9782740002487
 20
83.67163088811427
 30
0.0
 11
166.7910386523093
 21
89.47257329584278
 31
0.0
 70
    33
  1
100
 71
     5
 42
24.92304496228084
  3
ISO-25
100
AcDbAlignedDimension
 13
154.9625738957835
 23
93.39544953936984
 33
0.0
 14
178.5487300032727
 24
85.34241220771525
 34
0.0
  0
DIMENSION
  5
843
330
1B
100
AcDbEntity
 67
     1
  8
kiri
100
AcDbDimension
  2
*D7
 10
179.0439624030598
 20
112.9408136055379
 30
0.0
 11
163.6871553653158
 21
118.2528644427424
 31
0.0
 70
    33
  1
120-150
 71
     5
 42
32.282117742896
  3
ISO-25
100
AcDbAlignedDimension
 13
147.0263452390097
 23
117.6609807475101
 33
0.0
 14
178.5487300032727
 24
110.6986259203009
 34
0.0
  0
TEXT
  5
859
330
1B
100
AcDbEntity
 67
     1
  8
kiri
100
AcDbText
 10
138.6451389573639
 20
155.7218614551809
 30
0.0
 40
3.0
  1
Betoonkatusekivi
  7
ARIAL
100
AcDbText
  0
TEXT
  5
85A
330
1B
100
AcDbEntity
 67
     1
  8
kiri
100
AcDbText
 10
182.1747936651409
 20
136.7581223016056
 30
0.0
 40
3.0
  1
Alumiiniumneel
  7
ARIAL
100
AcDbText
  0
TEXT
  5
85B
330
1B
100
AcDbEntity
 67
     1
  8
kiri
100
AcDbText
 10
229.7276574201436
 20
142.6047100511014
 30
0.0
 40
3.0
  1
Kinnitusklamber
  7
ARIAL
100
AcDbText
  0
TEXT
  5
85C
330
1B
100
AcDbEntity
 67
     1
  8
kiri
100
AcDbText
 10
219.5041877609828
 20
151.6210842714074
 30
0.0
 40
3.0
  1
Neeluplekitihend
  7
ARIAL
100
AcDbText
  0
TEXT
  5
85D
330
1B
100
AcDbEntity
 67
     1
  8
kiri
100
AcDbText
 10
96.55922351972549
 20
84.51224119614948
 30
0.0
 40
3.0
  1
Tuulutusliist
  7
ARIAL
100
AcDbText
  0
TEXT
  5
85E
330
1B
100
AcDbEntity
 67
     1
  8
kiri
100
AcDbText
 10
135.6858900144384
 20
74.20532259678975
 30
0.0
 40
3.0
  1
Pikiroov
  7
ARIAL
100
AcDbText
  0
TEXT
  5
85F
330
1B
100
AcDbEntity
 67
     1
  8
kiri
100
AcDbText
 10
116.2629485885231
 20
37.03492057152129
 30
0.0
 40
3.0
  1
Sarikas
  7
ARIAL
100
AcDbText
  0
TEXT
  5
860
330
1B
100
AcDbEntity
 67
     1
  8
kiri
100
AcDbText
 10
195.5389189651696
 20
33.9805454529187
 30
0.0
 40
3.0
  1
Neelusarikas
  7
ARIAL
100
AcDbText
  0
TEXT
  5
861
330
1B
100
AcDbEntity
 67
     1
  8
kiri
100
AcDbText
 10
200.8734297612738
 20
79.66565295951841
 30
0.0
 40
3.0
  1
Neelualusplekk
  7
ARIAL
100
AcDbText
  0
TEXT
  5
862
330
1B
100
AcDbEntity
 67
     1
  8
kiri
100
AcDbText
 10
229.8484570659279
 20
88.5961673001484
 30
0.0
 40
3.0
  1
Mittehingav aluskate 
  7
ARIAL
100
AcDbText
  0
TEXT
  5
863
330
1B
100
AcDbEntity
 67
     1
  8
kiri
100
AcDbText
 10
246.490381734763
 20
84.85872035938678
 30
0.0
 40
3.0
  1
Spanflex Fleece
  7
ARIAL
100
AcDbText
  0
LINE
  5
864
330
1B
100
AcDbEntity
 67
     1
  8
kiri
100
AcDbLine
 10
277.0086814272754
 20
84.60164544648046
 30
0.0
 11
245.8787430528837
 21
84.60164544648046
 31
0.0
  0
OLE2FRAME
  5
865
330
1B
100
AcDbEntity
 67
     1
  8
kiri
100
AcDbOle2Frame
 70
     2
  3
Bitmap Image
 10
162.9332228972962
 20
23.44818681941069
 30
0.0
 11
218.4898305344554
 21
4.146689137949351
 31
0.0
 71
     2
 72
     1
 73
     1
 90
    24192
310
815580F843F6DC5D644000DE135FBC723740000000000000000030C215B1AC4F
310
6B4000DE135FBC723740000000000000000030C215B1AC4F6B4000AF68AD3596
310
1040000000000000000080F843F6DC5D644000AF68AD35961040000000000000
310
00004818AE0800000000000100000300000001000000000001000000005E0000
310
D0CF11E0A1B11AE1000000000000000000000000000000003E000300FEFF0900
310
0600000000000000000000000100000001000000000000000010000002000000
310
01000000FEFFFFFF0000000000000000FFFFFFFFFFFFFFFFFFFFFFFFFFFFFFFF
310
FFFFFFFFFFFFFFFFFFFFFFFFFFFFFFFFFFFFFFFFFFFFFFFFFFFFFFFFFFFFFFFF
310
FFFFFFFFFFFFFFFFFFFFFFFFFFFFFFFFFFFFFFFFFFFFFFFFFFFFFFFFFFFFFFFF
310
FFFFFFFFFFFFFFFFFFFFFFFFFFFFFFFFFFFFFFFFFFFFFFFFFFFFFFFFFFFFFFFF
310
FFFFFFFFFFFFFFFFFFFFFFFFFFFFFFFFFFFFFFFFFFFFFFFFFFFFFFFFFFFFFFFF
310
FFFFFFFFFFFFFFFFFFFFFFFFFFFFFFFFFFFFFFFFFFFFFFFFFFFFFFFFFFFFFFFF
310
FFFFFFFFFFFFFFFFFFFFFFFFFFFFFFFFFFFFFFFFFFFFFFFFFFFFFFFFFFFFFFFF
310
FFFFFFFFFFFFFFFFFFFFFFFFFFFFFFFFFFFFFFFFFFFFFFFFFFFFFFFFFFFFFFFF
310
FFFFFFFFFFFFFFFFFFFFFFFFFFFFFFFFFFFFFFFFFFFFFFFFFFFFFFFFFFFFFFFF
310
FFFFFFFFFFFFFFFFFFFFFFFFFFFFFFFFFFFFFFFFFFFFFFFFFFFFFFFFFFFFFFFF
310
FFFFFFFFFFFFFFFFFFFFFFFFFFFFFFFFFFFFFFFFFFFFFFFFFFFFFFFFFFFFFFFF
310
FFFFFFFFFFFFFFFFFFFFFFFFFFFFFFFFFFFFFFFFFFFFFFFFFFFFFFFFFFFFFFFF
310
FFFFFFFFFFFFFFFFFFFFFFFFFFFFFFFFFFFFFFFFFFFFFFFFFFFFFFFFFFFFFFFF
310
FFFFFFFFFFFFFFFFFFFFFFFFFFFFFFFFFFFFFFFFFFFFFFFFFFFFFFFFFFFFFFFF
310
FDFFFFFF2D000000FEFFFFFFFEFFFFFF05000000060000000700000008000000
310
090000000A0000000B0000000C0000000D0000000E0000000F00000010000000
310
1100000012000000130000001400000015000000160000001700000018000000
310
190000001A0000001B0000001C0000001D0000001E0000001F00000020000000
310
2100000022000000230000002400000025000000260000002700000028000000
310
290000002A0000002B0000002C000000FEFFFFFFFEFFFFFFFFFFFFFFFFFFFFFF
310
FFFFFFFFFFFFFFFFFFFFFFFFFFFFFFFFFFFFFFFFFFFFFFFFFFFFFFFFFFFFFFFF
310
FFFFFFFFFFFFFFFFFFFFFFFFFFFFFFFFFFFFFFFFFFFFFFFFFFFFFFFFFFFFFFFF
310
FFFFFFFFFFFFFFFFFFFFFFFFFFFFFFFFFFFFFFFFFFFFFFFFFFFFFFFFFFFFFFFF
310
FFFFFFFFFFFFFFFFFFFFFFFFFFFFFFFFFFFFFFFFFFFFFFFFFFFFFFFFFFFFFFFF
310
FFFFFFFFFFFFFFFFFFFFFFFFFFFFFFFFFFFFFFFFFFFFFFFFFFFFFFFFFFFFFFFF
310
FFFFFFFFFFFFFFFFFFFFFFFFFFFFFFFFFFFFFFFFFFFFFFFFFFFFFFFFFFFFFFFF
310
FFFFFFFFFFFFFFFFFFFFFFFFFFFFFFFFFFFFFFFFFFFFFFFFFFFFFFFFFFFFFFFF
310
FFFFFFFFFFFFFFFFFFFFFFFFFFFFFFFFFFFFFFFFFFFFFFFFFFFFFFFFFFFFFFFF
310
FFFFFFFFFFFFFFFFFFFFFFFFFFFFFFFFFFFFFFFFFFFFFFFFFFFFFFFFFFFFFFFF
310
FFFFFFFFFFFFFFFFFFFFFFFFFFFFFFFFFFFFFFFFFFFFFFFFFFFFFFFFFFFFFFFF
310
52006F006F007400200045006E00740072007900000000000000000000000000
310
0000000000000000000000000000000000000000000000000000000000000000
310
16000500FFFFFFFFFFFFFFFF020000000A00030000000000C000000000000046
310
00000000000000000000000020DDCA8514D2C401030000000001000000000000
310
01004F006C006500000000000000000000000000000000000000000000000000
310
0000000000000000000000000000000000000000000000000000000000000000
310
0A000201FFFFFFFFFFFFFFFFFFFFFFFF00000000000000000000000000000000
310
0000000000000000000000000000000000000000000000001400000000000000
310
010043006F006D0070004F0062006A0000000000000000000000000000000000
310
0000000000000000000000000000000000000000000000000000000000000000
310
120002010100000003000000FFFFFFFF00000000000000000000000000000000
310
0000000000000000000000000000000000000000010000004D00000000000000
310
01004F006C006500310030004E00610074006900760065000000000000000000
310
0000000000000000000000000000000000000000000000000000000000000000
310
1A000201FFFFFFFF04000000FFFFFFFF00000000000000000000000000000000
310
000000000000000000000000000000000000000004000000C451000000000000
310
FEFFFFFF02000000FEFFFFFFFEFFFFFFFFFFFFFFFFFFFFFFFFFFFFFFFFFFFFFF
310
FFFFFFFFFFFFFFFFFFFFFFFFFFFFFFFFFFFFFFFFFFFFFFFFFFFFFFFFFFFFFFFF
310
FFFFFFFFFFFFFFFFFFFFFFFFFFFFFFFFFFFFFFFFFFFFFFFFFFFFFFFFFFFFFFFF
310
FFFFFFFFFFFFFFFFFFFFFFFFFFFFFFFFFFFFFFFFFFFFFFFFFFFFFFFFFFFFFFFF
310
FFFFFFFFFFFFFFFFFFFFFFFFFFFFFFFFFFFFFFFFFFFFFFFFFFFFFFFFFFFFFFFF
310
FFFFFFFFFFFFFFFFFFFFFFFFFFFFFFFFFFFFFFFFFFFFFFFFFFFFFFFFFFFFFFFF
310
FFFFFFFFFFFFFFFFFFFFFFFFFFFFFFFFFFFFFFFFFFFFFFFFFFFFFFFFFFFFFFFF
310
FFFFFFFFFFFFFFFFFFFFFFFFFFFFFFFFFFFFFFFFFFFFFFFFFFFFFFFFFFFFFFFF
310
FFFFFFFFFFFFFFFFFFFFFFFFFFFFFFFFFFFFFFFFFFFFFFFFFFFFFFFFFFFFFFFF
310
FFFFFFFFFFFFFFFFFFFFFFFFFFFFFFFFFFFFFFFFFFFFFFFFFFFFFFFFFFFFFFFF
310
FFFFFFFFFFFFFFFFFFFFFFFFFFFFFFFFFFFFFFFFFFFFFFFFFFFFFFFFFFFFFFFF
310
FFFFFFFFFFFFFFFFFFFFFFFFFFFFFFFFFFFFFFFFFFFFFFFFFFFFFFFFFFFFFFFF
310
FFFFFFFFFFFFFFFFFFFFFFFFFFFFFFFFFFFFFFFFFFFFFFFFFFFFFFFFFFFFFFFF
310
FFFFFFFFFFFFFFFFFFFFFFFFFFFFFFFFFFFFFFFFFFFFFFFFFFFFFFFFFFFFFFFF
310
FFFFFFFFFFFFFFFFFFFFFFFFFFFFFFFFFFFFFFFFFFFFFFFFFFFFFFFFFFFFFFFF
310
FFFFFFFFFFFFFFFFFFFFFFFFFFFFFFFFFFFFFFFFFFFFFFFFFFFFFFFFFFFFFFFF
310
0100000200000000000000000000000000000000000108001E00000041007200
310
72006F0077006800650061006400320042006C006F0063006B0000001D004600
310
0100FEFF030A0000FFFFFFFF0A00030000000000C00000000000004607000000
310
5042727573680007000000504272757368000700000050427275736800F439B2
310
7100000000000000000000000000200074006800650020006300750073007400
310
6F006D0020006100720072006F0077006800650061006400200066006F007200
310
010000000C00650020007300650063006F006E006400200065006E0064002000
310
6F00660020007400680065002000640069006D0065006E00730069006F006E00
310
20006C0069006E0065000000720000000D002301000108005600000043003A00
310
5C00500072006F006700720061006D002000460069006C00650073005C004100
310
750074006F00430041004400200032003000300032005C004100430041004400
310
4100550054004F002E00430048004D000000000048004D000B00300100010800
310
440000004200000000000000D0601D0004000000040000000400000001000000
310
2C03000000000000180000000000000000004400000400000000000008002000
310
0000000001006500000000000100200007003B01000108001E00000041007200
310
72006F0077006800650061006400320042006C006F0063006B00000061006300
310
C0510000424DA6510000000000003604000028000000EB000000540000000100
310
080000000000704D0000C40E0000C40E00000000000000000000FFFFFF00CCFF
310
FF0099FFFF0066FFFF0033FFFF0000FFFF00FFCCFF00CCCCFF0099CCFF0066CC
310
FF0033CCFF0000CCFF00FF99FF00CC99FF009999FF006699FF003399FF000099
310
FF00FF66FF00CC66FF009966FF006666FF003366FF000066FF00FF33FF00CC33
310
FF009933FF006633FF003333FF000033FF00FF00FF00CC00FF009900FF006600
310
FF003300FF000000FF00FFFFCC00CCFFCC0099FFCC0066FFCC0033FFCC0000FF
310
CC00FFCCCC00CCCCCC0099CCCC0066CCCC0033CCCC0000CCCC00FF99CC00CC99
310
CC009999CC006699CC003399CC000099CC00FF66CC00CC66CC009966CC006666
310
CC003366CC000066CC00FF33CC00CC33CC009933CC006633CC003333CC000033
310
CC00FF00CC00CC00CC009900CC006600CC003300CC000000CC00FFFF9900CCFF
310
990099FF990066FF990033FF990000FF9900FFCC9900CCCC990099CC990066CC
310
990033CC990000CC9900FF999900CC9999009999990066999900339999000099
310
9900FF669900CC66990099669900666699003366990000669900FF339900CC33
310
990099339900663399003333990000339900FF009900CC009900990099006600
310
99003300990000009900FFFF6600CCFF660099FF660066FF660033FF660000FF
310
6600FFCC6600CCCC660099CC660066CC660033CC660000CC6600FF996600CC99
310
660099996600669966003399660000996600FF666600CC666600996666006666
310
66003366660000666600FF336600CC3366009933660066336600333366000033
310
6600FF006600CC00660099006600660066003300660000006600FFFF3300CCFF
310
330099FF330066FF330033FF330000FF3300FFCC3300CCCC330099CC330066CC
310
330033CC330000CC3300FF993300CC9933009999330066993300339933000099
310
3300FF663300CC66330099663300666633003366330000663300FF333300CC33
310
330099333300663333003333330000333300FF003300CC003300990033006600
310
33003300330000003300FFFF0000CCFF000099FF000066FF000033FF000000FF
310
0000FFCC0000CCCC000099CC000066CC000033CC000000CC0000FF990000CC99
310
000099990000669900003399000000990000FF660000CC660000996600006666
310
00003366000000660000FF330000CC3300009933000066330000333300000033
310
0000FF000000CC00000099000000660000003300000000000000201F23002120
310
24002120230044850000438500004384000020202300FFFFFF00000000000000
310
0000000000000000000000000000000000000000000000000000000000000000
310
0000000000000000000000000000000000000000000000000000000000000000
310
0000000000000000000000000000000000000000000000000000000000000000
310
0000000000000000000000000000000000000000000000000000000000000000
310
0000000000000000000000000000000000000000000000000000000000000000
310
0000000000000000000000000000000000000000000000000000000000000000
310
0000000000000000000000000000000000000000000000000000000000000000
310
0000000000000000000000000000000000000000000000000000000000000000
310
0000000000000000000000000000000000000000000000000000000000000000
310
0000000000000000000000000000000000000000000000000000000000000000
310
0000000000000000000000000000000000000000000000000000000000000000
310
0000000000000000000000000000000000000000000000000000000000000000
310
0000000000000000000000000000000000000000000000000000000000000000
310
0000000000000000000000000000000000000000000000000000000000000000
310
0000000000000000000000000000000000000000000000000000000000000000
310
0000000000000000000000000000000000000000000000000000000000000000
310
0000000000000000000000000000000000000000000000000000000000000000
310
0000000000000000000000000000000000000000000000000000000000000000
310
0000000000000000000000000000000000000000000000000000000000000000
310
0000000000000000000000000000000000000000000000000000000000000000
310
0000000000000000000000000000000000000000000000000000000000000000
310
0000000000000000000000000000000000000000000000000000000000000000
310
0000000000000000000000000000000000000000000000000000000000000000
310
0000000000000000000000000000000000000000000000000000000000000000
310
0000000000000000000000000000000000000000000000000000000000000000
310
0000000000000000000000000000000000000000000000000000000000000000
310
0000000000000000000000000000000000000000000000000000000000000000
310
0000000000000000000000000000000000000000000000000000000000000000
310
0000000000000000000000000000000000000000000000000000000000000000
310
0000000000000000000000000000000000000000000000000000000000000000
310
0000000000000000000000000000000000000000000000000000000000000000
310
0000000000000000000000000000000000000000000000000000000000000000
310
0000000000000000000000000000000000000000000000000000000000000000
310
0000000000000000000000000000000000000000000000000000000000000000
310
0000000000000000000000000000000000000000000000000000000000000000
310
0000000000000000000000000000000000000000000000000000000000000000
310
0000000000000000000000000000000000000000000000000000000000000000
310
0000000000000000000000000000000000000000000000000000000000000000
310
0000000000000000000000000000000000000000000000000000000000000000
310
0000000000000000000000000000000000000000000000000000000000000000
310
0000000000000000000000000000000000000000000000000000000000000000
310
0000000000000000000000000000000000000000000000000000000000000000
310
0000000000000000000000000000000000000000000000000000000000000000
310
0000000000000000000000000000000000000000000000000000000000000000
310
0000000000000000000000000000000000000000000000000000000000000000
310
0000000000000000000000000000000000000000000000000000000000000000
310
0000000000000000000000000000000000000000000000000000000000000000
310
0000000000000000000000000000000000000000000000000000000000000000
310
0000000000000000000000000000000000000000000000000000000000000000
310
0000000000000000000000000000000000000000000000000000000000000000
310
0000000000000000000000000000000000000000000000000000000000000000
310
0000000000000000000000000000000000000000000000000000000000000000
310
0000000000000000000000000000000000000000000000000000000000000000
310
0000000000000000000000000000000000000000000000000000000000000000
310
0000000000000000000000000000000000000000000000000000000000000000
310
0000000000000000000000000000000000000000000000000000000000000000
310
0000000000000000000000000000000000000000000000000000000000000000
310
0000000000000000000000000000000000000000000000000000000000000000
310
0000000000000000000000000000000000000000000000000000000000000000
310
0000000000000000000000000000000000000000000000000000000000000000
310
0000000000000000000000000000000000000000000000000000000000000000
310
0000000000000000000000000000000000000000000000000000000000000000
310
0000000000000000000000000000000000000000000000000000000000000000
310
000000DBDBDCDBDCDCDBDCDBDBDBDCDCDBDCDBDBDBDBDBDCDBDBDBDBDCDBDBDD
310
DBDCDBDBDBDBDCDBDCDCDCDBDBDCDBDBDCDC0000000000000000000000000000
310
00000000000000000000000000000000000000000000000000000000DADAD8D8
310
D8000000000000DAD8D8D8D8DADED8DEDA000000DADEDAD8000000D8D8D8DAD8
310
000000DEDADAD8000000D8D8D8D8D8000000D8D8D8D8D800000000D8D8D80000
310
0000DAD8DADED800000000000000000000000000000000000000000000000000
310
0000000000000000000000000000000000000000000000000000000000000000
310
000000000000000000000000000000DBDCDBDBDBDBDCDDDBDBDBDDDCDBDCDCDC
310
DCDDDDDCDDDDDBDCDCDBDCDBDBDBDBDDDBDBDDDBDBDBDBDDDCDCDBDBDBDCDB00
310
0000000000000000000000000000000000000000000000000000000000000000
310
0000000000000000D8D8DAD8DA000000000000D8D8D8D8D8DAD9DED8DE000000
310
DED8DED8000000D8D8D8D8DA000000D8D8D8D8000000DADAD8DED8000000D8D8
310
D8D8D800000000D9DADE000000D8D8D8D8D9D800000000000000000000000000
310
0000000000000000000000000000000000000000000000000000000000000000
310
00000000000000000000000000000000000000000000000000000000DCDBDDDB
310
DCDCDBDBDCDBDCDBDBDBDBDBDBDBDCDBDBDCDBDBDCDDDBDCDBDBDBDBDBDCDBDC
310
DCDCDDDCDBDCDCDCDBDCDB000000000000000000000000000000000000000000
310
0000000000000000000000000000000000000000D8D8DED8D8000000000000D9
310
DED8D8000000000000000000D8D8D8DA0000D8DAD8D8D800000000DAD8DAD800
310
00D8D8D8D8DE00000000D8DED8D8DA00000000DADAD8000000D8D8DAD8DADA00
310
0000000000000000000000000000000000000000000000000000000000000000
310
0000000000000000000000000000000000000000000000000000000000000000
310
0000000000000000DCDBDBDBDBDBDBDBDCDCDCDBDBDBDCDDDBDCDBDBDBDBDCDB
310
DBDCDBDDDCDBDCDBDBDCDCDCDCDDDCDCDCDCDDDCDBDCDBDB0000000000000000
310
0000000000000000000000000000000000000000000000000000000000000000
310
D8D8DED8D8000000000000D8D8D8D8000000000000000000DED8D8D800DEDED8
310
D8D80000000000D8DAD8D900DAD8DEDED80000000000D8D8DED8D800000000D8
310
D8D80000D8D8D8D8D8DAD9000000000000000000000000000000000000000000
310
0000000000000000000000000000000000000000000000000000000000000000
310
000000000000000000000000000000000000000000DCDCDBDBDCDBDCDBDCDBDC
310
DCDBDCDCDBDCDBDDDDDBDDDCDBDBDBDCDCDCDBDDDCDBDBDBDBDBDDDBDBDBDCDC
310
DBDBDBDB00000000000000000000000000000000000000000000000000000000
310
000000000000000000000000DAD8D8D8D8000000000000D8DED9D90000000000
310
00000000D8D8D8DAD8D8D8DED8000000000000D8DED8D8D8D8D8D8D800000000
310
0000D8D8DEDAD800000000D8DEDA0000D8DED8DED8D8D8000000000000000000
310
0000000000000000000000000000000000000000000000000000000000000000
310
0000000000000000000000000000000000000000000000000000000000000000
310
00DBDCDBDBDBDBDBDBDBDBDBDBDCDCDCDBDBDBDCDCDCDBDBDBDCDCDCDBDBDBDB
310
DCDCDCDBDBDCDCDCDCDDDCDBDBDBDBDB00000000000000000000000000000000
310
000000000000000000000000000000000000000000000000D8DAD8D8D8000000
310
000000D8DEDED9D8D8D8D8DE00000000D8D8D8DED8D8D8D800000000000000D8
310
DED8D8DAD9DAD900000000000000D8D8D8D8DE00000000DED8DE00D8D8D8D800
310
DED8DA0000000000000000000000000000000000000000000000000000000000
310
0000000000000000000000000000000000000000000000000000000000000000
310
00000000000000000000000000DDDBDCDBDBDBDBDBDDDBDCDBDBDCDCDCDDDBDB
310
DBDBDCDBDBDCDBDBDCDCDCDBDCDDDCDBDBDBDBDBDCDBDBDCDCDCDBDBDC000000
310
0000000000000000000000000000000000000000000000000000000000000000
310
00000000D8D8D8D8D8000000000000DAD8D8DEDADADEDEDA00000000D8DAD8DE
310
D8DED8D800000000000000D8D8D8D8D8D8D8DA00000000000000D8D8DAD8D800
310
000000D8D8D800DAD8D8DE00DADAD80000000000000000000000000000000000
310
0000000000000000000000000000000000000000000000000000000000000000
310
0000000000000000000000000000000000000000000000000000DCDCDCDCDDDC
310
DCDBDBDDDCDCDBDCDCDBDBDBDCDCDCDCDBDBDCDBDBDCDBDBDCDBDCDCDBDCDBDC
310
DCDBDBDBDBDDDCDCDC0000000000000000000000000000000000000000000000
310
00000000000000000000000000000000D8D9D8DAD8000000000000D8DED8D800
310
0000000000000000DEDAD8DEDED8DADAD8000000000000D8D9DED8DAD8D8D8D8
310
000000000000DED8D8D8D800000000DAD8D8DED8D8D80000D8D8D80000000000
310
0000000000000000000000000000000000000000000000000000000000000000
310
0000000000000000000000000000000000000000000000000000000000000000
310
000000000000DCDDDBDCDDDBDBDBDCDCDDDCDBDCDCDCDCDBDBDCDDDBDCDBDBDB
310
DBDCDCDCDCDBDDDCDBDCDBDDDBDCDDDBDBDBDCDCDCDB00000000000000000000
310
00000000000000000000000000000000000000000000000000000000D8D8D8DA
310
DE000000000000DADAD8D8000000000000000000DED8DAD800D8D8DEDA000000
310
000000D8D8D8D800D8D8D8DA000000000000DEDED8D8D800000000D8D8D8D8D8
310
DE000000DED8DE00000000000000000000000000000000000000000000000000
310
0000000000000000000000000000000000000000000000000000000000000000
310
00000000000000000000000000000000000000DCDCDCDCDCDBDCDBDCDCDCDCDB
310
DBDBDBDBDBDCDBDBDDDCDBDBDBDBDBDDDBDCDCDBDBDDDBDCDCDBDCDBDBDDDBDC
310
DBDC000000000000000000000000000000000000000000000000000000000000
310
000000000000DED8DEDAD8D8D8D8D800000000D8D8D8D8D8DED8DAD800000000
310
DED8DAD80000D8DED8D80000000000D8D8D8D80000D9D8D8D80000000000D8DA
310
D8D8D800000000D8DEDAD8DEDA000000DEDADA00000000000000000000000000
310
0000000000000000000000000000000000000000000000000000000000000000
310
00000000000000000000000000000000000000000000000000000000000000DB
310
DCDCDBDCDCDBDDDCDBDBDBDDDBDBDCDBDBDCDCDBDBDBDCDBDBDBDBDDDBDCDCDB
310
DCDDDBDBDDDBDBDBDCDBDBDBDBDB000000000000000000000000000000000000
310
0000000000000000000000000000000000D8D8D8D8D8D8D8D8D8D8DA000000DA
310
DADAD8D8DED8DED8D9000000D8D8D8D8000000D8D9DEDA00000000DED8DED800
310
0000DADAD8DE00000000D8DEDAD8D800000000DED8D8D8D800000000DAD8DE00
310
0000000000000000000000000000000000000000000000000000000000000000
310
0000000000000000000000000000000000000000000000000000000000000000
310
000000000000000000000000DBDCDBDBDCDBDDDBDBDBDBDBDCDBDBDBDBDBDCDB
310
DBDDDCDBDBDBDCDB000000000000000000000000000000000000000000000000
310
0000000000000000000000000000000000000000000000000000000000D8D8D8
310
D8D8D8D8DAD8D8D8000000D8DAD8DED8DEDADAD8D8000000DED8D8D9000000D8
310
D8D8DED8000000D8D8D9D8000000DED8D8D8D8000000D8DADAD9D800000000D8
310
D8D8D8D800000000DED8D8000000000000000000000000000000000000000000
310
0000000000000000000000000000000000000000000000000000000000000000
310
000000000000000000000000000000000000000000000000DBDBDBDCDCDCDCDB
310
DDDCDCDCDCDBDBDBDBDBDBDBDBDBDCDBDCDBDDDC000000000000000000000000
310
0000000000000000000000000000000000000000000000000000000000000000
310
0000000000000000000000000000000000000000000000000000000000000000
310
0000000000000000000000000000000000000000000000000000000000000000
310
0000000000000000000000000000000000000000000000000000000000000000
310
0000000000000000000000000000000000000000000000000000000000000000
310
0000000000000000000000000000000000000000000000000000000000000000
310
0000000000DBDCDCDBDBDBDBDBDCDCDBDCDBDBDCDCDDDBDBDCDBDBDBDCDCDBDC
310
DB00000000000000000000000000000000000000000000000000000000000000
310
0000000000000000000000000000000000000000000000000000000000000000
310
0000000000000000000000000000000000000000000000000000000000000000
310
0000000000000000000000000000000000000000000000000000000000000000
310
0000000000000000000000000000000000000000000000000000000000000000
310
0000000000000000000000000000000000000000000000000000000000000000
310
0000000000000000000000000000000000DCDDDBDBDCDBDCDBDBDDDBDBDBDDDC
310
DCDBDBDBDCDBDCDCDBDCDCDBDC00000000000000000000000000000000000000
310
0000000000000000000000000000000000000000000000000000000000000000
310
0000000000000000000000000000000000000000000000000000000000000000
310
0000000000000000000000000000000000000000000000000000000000000000
310
0000000000000000000000000000000000000000000000000000000000000000
310
0000000000000000000000000000000000000000000000000000000000000000
310
0000000000000000000000000000000000000000000000000000000000DCDBDC
310
DCDBDCDBDBDBDCDBDCDBDDDBDCDBDBDBDCDBDBDCDCDBDCDCDCDB000000000000
310
0000000000000000000000000000000000000000000000000000000000000000
310
0000000000000000000000000000000000000000000000000000000000000000
310
0000000000000000000000000000000000000000000000000000000000000000
310
0000000000000000000000000000000000000000000000000000000000000000
310
0000000000000000000000000000000000000000000000000000000000000000
310
0000000000000000000000000000000000000000000000000000000000000000
310
00000000000000000000DCDBDCDCDBDDDCDBDBDCDBDCDBDBDCDCDCDCDBDBDBDB
310
DDDBDCDCDBDB0000000000000000000000000000000000000000000000000000
310
0000000000000000000000000000000000000000000000000000000000000000
310
0000000000000000000000000000000000000000000000000000000000000000
310
0000000000000000000000000000000000000000000000000000000000000000
310
0000000000000000000000000000000000000000000000000000000000000000
310
0000000000000000000000000000000000000000000000000000000000000000
310
00000000000000000000000000000000000000000000DBDCDBDCDCDBDBDBDCDC
310
DBDBDCDCDBDBDCDBDBDBDBDBDCDCDCDBDBDB0000000000000000000000000000
310
0000000000000000000000000000000000000000000000000000000000000000
310
0000000000000000000000000000000000000000000000000000000000000000
310
0000000000000000000000000000000000000000000000000000000000000000
310
0000000000000000000000000000000000000000000000000000000000000000
310
0000000000000000000000000000000000000000000000000000000000000000
310
0000000000000000000000000000000000000000000000000000000000000000
310
000000DBDBDBDBDBDCDBDBDCDBDBDCDBDBDCDBDCDBDBDBDCDCDCDBDCDCDBDD00
310
000000D7D7D7D7D7D7D7D7D7D7D7D7D7D7D7D7D7D7D7D7D7D7D7D7D7D7D7D7D7
310
D7D7D7D7D7D7D7D7D7D7D7D7D7D7D7D7D7D7D7D7D7D7D7D7D7D7D7D7D7D7D7D7
310
D7D7D7D7D7D7D7D7D7D7D7D7D7D7D7D7D7D7D7D7D7D7D7D7D7D7D7D7D7D7D7D7
310
D7D7D7D7D7D7D7D7D7D7D7D7D7D7D7D7D7D7D7D7D7D7D7D7D7D7D7D7D7D7D7D7
310
D7D7D7D7D7D7D7D7D7D7D7D7D7D7D7D7D7D7D7D7D7D7D7D7D7D7D7D7D7D7D7D7
310
D7D7D7D7D7D7D7D7D7D7D7D7D7D7000000000000000000000000000000000000
310
000000000000000000000000000000DCDBDCDBDCDBDDDCDBDBDBDCDBDBDDDBDB
310
DDDCDCDBDDDBDCDBDDDCDB00000000D7D7D7D7D7D7D7D7D7D7D7D7D7D7D7D7D7
310
D7D7D7D7D7D7D7D7D7D7D7D7D7D7D7D7D7D7D7D7D7D7D7D7D7D7D7D7D7D7D7D7
310
D7D7D7D7D7D7D7D7D7D7D7D7D7D7D7D7D7D7D7D7D7D7D7D7D7D7D7D7D7D7D7D7
310
D7D7D7D7D7D7D7D7D7D7D7D7D7D7D7D7D7D7D7D7D7D7D7D7D7D7D7D7D7D7D7D7
310
D7D7D7D7D7D7D7D7D7D7D7D7D7D7D7D7D7D7D7D7D7D7D7D7D7D7D7D7D7D7D7D7
310
D7D7D7D7D7D7D7D7D7D7D7D7D7D7D7D7D7D7D7D7D7D7D7D7D7D7000000000000
310
00000000000000000000000000000000000000000000000000000000DBDBDBDD
310
DCDBDBDDDBDBDBDBDCDCDBDBDCDCDBDBDCDCDBDBDBDCDBDB0000000000000000
310
0000000000000000000000000000000000000000000000000000000000000000
310
0000000000000000000000000000000000000000000000000000000000000000
310
0000000000000000000000000000000000000000000000000000000000000000
310
0000000000000000000000000000000000000000000000000000000000000000
310
0000000000000000000000000000000000000000000000000000000000000000
310
0000000000000000000000000000000000000000000000000000000000000000
310
0000000000000000DCDCDBDCDCDBDDDBDCDBDBDBDCDBDCDCDBDBDBDCDCDBDBDB
310
DCDCDBDC00000000000000000000000000000000000000000000000000000000
310
0000000000000000000000000000000000000000000000000000000000000000
310
0000000000000000000000000000000000000000000000000000000000000000
310
0000000000000000000000000000000000000000000000000000000000000000
310
0000000000000000000000000000000000000000000000000000000000000000
310
0000000000000000000000000000000000000000000000000000000000000000
310
0000000000000000000000000000000000000000DBDBDBDBDBDCDDDCDBDBDBDB
310
DCDCDBDCDBDBDCDCDBDCDBDCDBDCDCDBDC000000000000000000000000000000
310
0000000000000000000000000000000000000000000000000000000000000000
310
0000000000000000000000000000000000000000000000000000000000000000
310
0000000000000000000000000000000000000000000000000000000000000000
310
0000000000000000000000000000000000000000000000000000000000000000
310
0000000000000000000000000000000000000000000000000000000000000000
310
0000000000000000000000000000000000000000000000000000000000000000
310
00DCDBDBDBDCDCDBDCDCDBDCDCDBDCDCDCDCDCDBDBDCDBDDDCDBDBDCDC000000
310
0000000000000000000000000000000000000000000000000000000000000000
310
0000000000000000000000000000000000000000000000000000000000000000
310
0000000000000000000000000000000000000000000000000000000000000000
310
0000000000000000000000000000000000000000000000000000000000000000
310
0000000000000000000000000000000000000000000000000000000000000000
310
0000000000000000000000000000000000000000000000000000000000000000
310
00000000000000000000000000DCDBDBDBDDDBDCDCDCDBDCDBDBDBDBDBDBDBDB
310
DBDCDCDBDBDDDBDBDC0000000000000000000000000000000000000000000000
310
0000000000000000000000000000000000000000000000000000000000000000
310
0000000000000000000000000000000000000000000000000000000000000000
310
0000000000000000000000000000000000000000000000000000000000000000
310
0000000000000000000000000000000000000000000000000000000000000000
310
0000000000000000000000000000000000000000000000000000000000000000
310
0000000000000000000000000000000000000000000000000000DCDCDCDCDCDC
310
DBDBDBDBDBDBDBDBDBDBDCDBDBDCDCDDDBDCDCDCDB0000000000000000000000
310
0000000000000000000000000000000000000000000000000000000000000000
310
0000000000000000000000000000000000000000000000000000000000000000
310
0000000000000000000000000000000000000000000000000000000000000000
310
000000000000000000000000000000000000000000000000000000000000D8DE
310
D8D8D8DE00000000000000000000000000000000000000000000000000000000
310
0000000000000000000000000000000000000000000000000000000000000000
310
000000000000DBDCDBDBDBDBDBDBDBDBDBDCDDDCDCDBDBDBDBDBDBDBDCDBDBDC
310
DC00D8D8D8D8DEDEDED8D8D8DAD8D8DADAD8D8D8D8D8DAD8D8D8DAD8D9D80000
310
0000000000000000D8D8D8DAD8D8DAD8D80000DED9D8D8DED8D8D8DE00000000
310
000000000000DAD8DED8DED8D8D8D800000000000000000000D8DADAD8D8DED8
310
D8D80000D8D8DADEDEDED8D8D8D80000000000DAD8D8D8D8DAD8D8D800000000
310
0000000000D8D8D8D8DED8D8D8D8DED8D8D9DADED80000000000DAD8D8D8D8D8
310
DAD8DADED8D8D8D8DAD8D8D8D8D8D80000000000000000000000000000000000
310
00000000000000000000000000000000000000DBDBDBDCDCDBDCDBDBDBDCDBDC
310
DCDCDBDBDBDBDBDCDBDCDBDCDB00D8D9DADED8DEDAD8D8D8D8D8DAD8D8D8DEDE
310
DEDEDED8D8DAD8D8DADE000000000000000000D8D8DED8DED8D8D8D8DE0000D8
310
D8D8D8DED8D8D8D800000000000000000000DEDED8D8DADAD8DADA0000000000
310
00000000D8D8DEDADED8D8DEDADE0000D8DADAD9D8D9D8D8D8D800000000D8D8
310
D8DAD8D8D8D8D8D800000000000000DAD8DAD8D8D8DADAD8D8D8DED8D8DEDEDE
310
D8D800000000DED8DEDED8DAD8D8D8D8D8D8D8D8D8DED8D8D9DEDE0000000000
310
00000000000000000000000000000000000000000000000000000000000000DB
310
DBDBDBDBDCDBDCDBDBDCDCDCDBDCDDDDDCDBDCDBDCDCDCDDDB00D8D8DED8D8D8
310
DADEDED8D8DED8D8D8D8D8DAD800D8DED8D8DED8D8DED80000000000000000D8
310
D8D8DEDED8D8DED8000000D8D8D8D8D8DED8D8D80000000000000000000000D8
310
DEDADED8D8D8DED80000000000000000D8D8D8DAD8D8D8D8DA000000D8D8DEDA
310
DED8DED8DADE00000000DEDADED8D8DED8D8DE00000000000000D8DED8D8DEDE
310
D8D8D8D8D8D8DADAD8D8D8D8D8D800000000D8DED8D8D8D8D8DED8DAD9D8DEDA
310
D8D8D8DED8D8D800000000000000000000000000000000000000000000000000
310
000000000000000000000000DBDCDBDCDCDBDBDBDCDBDBDBDBDBDCDCDCDCDCDB
310
DCDCDCDBDB00D8D8DEDED8DAD8D8D8D9D8D8D8D8D8D8D8DED800D8D8DEDED8D8
310
D8D8D800000000000000DAD8D8D8DEDED8DEDED8000000DAD8DED8D8D8D8D8D8
310
0000000000000000000000D8D8DED8DED8D8D8D800000000000000D8D8D8D8D8
310
D9D8D9DAD8000000D8D8D8D8DAD8DED8D8D800000000D8D8DAD8DAD8D8DAD800
310
0000000000D8D8DED8D8DED8DAD8D8DEDED8DAD8D8D8D8D8DADE00000000D8D8
310
D8D8DEDEDED8D8D8D8D8D8DED8D8D8D8D8D8DA00000000000000000000000000
310
000000000000000000000000000000000000000000000000DBDCDCDBDBDBDCDC
310
DBDDDCDBDCDBDCDBDDDBDCDBDBDCDCDBDD00DAD8D8DED8D8D8D9D8D8D8D8D8DE
310
DAD8D8D8D80000D8D8D8D9D8D8D8D8D8DADAD8D8D8D8DED8D8D8D8D8D8DEDA00
310
000000D8DAD8D8D8D8D8D8DE000000000000000000000000D8D8DEDADADAD8D8
310
DADEDAD8D8D8DED8D8D8D8DAD8DED8D800000000D9D8D8D8D8D8D8D8D8D80000
310
0000D9D8D8D8DADED8D8DE0000000000DEDAD8D8D8D8D8D8D8D9DED8D8D8D8D9
310
DADAD8D8D9DE00000000DEDED8D8DED8D8D8D8D9D8D8D8D8DEDED8DEDED80000
310
0000000000000000000000000000000000000000000000000000000000000000
310
00000000DBDCDCDBDCDBDBDDDBDCDCDCDCDBDBDBDCDCDBDCDBDBDBDBDB00D8D8
310
D8DEDED8D8D8D8D8D8D8DED8D8D8DED8D80000D8D8D8D8D8D8DEDED8D8D8D8DA
310
D8D8DAD8D8D8DADAD8DAD800000000DADAD8D8DED8D8DADA0000000000000000
310
00000000D8D8D8D8D8D8D8DAD8DADEDADEDED8D8D8D8D8D8D8D8DED800000000
310
D8D8DADEDED8DED8D8D8000000DAD8D8D8DED8D8D8D8D800000000D8D8D8D8DE
310
DED8DAD8DA0000000000DADADEDEDAD8D8D800000000D8D8D8DED9DAD8D8D900
310
0000000000000000000000000000000000000000000000000000000000000000
310
0000000000000000000000000000000000DCDCDBDBDBDBDBDBDBDBDCDBDCDBDC
310
DBDBDCDCDBDBDCDCDC00DEDADAD9D8DADAD8D8DA000000000000000000000000
310
DED8DEDEDED8D8DADED8DED8D8DED8DAD8D8D8DED8DE0000000000D8DEDED8D9
310
D8D8DEDED8DAD8D8D8D8DEDED8D8000000DADEDED8D9DED8D8D8D8DAD8D8D8D8
310
D8DED8D8D8D8DA0000000000D8D8DAD8D8D8D8D9DADAD8D8D8D8D8D8DADED8D8
310
D8D80000000000DAD8DEDED8DED8D8D8000000000000DAD8DED8D8DED8DA0000
310
0000D9DED8DEDAD8D8D8D8000000000000000000000000000000000000000000
310
0000000000000000000000000000000000000000000000000000000000DDDBDB
310
DCDBDCDBDBDCDBDBDCDBDBDCDBDCDBDCDBDCDDDBDB00D8D8DED8D9DEDADED8D8
310
000000000000000000000000D8D8D8D8D8D8D8DEDAD8D8D8D8D8D8D8D8D8D8D8
310
DED80000000000D8D8D8DED8D8D9DED8D8D8D8DAD8DED8DEDADED80000D8D8D8
310
DEDED8DAD8DEDEDED8DAD8D8D8D8D8D8D8D8DA0000000000D8D8D8D8DED9D8D8
310
DED8D8D8DEDAD8D8D8D8D9DED8000000000000D8DAD8D8D8D8DEDED800000000
310
D8D8DED8D8D8D8D8D8D800000000DED8D9D8DAD8DADEDED8D9D8DADEDAD8D8D8
310
DEDA000000000000000000000000000000000000000000000000000000000000
310
00000000000000000000DBDBDBDBDBDBDCDCDBDBDBDBDCDCDDDBDCDCDBDDDBDC
310
DB00D9D8D8D8D8D8D8D8D8D8000000000000000000000000D8D8D8D8D8D8D8D8
310
DAD8D8DED8D8D8D8D8D8D8D8DED80000000000DED8D8D8D8D8D9DADEDEDED8DE
310
DED8D8D8D8DED80000D9D9D8DEDED8D8D8D8D8D8D8D8DED9DADED8D8D8D8D800
310
00000000D8D8DED8DADED8D9DADAD8D8DED8D8D8DAD8DED8000000000000D8DA
310
DED8D8D8D8D8D8D800000000D8D8D8D8D8DEDED8D9D800000000DEDED8DED8D8
310
D9D8D8DEDADED8D8D8D8D8D8D8D8000000000000000000000000000000000000
310
00000000000000000000000000000000000000000000DCDBDBDBDBDBDBDCDBDD
310
DCDCDBDCDBDDDBDCDCDCDCDCDB00D8D8D8D8D8D8D8D8D8DA0000000000000000
310
0000000000DED8DAD8D8D8D8D800000000D8D8DED8D8D8D8D9000000000000D8
310
D8DED8DEDED8D8D8DED8D8DED8D8D8DED8DED8000000DED8D9D8D8DED8D90000
310
0000D8D8D8D8D8DEDED8000000000000DEDADED8D8D8DED8D8DEDED8DED8D8DE
310
D8D8D8D8D80000000000D8D8DEDAD8DAD8D8DED800000000DEDAD8D8DAD8DED8
310
DED800000000D8D8D8D8DAD8DED8D8D8D8D8DED8D8D8D8DEDADA000000000000
310
0000000000000000000000000000000000000000000000000000000000000000
310
000000DBDBDBDBDCDBDBDCDBDBDBDCDBDBDCDDDBDCDBDBDBDB00D8D8D8D8DADE
310
D8DEDAD800000000000000000000000000D8D8D8DED8D8D9DE000000DAD8D8D8
310
D8DED8D9D8000000000000D8DAD8D8D8D8DEDED8D8D8DED9D8D8D8D9D8DED800
310
0000D9D8D8DAD8DAD8DE000000D8D8D8D8D8D8D8D8DA000000000000DED8DAD8
310
D8D8D8D8D8D8DED8D8D8D8D8D8D8D8DAD8D800000000D8D8D8D8D8DEDAD8DED8
310
00000000D8D8D8D8D8DAD8D8D80000000000D8DED8DAD8D8DAD8D8D8DADAD8D8
310
D8D8D8D8D8D80000000000000000000000000000000000000000000000000000
310
000000000000000000000000000000DCDCDBDCDBDBDBDBDCDCDBDBDBDBDCDBDC
310
DDDCDBDBDB00D8D8DED8D8D8D8D8D8D80000000000000000000000000000D8D8
310
DED8DEDEDED80000DED8DED8D8D8DEDE00000000000000D8DED8D8DADADEDEDA
310
000000000000000000000000000000D8D9D8D8D8DADAD80000D9D9D8D8D8DED8
310
D800000000000000D8D8DED8D8D8D8D8DE0000000000DAD8D8DAD8DED8D8D800
310
0000D8D8D8DADAD8D8DAD8D8000000000000000000000000000000000000D8D8
310
D8D8D8D8D8D8D8D9DAD8D8D8DEDED8D8D8D80000000000000000000000000000
310
00000000000000000000000000000000000000000000000000000000DDDCDCDB
310
DBDBDDDCDCDCDBDCDBDBDCDBDCDDDBDBDB00D8D8D8DED8DEDEDAD8DA00000000
310
00000000000000000000D8DED9D8D8D8D8D90000DAD9DEDEDAD8D8D800000000
310
000000D8DED9D8DAD8DADADA000000000000000000000000000000D8D8D8D8D8
310
D8D8DE0000D8DED8D8D8D8D8D800000000000000D8D8D8D8D8D8DAD9D8000000
310
0000D9DADED8D8DED8DEDE00000000DAD8DAD8D8D8D9DAD9D800000000000000
310
00000000000000000000D8DEDAD8DED8D8DED800000000000000000000000000
310
0000000000000000000000000000000000000000000000000000000000000000
310
0000000000000000DCDCDCDDDBDBDBDCDCDBDBDBDDDBDCDCDBDDDBDDDD00D8D8
310
DEDAD9D8DEDEDEDA0000000000000000000000000000D8D8D8DEDADED8D800DA
310
D8D8D8D8D8D8D80000000000000000D8D8DAD8D8D8D8DAD80000000000000000
310
00000000000000D9D8D8DEDAD9DED8DAD8D8D8D8DADED9D80000000000000000
310
D8D8D8D8D8DED8D8D80000000000D8D9D8D8D8D8DED8DED8000000DED8DED8D8
310
D8D8D8D8D8D800000000000000000000D80000000000D8DAD8D8D8D9DAD8D800
310
0000000000000000000000000000000000000000000000000000000000000000
310
0000000000000000000000000000000000000000DBDCDCDBDBDCDBDCDBDCDDDC
310
DBDCDCDBDDDBDBDBDB00DEDAD8DED8D8DED8D8D8000000000000000000000000
310
000000DAD8DED8D8D8DEDEDAD8DAD8D8D8D9DE0000000000000000D8DADADEDA
310
DED8D8D9D8D8D8DAD8DADAD8D8DED80000000000D8DED8D8DAD8DADAD8D8DAD8
310
D8D8D8DE0000000000000000D8DADEDED8D8D8D8DED8DED8D8D8D8D8D8D8D9DA
310
DAD8D8DE00000000D8D8D8D8D8D8DED8D8DAD8D8DED8D8D8D8DED8D8D8000000
310
0000D8D8D8D8D9DADAD8DAD8D8D8D8DEDAD8D9D8D8D800000000000000000000
310
0000000000000000000000000000000000000000000000000000000000000000
310
00DBDBDDDBDCDBDBDCDBDDDBDBDBDBDBDDDBDCDCDB00D8D8DAD8DED8DED8D9DE
310
000000000000000000000000000000D8D8D8D8D8DAD8D8D8D8D8D8D8D8D8DE00
310
00000000000000D8DED8DEDAD8D9D8D8D8DEDED8D8D8D8DADED8D80000000000
310
D8D8D8D8D8D8D8D8DAD8D8DADED8D8DE0000000000000000D8D8D8DED8D8D8DE
310
D8D8D8D8D8D8D8D8DAD8D8D8DED8D8000000000000D8D8D8D8D8DED8D8D8D9D8
310
D8D8D8DAD8D8D9D8DE0000000000DED8DED8D8D8D8D8D8D8D8D8D8D8DED8D8D8
310
D8D8000000000000000000000000000000000000000000000000000000000000
310
00000000000000000000000000DBDBDBDBDCDBDBDBDBDBDBDBDCDBDDDBDCDBDB
310
DC00D8D8D8D8D8D8DED8D8D800000000000000000000000000000000D8DAD8DA
310
DAD8D8D8D8D8D8D8D8D8000000000000000000DED8D8D8D8DAD8D8D8DED8D8D8
310
DED8D8D8D8D8D8000000000000DEDED8D8D8DADAD9DEDEDED8D8DE0000000000
310
00000000D8D8D8D8D8DAD9D8DED8DAD9D8D8D8D8D8D8D8DED8D8D80000000000
310
0000D8D8D8DEDED8D8DED8D8D8D8D8D8DAD8D8D8D80000000000D8D9DADED8D8
310
D8D8DAD8D8D8D8D8DEDAD8D8D8D8000000000000000000000000000000000000
310
0000000000000000000000000000000000000000000000000000DCDCDCDBDBDC
310
DBDBDBDBDCDBDBDCDBDCDBDBDB00DED8D8D8D8D8D8D8D8D80000000000000000
310
0000000000000000D8D8D8D9D8D9DADEDAD8D8D8D8D8000000000000000000D8
310
DEDADAD8D8D9D8D8D9D8D8D8D8D8D8DEDAD8DA000000000000DAD9D8D8D8D8D8
310
D8DAD8DAD8DED8000000000000000000D8D8DED8D8D8DED8DED8D8DADADEDAD8
310
DAD8D8D8D8D8000000000000000000DAD8D8D8D8D8DED8D8D8D8D8DADEDADAD8
310
DA0000000000D8D8D8D8D9D9D8D8D8DED8D8DEDED8D8D8DED8D8000000000000
310
0000000000000000000000000000000000000000000000000000000000000000
310
000000000000DCDCDBDBDCDDDBDBDBDCDBDBDCDBDBDBDCDDDB00D8DED8D8D8D8
310
D8D8D8D80000000000000000000000000000000000D8D8D8D9DED8D8D8DAD8D8
310
DA00000000000000000000D8D8D8D8D8DED8DEDADADAD8DED8D8DED8DED8D800
310
000000000000D8D8D8DED8D8D8D8D8D8D8D800000000000000000000DED8D8DA
310
D9D8DED8D8D8D8D8D8DED8D8D8D8D8000000000000000000000000000000D8D8
310
D8DAD8D8D8D8DEDAD8D8D8DED80000000000D8D8D8D8DEDED8D8D8DEDAD8D8D8
310
DED8DED8D8D80000000000000000000000000000000000000000000000000000
310
00000000000000000000000000000000000000DDDBDBDCDBDBDCDBDBDBDDDCDB
310
DBDBDDDCDB000000000000000000000000000000000000000000000000000000
310
0000000000000000000000000000000000000000000000000000000000000000
310
0000000000000000000000000000000000000000000000000000000000000000
310
0000000000000000000000000000000000000000000000000000000000000000
310
0000000000000000000000000000000000000000000000000000000000000000
310
0000000000000000000000000000000000000000000000000000000000000000
310
00000000000000000000000000000000000000000000000000000000000000DC
310
DCDBDBDBDDDCDCDCDBDCDBDCDBDCDCDCDBDCDBDBDBDBDBDBDBDBDD0000000000
310
0000000000000000000000000000000000000000000000000000000000000000
310
0000000000000000000000000000000000000000000000000000000000000000
310
0000000000000000000000000000000000000000000000000000000000000000
310
0000000000000000000000000000000000000000000000000000000000000000
310
0000000000000000000000000000000000000000000000000000000000000000
310
0000000000000000000000000000000000000000000000000000000000000000
310
0000000000000000000000DBDBDBDBDBDBDBDDDBDCDBDCDCDCDCDBDCDCDBDBDB
310
DBDCDCDBDBDBDCDB000000000000000000000000000000000000000000000000
310
0000000000000000000000000000000000000000000000000000000000000000
310
0000000000000000000000000000000000000000000000000000000000000000
310
0000000000000000000000000000000000000000000000000000000000000000
310
0000000000000000000000000000000000000000000000000000000000000000
310
0000000000000000000000000000000000000000000000000000000000000000
310
000000000000000000000000000000000000000000000000DCDCDDDCDBDCDBDB
310
DCDBDBDBDBDCDBDBDBDCDCDCDBDCDBDCDBDDDBDC000000000000000000000000
310
0000000000000000000000000000000000000000000000000000000000000000
310
0000000000000000000000000000000000000000000000000000000000000000
310
0000000000000000000000000000000000000000000000000000000000000000
310
0000000000000000000000000000000000000000000000000000000000000000
310
0000000000000000000000000000000000000000000000000000000000000000
310
0000000000000000000000000000000000000000000000000000000000000000
310
00000000DCDBDDDBDCDCDCDDDBDCDBDCDBDBDBDBDBDCDCDBDCDBDCDBDBDBDCDC
310
DB00000000000000000000000000000000000000000000000000000000000000
310
0000000000000000000000000000000000000000000000000000000000000000
310
0000000000000000000000000000000000000000000000000000000000000000
310
0000000000000000000000000000000000000000000000000000000000000000
310
0000000000000000000000000000000000000000000000000000000000000000
310
0000000000000000000000000000000000000000000000000000000000000000
310
0000000000000000000000000000000000DCDBDBDCDBDCDBDBDCDBDBDDDCDCDB
310
DBDCDBDBDBDCDCDBDCDBDCDCDB00000000000000000000000000000000000000
310
0000000000000000000000000000000000000000000000000000000000000000
310
0000000000000000000000000000000000000000000000000000000000000000
310
0000000000000000000000000000000000000000000000000000000000000000
310
0000000000000000000000000000000000000000000000000000000000000000
310
0000000000000000000000000000000000000000000000000000000000000000
310
0000000000000000000000000000000000000000000000000000000000DCDDDB
310
DCDCDBDBDBDCDBDCDCDBDDDCDCDBDBDBDBDBDCDCDCDBDBDBDB00000000000000
310
0000000000000000000000000000000000000000000000000000000000000000
310
0000000000000000000000000000000000000000000000000000000000000000
310
0000000000000000000000000000000000000000000000000000000000000000
310
0000000000000000000000000000000000000000000000000000000000000000
310
0000000000000000000000000000000000000000000000000000000000000000
310
0000000000000000000000000000000000000000000000000000000000000000
310
00000000000000000000DBDBDCDBDBDBDCDBDBDBDCDBDCDDDCDCDBDCDDDDDBDC
310
DBDBDCDCDBDC0000000000000000000000000000000000000000000000000000
310
0000000000000000000000000000000000000000000000000000000000000000
310
0000000000000000000000000000000000000000000000000000000000000000
310
0000000000000000000000000000000000000000000000000000000000000000
310
0000000000000000000000000000000000000000000000000000000000000000
310
0000000000000000000000000000000000000000000000000000000000000000
310
00000000000000000000000000000000000000000000DBDBDBDCDBDDDCDBDCDB
310
DBDCDBDCDBDCDBDCDBDCDBDBDBDBDCDBDBDB0000000000000000000000000000
310
0000000000000000000000000000000000000000000000000000000000000000
310
0000000000000000000000000000000000000000000000000000000000000000
310
0000000000000000000000000000000000000000000000000000000000000000
310
0000000000000000000000000000000000000000000000000000000000000000
310
0000000000000000000000000000000000000000000000000000000000000000
310
0000000000000000000000000000000000000000000000000000000000000000
310
000000DCDCDBDBDCDBDCDDDCDCDBDCDBDCDBDBDBDCDCDCDCDBDDDBDDDCDCDC00
310
0000000000000000000000000000000000000000000000000000000000000000
310
0000000000000000000000000000000000000000000000000000000000000000
310
0000000000000000000000000000000000000000000000000000000000000000
310
0000000000000000000000000000000000000000000000000000000000000000
310
0000000000000000000000000000000000000000000000000000000000000000
310
0000000000000000000000000000000000000000000000000000000000000000
310
000000000000000000000000000000DCDCDBDDDCDBDCDBDCDDDBDBDCDCDBDBDB
310
DBDCDBDBDBDCDCDBDCDCDB000000000000000000000000000000000000000000
310
0000000000000000000000000000000000000000000000000000000000000000
310
0000000000000000000000000000000000000000000000000000000000000000
310
0000000000000000000000000000000000000000000000000000000000000000
310
0000000000000000000000000000000000000000000000000000000000000000
310
0000000000000000000000000000000000000000000000000000000000000000
310
000000000000000000000000000000000000000000000000000000DCDBDBDCDB
310
DCDDDBDCDDDDDCDBDBDBDBDBDCDBDCDCDBDCDCDBDCDCDBDC0000000000000000
310
0000000000000000000000000000000000000000000000000000000000000000
310
0000000000000000000000000000000000000000000000000000000000000000
310
0000000000000000000000000000000000000000000000000000000000000000
310
0000000000000000000000000000000000000000000000000000000000000000
310
0000000000000000000000000000000000000000000000000000000000000000
310
0000000000000000000000000000000000000000000000000000000000000000
310
0000000000000000DCDBDBDCDCDBDBDCDBDBDBDCDCDDDDDBDDDCDDDCDBDBDCDB
310
DBDBDDDB00000000000000000000000000000000000000000000000000000000
310
0000000000000000000000000000000000000000000000000000000000000000
310
0000000000000000000000000000000000000000000000000000000000000000
310
0000000000000000000000000000000000000000000000000000000000000000
310
0000000000000000000000000000000000000000000000000000000000000000
310
0000000000000000000000000000000000000000000000000000000000000000
310
0000000000000000000000000000000000000000DBDBDCDBDBDDDCDBDCDCDBDC
310
DCDCDCDBDBDDDCDCDCDCDBDCDBDBDBDB00000000000000000000000000000000
310
0000000000000000000000000000000000000000000000000000000000000000
310
0000000000000000000000000000000000000000000000000000000000000000
310
0000000000000000000000000000000000000000000000000000000000000000
310
0000000000000000000000000000000000000000000000000000000000000000
310
0000000000000000000000000000000000000000000000000000000000000000
310
0000000000000000000000000000000000000000000000000000000000000000
310
00DCDCDBDDDCDBDCDBDCDCDCDBDBDCDBDDDCDCDCDCDCDDDCDCDCDBDCDC000000
310
0000000000000000000000000000000000000000000000000000000000000000
310
0000000000000000000000000000000000000000000000000000000000000000
310
0000000000000000000000000000000000000000000000000000000000000000
310
0000000000000000000000000000000000000000000000000000000000000000
310
0000000000000000000000000000000000000000000000000000000000000000
310
0000000000000000000000000000000000000000000000000000000000000000
310
00000000000000000000000000DBDCDBDBDBDBDCDCDCDCDCDDDCDBDBDBDBDCDC
310
DCDCDBDBDBDBDCDCDC0000000000000000000000000000000000000000000000
310
0000000000000000000000000000000000000000000000000000000000000000
310
0000000000000000000000000000000000000000000000000000000000000000
310
0000000000000000000000000000000000000000000000000000000000000000
310
0000000000000000000000000000000000000000000000000000000000000000
310
0000000000000000000000000000000000000000000000000000000000000000
310
0000000000000000000000000000000000000000000000000000DCDCDCDDDBDD
310
DCDBDBDBDCDCDCDBDCDBDBDBDBDDDBDCDCDCDBDCDBDB00000000000000000000
310
0000000000000000000000000000000000000000000000000000000000000000
310
0000000000000000000000000000000000000000000000000000000000000000
310
0000000000000000000000000000000000000000000000000000000000000000
310
0000000000000000000000000000000000000000000000000000000000000000
310
0000000000000000000000000000000000000000000000000000000000000000
310
0000000000000000000000000000000000000000000000000000000000000000
310
000000000000DBDCDCDCDCDCDCDBDBDCDDDBDCDDDCDBDCDBDCDBDBDBDCDBDBDB
310
DDDB000000000000000000000000000000000000000000000000000000000000
310
0000000000000000000000000000000000000000000000000000000000000000
310
0000000000000000000000000000000000000000000000000000000000000000
310
0000000000000000000000000000000000000000000000000000000000000000
310
0000000000000000000000000000000000000000000000000000000000000000
310
0000000000000000000000000000000000000000000000000000000000000000
310
00000000000000000000000000000000000000DCDBDBDCDBDDDCDBDCDCDBDBDB
310
DBDCDBDBDCDCDBDBDCDBDBDCDCDCDC0000000000000000000000000000000000
310
0000000000000000000000000000000000000000000000000000000000000000
310
0000000000000000000000000000000000000000000000000000000000000000
310
0000000000000000000000000000000000000000000000000000000000000000
310
0000000000000000000000000000000000000000000000000000000000000000
310
0000000000000000000000000000000000000000000000000000000000000000
310
00000000000000000000000000000000000000000000000000000000000000DC
310
DBDBDBDBDBDBDCDBDCDDDBDBDBDCDCDBDCDBDBDCDBDBDBDCDBDDDC0000000000
310
0000000000000000000000000000000000000000000000000000000000000000
310
0000000000000000000000000000000000000000000000000000000000000000
310
0000000000000000000000000000000000000000000000000000000000000000
310
0000000000000000000000000000000000000000000000000000000000000000
310
0000000000000000000000000000000000000000000000000000000000000000
310
0000000000000000000000000000000000000000000000000000000000000000
310
0000000000000000000000DBDBDCDCDCDBDBDCDBDCDCDBDCDCDBDBDBDCDBDCDB
310
DBDBDBDCDBDBDCDB000000000000000000000000000000000000000000000000
310
0000000000000000000000000000000000000000000000000000000000000000
310
0000000000000000000000000000000000000000000000000000000000000000
310
0000000000000000000000000000000000000000000000000000000000000000
310
0000000000000000000000000000000000000000000000000000000000000000
310
0000000000000000000000000000000000000000000000000000000000000000
310
000000000000000000000000000000000000000000000000DBDCDCDBDBDBDCDB
310
DCDBDBDCDDDBDBDCDBDBDBDCDCDBDCDBDBDBDBDC000000000000000000000000
310
0000000000000000000000000000000000000000000000000000000000000000
310
0000000000000000000000000000000000000000000000000000000000000000
310
0000000000000000000000000000000000000000000000000000000000000000
310
0000000000000000000000000000000000000000000000000000000000000000
310
0000000000000000000000000000000000000000000000000000000000000000
310
0000000000000000000000000000000000000000000000000000000000000000
310
00000000DBDCDBDCDCDBDCDBDBDBDCDCDBDCDBDCDBDBDBDCDCDBDCDBDBDCDBDB
310
0000000000000000000000000000000000000000000000000000000000000000
310
0000000000000000000000000000000000000000000000000000000000000000
310
0000000000000000000000000000000000000000000000000000000000000000
310
0000000000000000000000000000000000000000000000000000000000000000
310
0000000000000000000000000000000000000000000000000000000000000000
310
0000000000000000000000000000000000000000000000000000000000000000
310
0000000000000000000000000000000000DDDBDCDBDBDCDCDDDCDBDBDBDBDCDD
310
DDDBDBDDDCDCDCDCDBDBDDDBDD00000000000000000000000000000000000000
310
0000000000000000000000000000000000000000000000000000000000000000
310
0000000000000000000000000000000000000000000000000000000000000000
310
0000000000000000000000000000000000000000000000000000000000000000
310
0000000000000000000000000000000000000000000000000000000000000000
310
0000000000000000000000000000000000000000000000000000000000000000
310
0000000000000000000000000000000000000000000000000000000000DCDBDB
310
DCDDDDDCDDDBDCDBDCDBDBDBDCDBDBDBDBDCDCDCDBDCDCDCDB00000000000000
310
0000000000000000000000000000000000000000000000000000000000000000
310
0000000000000000000000000000000000000000000000000000000000000000
310
0000000000000000000000000000000000000000000000000000000000000000
310
0000000000000000000000000000000000000000000000000000000000000000
310
0000000000000000000000000000000000000000000000000000000000000000
310
0000000000000000000000000000000000000000000000000000000000000000
310
00000000000000000000DCDBDBDDDBDBDBDBDCDDDBDCDCDCDCDDDBDCDBDBDBDC
310
DBDCDBDBDCDB0000000000000000000000000000000000000000000000000000
310
0000000000000000000000000000000000000000000000000000000000000000
310
0000000000000000000000000000000000000000000000000000000000000000
310
0000000000000000000000000000000000000000000000000000000000000000
310
0000000000000000000000000000000000000000000000000000000000000000
310
0000000000000000000000000000000000000000000000000000000000000000
310
0000000000000000000000000000000000000000000000000000000000000000
310
0000000000000000000000000000000000000000000000000000000000000000
310
0000000000000000000000000000000000000000000000000000000000000000
310
0000000000000000000000000000000000000000000000000000000000000000
310
0000000000000000000000000000000000000000000000000000000000000000
310
0000000000000000000000000000000000000000000000000000000000000000
310
0000000000000000000000000000000000000000000000000000000000000000
310
0000000000000000000000000000000000000000000000000000000000000000
310
0000000000000000000000000000000000000000000000000000000000000000
310
0000000000000000000000000000000000000000000000000000000000000000
310
0000000000000000000000000000000000000000000000000000000000000000
310
0000000000000000000000000000000000000000000000000000000000000000
310
0000000000000000000000000000000000000000000000000000000000000000
310
0000000000000000000000000000000000000000000000000000000000000000
310
0000000000000000000000000000000000000000000000000000000000000000
310
0000000000000000000000000000000000000000000000000000000000000000
310
0000000000000000000000000000000000000000000000000000000000000000
310
0000000000000000000000000000000000000000000000000000000000000000
310
0000000000000000000000000000000000000000000000000000000000000000
310
0000000000000000000000000000000000000000000000000000000000000000
310
0000000000000000000000000000000000000000000000000000000000000000
310
0000000000000000000000000000000000000000000000000000000000000000
310
0000000000000000000000000000000000000000000000000000000000000000
310
0000000000000000000000000000000000000000000000000000000000000000
310
0000000000000000000000000000000000000000000000000000000000000000
310
0000000000000000000000000000000000000000000000000000000000000000
310
0000000000000000000000000000000000000000000000000000000000000000
310
0000000000000000000000000000000000000000000000000000000000000000
310
0000000000000000000000000000000000000000000000000000000000000000
310
0000000000000000000000000000000000000000000000000000000000000000
310
0000000000000000000000000000000000000000000000000000000000000000
310
0000000000000000000000000000000000000000000000000000000000000000
310
0000000000000000000000000000000000000000000000000000000000000000
310
0000000000000000000000000000000000000000000000000000000000000000
310
0000000000000000000000000000000000000000000000000000000000000000
310
0000000000000000000000000000000000000000000000000000000000000000
310
0000000000000000000000000000000000000000000000000000000000000000
310
0000000000000000000000000000000000000000000000000000000000000000
310
0000000000000000000000000000000000000000000000000000000000000000
310
01004F006C006500310030004900740065006D004E0061006D00650000000000
310
0000000000000000000000000000000000000000000000000000000000000000
310
1E000200FFFFFFFFFFFFFFFFFFFFFFFF00000000000000000000000000000000
310
0000000000000000000000000000000000000000030000000500000000000000
310
0000000000000000000000000000000000000000000000000000000000000000
310
0000000000000000000000000000000000000000000000000000000000000000
310
00000000FFFFFFFFFFFFFFFFFFFFFFFF00000000000000000000000000000000
310
0000000000000000000000000000000000000000000000000000000000000000
310
0000000000000000000000000000000000000000000000000000000000000000
310
0000000000000000000000000000000000000000000000000000000000000000
310
00000000FFFFFFFFFFFFFFFFFFFFFFFF00000000000000000000000000000000
310
0000000000000000000000000000000000000000000000000000000000000000
310
0000000000000000000000000000000000000000000000000000000000000000
310
0000000000000000000000000000000000000000000000000000000000000000
310
00000000FFFFFFFFFFFFFFFFFFFFFFFF00000000000000000000000000000000
310
0000000000000000000000000000000000000000000000000000000000000000
  1
OLE
  0
MTEXT
  5
8AA
330
1B
100
AcDbEntity
 67
     1
  8
kiri
100
AcDbMText
 10
257.7801492075595
 20
16.85511578334637
 30
0.0
 40
2.0
 41
29.0
 71
     1
 72
     5
  1
{\fArial|b0|i0|c186|p34;A4 paber}
 73
     1
 44
1.0
  0
ENDSEC
  0
SECTION
  2
OBJECTS
  0
DICTIONARY
  5
C
330
0
100
AcDbDictionary
281
     1
  3
ACAD_GROUP
350
D
  3
ACAD_IMAGE_DICT
350
7FC
  3
ACAD_IMAGE_VARS
350
7FE
  3
ACAD_LAYOUT
350
1A
  3
ACAD_MLINESTYLE
350
17
  3
ACAD_PLOTSETTINGS
350
19
  3
ACAD_PLOTSTYLENAME
350
E
  3
AcDbVariableDictionary
350
43D
  0
DICTIONARY
  5
2B
330
2
100
AcDbDictionary
280
     1
281
     1
  3
ACAD_LAYERFILTERS
360
2C
  3
ACAD_LAYERSTATES
360
291
  0
IMAGEDEF_REACTOR
  5
808
330
809
100
AcDbRasterImageDefReactor
 90
        2
330
809
  0
DICTIONARY
  5
D
102
{ACAD_REACTORS
330
C
102
}
330
C
100
AcDbDictionary
281
     1
  0
DICTIONARY
  5
7FC
102
{ACAD_REACTORS
330
C
102
}
330
C
100
AcDbDictionary
281
     1
  3
5
350
7FD
  3
6
350
807
  0
RASTERVARIABLES
  5
7FE
102
{ACAD_REACTORS
330
C
102
}
330
C
100
AcDbRasterVariables
 90
        0
 70
     1
 71
     1
 72
     1
  0
DICTIONARY
  5
1A
102
{ACAD_REACTORS
330
C
102
}
330
C
100
AcDbDictionary
281
     1
  3
A4
350
1E
  3
Layout2
350
26
  3
Model
350
22
  0
DICTIONARY
  5
17
102
{ACAD_REACTORS
330
C
102
}
330
C
100
AcDbDictionary
281
     1
  3
Standard
350
18
  0
DICTIONARY
  5
19
102
{ACAD_REACTORS
330
C
102
}
330
C
100
AcDbDictionary
281
     1
  0
ACDBDICTIONARYWDFLT
  5
E
102
{ACAD_REACTORS
330
C
102
}
330
C
100
AcDbDictionary
281
     1
  3
Normal
350
F
100
AcDbDictionaryWithDefault
340
F
  0
DICTIONARY
  5
43D
102
{ACAD_REACTORS
330
C
102
}
330
C
100
AcDbDictionary
281
     1
  3
DIMASSOC
350
43F
  3
HIDETEXT
350
43E
  0
DICTIONARY
  5
2C
102
{ACAD_REACTORS
330
2B
102
}
330
2B
100
AcDbDictionary
280
     1
281
     1
  3
# Arhitektuur
360
2D
  3
# Asend
360
2E
  3
# Asendiplaan
360
2F
  3
# Elekter
360
30
  3
# Kõik kihid
360
31
  3
# Küte-vent
360
32
  3
# Planeering
360
33
  3
# Sisekujundus
360
34
  3
# Soojus
360
35
  3
# Tehnoloogia
360
36
  3
# Topo
360
37
  3
# Topo-geodeesia
360
38
  3
# Tugiplaan
360
39
  3
# Vertikaal-teed
360
3A
  3
# Vesi-kanal
360
3B
  3
$$$
360
3C
  3
$F-
360
3D
  3
-
360
3E
  3
-------
360
3F
  3
-50
360
40
  3
-_
360
41
  3
-p
360
42
  3
0
360
43
  3
000
360
44
  3
009
360
45
  3
00_
360
46
  3
01
360
47
  3
013
360
48
  3
018
360
49
  3
02
360
4A
  3
025
360
4B
  3
030
360
4C
  3
032
360
4D
  3
032G
360
4E
  3
035
360
4F
  3
050
360
50
  3
070
360
51
  3
0_
360
52
  3
0aikstas
360
53
  3
0k
360
54
  3
0korrus
360
55
  3
1
360
56
  3
1 GA
360
57
  3
1 korrus
360
58
  3
1-
360
59
  3
100
360
5A
  3
120
360
5B
  3
121
360
5C
  3
1343
360
5D
  3
1784
360
5E
  3
1784frst
360
5F
  3
1784frst$0$
360
60
  3
1784sec5
360
61
  3
1947
360
62
  3
1aukstas
360
63
  3
1GRID
360
64
  3
1k
360
65
  3
1korrus
360
66
  3
1puse
360
67
  3
1V
360
68
  3
2
360
69
  3
2 KORRUS
360
6A
  3
2 SPACE PLAN
360
6B
  3
200
360
6C
  3
218
360
6D
  3
220g
360
6E
  3
250
360
6F
  3
2AUKSTAS
360
70
  3
2d
360
71
  3
2DPLAN
360
72
  3
2k
360
73
  3
2puse
360
74
  3
3 CEILING
360
75
  3
300
360
76
  3
300-1
360
77
  3
3845-000
360
78
  3
4
360
79
  3
4 ELECTRIC
360
7A
  3
4021
360
7B
  3
5 DEMO
360
7C
  3
6 LAYER 1
360
7D
  3
7 LAYER 2
360
7E
  3
720
360
7F
  3
720g
360
80
  3
8
360
81
  3
9
360
82
  3
96
360
83
  3
_4021
360
84
  3
__E1
360
85
  3
__E2
360
86
  3
__E3
360
87
  3
__E6
360
88
  3
_all
360
89
  3
_arch
360
8A
  3
_AXIS
360
8B
  3
_BORT
360
8C
  3
_BR
360
8D
  3
_Building 3
360
8E
  3
_color6
360
8F
  3
_DIM
360
90
  3
_External Works
360
91
  3
_first
360
92
  3
_First Floor
360
93
  3
_ground
360
94
  3
_Ground Floor
360
95
  3
_h
360
96
  3
_Hatching
360
97
  3
_KOORD
360
98
  3
_New
360
99
  3
_OP
360
9A
  3
_OP14
360
9B
  3
_OP15
360
9C
  3
_OP6
360
9D
  3
_PARK
360
9E
  3
_PARK4
360
9F
  3
_PIKET
360
A0
  3
_PS
360
A1
  3
_Removed
360
A2
  3
_roof
360
A3
  3
_SECTION
360
A4
  3
_SOL
360
A5
  3
_SUP
360
A6
  3
_Text
360
A7
  3
_WIN
360
A8
  3
_Without text
360
A9
  3
A
360
AA
  3
A layers
360
AB
  3
a-
360
AC
  3
A-12101
360
AD
  3
A0-FRAME
360
AE
  3
A000D
360
AF
  3
A032G
360
B0
  3
a2
360
B1
  3
a210h
360
B2
  3
a210h-50
360
B3
  3
a3
360
B4
  3
a9
360
B5
  3
AA
360
B6
  3
aadressid
360
B7
  3
adler
360
B8
  3
AJUTINE
360
B9
  3
ALEV07
360
BA
  3
ALL
360
BB
  3
all on
360
BC
  3
alles met_
360
BD
  3
ALLTEXT
360
BE
  3
ANGARS
360
BF
  3
Antras
360
C0
  3
AR
360
C1
  3
ar_bwl
360
C2
  3
ar_grd
360
C3
  3
AR_GRID
360
C4
  3
arch
360
C5
  3
Architecture
360
C6
  3
AREA
360
C7
  3
Arhitecture
360
C8
  3
ARM
360
C9
  3
as
360
CA
  3
Asend
360
CB
  3
asendiplaan
360
CC
  3
AUDITORIA
360
CD
  3
ax
360
CE
  3
B
360
CF
  3
BACK BAR
360
D0
  3
BACKBAR
360
D1
  3
BANQ'S
360
D2
  3
BAR
360
D3
  3
bar-top
360
D4
  3
bb
360
D5
  3
BDPF5R
360
D6
  3
BENCH
360
D7
  3
BHWB
360
D8
  3
blue
360
D9
  3
BOUNARY
360
DA
  3
BOUNDARY
360
DB
  3
boundry-of
360
DC
  3
BUILDERS WORK
360
DD
  3
BUILDERS-WORK
360
DE
  3
BULKHEAD
360
DF
  3
BV-LEASE
360
E0
  3
bw
360
E1
  3
bzik
360
E2
  3
c
360
E3
  3
C-
360
E4
  3
C1
360
E5
  3
CANOPY
360
E6
  3
CART
360
E7
  3
CC
360
E8
  3
Ceiling
360
E9
  3
CEILING LAYOUT
360
EA
  3
CEILING PLAN
360
EB
  3
cfp layers
360
EC
  3
CLAD
360
ED
  3
coloour
360
EE
  3
colour
360
EF
  3
COLOURS
360
F0
  3
CONC
360
F1
  3
CONCR
360
F2
  3
CONSERVITORY
360
F3
  3
CORIAN
360
F4
  3
cu dem
360
F5
  3
cu s2
360
F6
  3
cub
360
F7
  3
CURRENT
360
F8
  3
CURVED GLASS
360
F9
  3
curved walkway
360
FA
  3
CYAN
360
FB
  3
D
360
FC
  3
D1
360
FD
  3
D_
360
FE
  3
dalaje
360
FF
  3
das
360
100
  3
DAVE
360
101
  3
demolition
360
102
  3
demolition work
360
103
  3
dfd
360
104
  3
dim
360
105
  3
dim11
360
106
  3
dim12
360
107
  3
Dimensions
360
108
  3
dims
360
109
  3
DN
360
10A
  3
DOM
360
10B
  3
Don't plot
360
10C
  3
DOOR
360
10D
  3
Drain
360
10E
  3
drains
360
10F
  3
DSD
360
110
  3
Ductwork
360
111
  3
E - LAYERS
360
112
  3
E1
360
113
  3
E2
360
114
  3
E3
360
115
  3
E4
360
116
  3
EDDIE
360
117
  3
EI PLOTI
360
118
  3
eiplo
360
119
  3
EIplot
360
11A
  3
EKSEN
360
11B
  3
ELEC
360
11C
  3
ELEVATION
360
11D
  3
elevations
360
11E
  3
endview
360
11F
  3
entrance
360
120
  3
esam
360
121
  3
et trykkida välja
360
122
  3
exg imported
360
123
  3
EXISTING
360
124
  3
F
360
125
  3
FEATURE
360
126
  3
FENCE
360
127
  3
FINISH
360
128
  3
finishes
360
129
  3
FINISHES PLAN
360
12A
  3
FINISHES PLANS
360
12B
  3
FIRE
360
12C
  3
FIRE PLAN
360
12D
  3
Fire strategy
360
12E
  3
FIRST FLOOR
360
12F
  3
First to Roof
360
130
  3
FLAT GLASS
360
131
  3
FLOOR
360
132
  3
FLOOR PLAN
360
133
  3
FR
360
134
  3
Fragment 2
360
135
  3
freeze
360
136
  3
FROS CUR VPORT
360
137
  3
FROZ
360
138
  3
FROZ CUR VPORT
360
139
  3
FROZ IN CURENT
360
13A
  3
frozen
360
13B
  3
frozen Layers
360
13C
  3
FRZ
360
13D
  3
Furniture
360
13E
  3
furntext
360
13F
  3
furntext1
360
140
  3
furntext2
360
141
  3
furntext3
360
142
  3
FY
360
143
  3
g
360
144
  3
GA
360
145
  3
ga plan
360
146
  3
GAMCO
360
147
  3
General
360
148
  3
geo
360
149
  3
geodeesia
360
14A
  3
git
360
14B
  3
GLASS
360
14C
  3
GLASS RACK
360
14D
  3
gondola
360
14E
  3
gp
360
14F
  3
gp- ära
360
150
  3
GREEN
360
151
  3
GREET
360
152
  3
grey
360
153
  3
grid
360
154
  3
GRID 0FF
360
155
  3
grids
360
156
  3
gridtext102
360
157
  3
grnd
360
158
  3
GROUND FLOOR
360
159
  3
Ground to First
360
15A
  3
Ground to Roof
360
15B
  3
HAIRDRESSER
360
15C
  3
haljastus
360
15D
  3
hand
360
15E
  3
HARDWARE
360
15F
  3
HAT
360
160
  3
hatch
360
161
  3
hatch-off
360
162
  3
hoonestuskava
360
163
  3
HVAC
360
164
  3
iden
360
165
  3
INDICATE THICK LINE OF BULKHEAD
360
166
  3
insulation
360
167
  3
jack
360
168
  3
JBHGVHG
360
169
  3
JETO
360
16A
  3
jhd
360
16B
  3
John-Harrison
360
16C
  3
JOINERE SETTING OUT
360
16D
  3
KASUTUSEL
360
16E
  3
katus
360
16F
  3
KATUSEPLAAN
360
170
  3
KAYDIRAKLAR
360
171
  3
kaylar
360
172
  3
KENARLAR
360
173
  3
kiitoks
360
174
  3
KINNI
360
175
  3
KIRJANURK
360
176
  3
kitas
360
177
  3
KITCHEN
360
178
  3
KITCHEN PLAN
360
179
  3
KITCHEN SETTING OUT
360
17A
  3
KONSOLLAR
360
17B
  3
Koondvõrk
360
17C
  3
koord
360
17D
  3
kr
360
17E
  3
L
360
17F
  3
LABIEKARTOJUMS
360
180
  3
LAHTI
360
181
  3
Layer off
360
182
  3
LIBRARY
360
183
  3
licencing
360
184
  3
lift
360
185
  3
LIGHT
360
186
  3
Lighting
360
187
  3
liik
360
188
  3
LINII
360
189
  3
lk
360
18A
  3
LOBBY
360
18B
  3
LOBBY AND OFFICE
360
18C
  3
LOCK
360
18D
  3
locked
360
18E
  3
LUKKU
360
18F
  3
LÕIGE
360
190
  3
M1
360
191
  3
magenta
360
192
  3
Magna2000
360
193
  3
MDM1
360
194
  3
mech
360
195
  3
MECHANICAL
360
196
  3
MEMBRANE
360
197
  3
moje
360
198
  3
N
360
199
  3
N_
360
19A
  3
ncw
360
19B
  3
NERO
360
19C
  3
No Nums
360
19D
  3
nofurn
360
19E
  3
nofurn1
360
19F
  3
nofurn2
360
1A0
  3
NON XREF DEPENDANTS
360
1A1
  3
Nosuc
360
1A2
  3
npl
360
1A3
  3
nurgapu
360
1A4
  3
nõrkvool
360
1A5
  3
off
360
1A6
  3
OFFICE
360
1A7
  3
OFFICE FIRST FLOOR
360
1A8
  3
on
360
1A9
  3
on and thawed
360
1AA
  3
onlayers
360
1AB
  3
OP1
360
1AC
  3
OP2
360
1AD
  3
option 1
360
1AE
  3
option 2
360
1AF
  3
Option1
360
1B0
  3
option4
360
1B1
  3
Option5
360
1B2
  3
ORIGINAL
360
1B3
  3
out
360
1B4
  3
Outer
360
1B5
  3
outline
360
1B6
  3
P
360
1B7
  3
P - LAYERS
360
1B8
  3
P _
360
1B9
  3
P-LAYERS
360
1BA
  3
PH
360
1BB
  3
phase 1
360
1BC
  3
PHEALTH
360
1BD
  3
PHIL
360
1BE
  3
Piepl
360
1BF
  3
PIPE
360
1C0
  3
pipes
360
1C1
  3
Pipes1
360
1C2
  3
Pipework
360
1C3
  3
pirmas
360
1C4
  3
PIZZA
360
1C5
  3
pk 2d-plan
360
1C6
  3
pl
360
1C7
  3
PL1
360
1C8
  3
PLAKALAR
360
1C9
  3
planas
360
1CA
  3
PLINTH
360
1CB
  3
PLINTHS
360
1CC
  3
PLO
360
1CD
  3
plot
360
1CE
  3
plumbing
360
1CF
  3
PN
360
1D0
  3
PN_N
360
1D1
  3
PN_P
360
1D2
  3
porch
360
1D3
  3
Power
360
1D4
  3
PR
360
1D5
  3
PR-TRASSID
360
1D6
  3
prep
360
1D7
  3
primary
360
1D8
  3
proj
360
1D9
  3
proj-trassid
360
1DA
  3
PROP
360
1DB
  3
prop builders work
360
1DC
  3
proposed
360
1DD
  3
ps
360
1DE
  3
PU
360
1DF
  3
qq
360
1E0
  3
r
360
1E1
  3
R0
360
1E2
  3
R1
360
1E3
  3
R2
360
1E4
  3
R3
360
1E5
  3
rack
360
1E6
  3
RCP
360
1E7
  3
RED
360
1E8
  3
reds
360
1E9
  3
ref ceiling
360
1EA
  3
ref ceiling 1
360
1EB
  3
REFLECTED CEILING PLAN
360
1EC
  3
REI ainult
360
1ED
  3
RELECTED CEILING PLAN 012
360
1EE
  3
REST
360
1EF
  3
restaurant
360
1F0
  3
rev
360
1F1
  3
Revs
360
1F2
  3
ROHELINE
360
1F3
  3
ROOFLIGHT
360
1F4
  3
rsfl
360
1F5
  3
s
360
1F6
  3
S - LAYERS
360
1F7
  3
s 1
360
1F8
  3
saldymas
360
1F9
  3
san
360
1FA
  3
SANDSTONE
360
1FB
  3
sanitary
360
1FC
  3
SCALE 100 TEXT
360
1FD
  3
SCALE 200 TEXT
360
1FE
  3
SCALE 50 TEXT
360
1FF
  3
screed plan
360
200
  3
SEC
360
201
  3
secondary
360
202
  3
section
360
203
  3
SELF SERVICE
360
204
  3
servery
360
205
  3
SERVICES
360
206
  3
SF
360
207
  3
shadow
360
208
  3
shadow-off
360
209
  3
SHELF
360
20A
  3
SHELVES
360
20B
  3
shema
360
20C
  3
sienos
360
20D
  3
SIGNAGE
360
20E
  3
SINBLU
360
20F
  3
Sinergy
360
210
  3
SININE
360
211
  3
SININE1
360
212
  3
SIT
360
213
  3
SITE
360
214
  3
siyah
360
215
  3
skersinis
360
216
  3
solid
360
217
  3
solid fills
360
218
  3
SPIRAL
360
219
  3
SPOTLIGHTS
360
21A
  3
stairs
360
21B
  3
standard
360
21C
  3
stoły
360
21D
  3
Stru
360
21E
  3
Structure
360
21F
  3
STRUT
360
220
  3
STUBS
360
221
  3
SUFLATORI
360
222
  3
surv
360
223
  3
SURVEY
360
224
  3
Susanne
360
225
  3
SWEET
360
226
  3
SYNERGY
360
227
  3
T1
360
228
  3
TABLE
360
229
  3
tags
360
22A
  3
TEACH
360
22B
  3
test
360
22C
  3
TEXT
360
22D
  3
TH
360
22E
  3
thaw
360
22F
  3
thawed
360
230
  3
THP
360
231
  3
tjp
360
232
  3
tone
360
233
  3
TOP
360
234
  3
Topo
360
235
  3
tr
360
236
  3
trassid
360
237
  3
trassid-txt
360
238
  3
tree
360
239
  3
tu_
360
23A
  3
Tugiplaan
360
23B
  3
txt
360
23C
  3
UFR
360
23D
  3
UNITA
360
23E
  3
UNITB
360
23F
  3
UNITC
360
240
  3
UP
360
241
  3
UPLO
360
242
  3
upper
360
243
  3
uus
360
244
  3
v31
360
245
  3
VAADE
360
246
  3
Valgus
360
247
  3
varem-proj-trassid
360
248
  3
Vertikaal
360
249
  3
vertikalinis
360
24A
  3
viewports
360
24B
  3
VK
360
24C
  3
vor
360
24D
  3
vormistus
360
24E
  3
vpl
360
24F
  3
VS_01
360
250
  3
VS_02
360
251
  3
VS_03
360
252
  3
VS_04
360
253
  3
VS_05
360
254
  3
VS_06
360
255
  3
VS_07
360
256
  3
VS_08
360
257
  3
VS_09
360
258
  3
VS_10
360
259
  3
VS_11
360
25A
  3
VS_12
360
25B
  3
VS_13
360
25C
  3
VS_14
360
25D
  3
VS_15
360
25E
  3
VS_16
360
25F
  3
VS_17
360
260
  3
VS_18
360
261
  3
VS_19
360
262
  3
VS_20
360
263
  3
W
360
264
  3
W.M.T.
360
265
  3
WADE
360
266
  3
waiter
360
267
  3
WALL
360
268
  3
Walls
360
269
  3
white
360
26A
  3
white color
360
26B
  3
whs-zebra-issue
360
26C
  3
window
360
26D
  3
WINEBIN
360
26E
  3
winebins
360
26F
  3
WORK
360
270
  3
X
360
271
  3
xerf
360
272
  3
XREF
360
273
  3
xref-of
360
274
  3
XREFID
360
275
  3
YARDIMLAR
360
276
  3
YUZEYLER
360
277
  0
DICTIONARY
  5
291
102
{ACAD_REACTORS
330
2B
102
}
330
2B
100
AcDbDictionary
281
     1
  0
IMAGEDEF
  5
7FD
102
{ACAD_REACTORS
330
7FC
102
}
330
7FC
100
AcDbRasterImageDef
 90
        0
  1
E:\est\PILDID\5.JPG
 10
4096.0
 20
3320.0
 11
0.000244140625
 21
0.000244140625
280
     1
281
     0
  0
IMAGEDEF
  5
807
102
{ACAD_REACTORS
330
7FC
330
808
102
}
330
7FC
100
AcDbRasterImageDef
 90
        0
  1
E:\est\PILDID\6.JPG
 10
4096.0
 20
4096.0
 11
0.000244140625
 21
0.000244140625
280
     1
281
     0
  0
LAYOUT
  5
1E
102
{ACAD_REACTORS
330
1A
102
}
330
1A
100
AcDbPlotSettings
  1

  2
CutePDF Writer
  4
A4
  6

 40
3.174999952316284
 41
3.174999952316284
 42
3.175003051757812
 43
3.17498779296875
 44
209.8886566162109
 45
297.0530090332031
 46
0.0
 47
0.0
 48
0.0
 49
0.0
140
0.0
141
0.0
142
1.0
143
1.0
 70
   688
 72
     1
 73
     1
 74
     5
  7
monochrome.ctb
 75
    16
147
1.0
148
0.0
149
0.0
100
AcDbLayout
  1
A4
 70
     1
 71
     1
 10
-3.17498779296875
 20
-3.174999952316284
 11
293.8780212402343
 21
206.7136566638946
 12
0.0
 22
0.0
 32
0.0
 14
3.750931452298459
 24
3.864418074508137
 34
-0.0015258207003583
 15
286.7707966098082
 25
199.8824116526475
 35
0.0000000349246037
146
0.0
 13
0.0
 23
0.0
 33
0.0
 16
1.0
 26
0.0
 36
0.0
 17
0.0
 27
1.0
 37
0.0
 76
     0
330
1B
331
443
  0
LAYOUT
  5
26
102
{ACAD_REACTORS
330
1A
102
}
330
1A
100
AcDbPlotSettings
  1

  2
CutePDF Writer
  4

  6

 40
0.0
 41
0.0
 42
0.0
 43
0.0
 44
0.0
 45
0.0
 46
0.0
 47
0.0
 48
0.0
 49
0.0
140
0.0
141
0.0
142
1.0
143
1.0
 70
   688
 72
     0
 73
     0
 74
     5
  7
monochrome.ctb
 75
    16
147
1.0
148
0.0
149
0.0
100
AcDbLayout
  1
Layout2
 70
     1
 71
     2
 10
0.0
 20
0.0
 11
12.0
 21
9.0
 12
0.0
 22
0.0
 32
0.0
 14
0.0
 24
0.0
 34
0.0
 15
0.0
 25
0.0
 35
0.0
146
0.0
 13
0.0
 23
0.0
 33
0.0
 16
1.0
 26
0.0
 36
0.0
 17
0.0
 27
1.0
 37
0.0
 76
     0
330
23
  0
LAYOUT
  5
22
102
{ACAD_REACTORS
330
1A
102
}
330
1A
100
AcDbPlotSettings
  1

  2
CutePDF Writer
  4

  6

 40
0.0
 41
0.0
 42
0.0
 43
0.0
 44
0.0
 45
0.0
 46
0.0
 47
0.0
 48
0.0
 49
0.0
140
0.0
141
0.0
142
1.0
143
1.0
 70
  1712
 72
     0
 73
     0
 74
     0
  7
monochrome.ctb
 75
     0
147
1.0
148
0.0
149
0.0
100
AcDbLayout
  1
Model
 70
     1
 71
     0
 10
0.0
 20
0.0
 11
12.0
 21
9.0
 12
0.0
 22
0.0
 32
0.0
 14
0.0
 24
0.0
 34
0.0
 15
0.0
 25
0.0
 35
0.0
146
0.0
 13
0.0
 23
0.0
 33
0.0
 16
1.0
 26
0.0
 36
0.0
 17
0.0
 27
1.0
 37
0.0
 76
     0
330
1F
  0
MLINESTYLE
  5
18
102
{ACAD_REACTORS
330
17
102
}
330
17
100
AcDbMlineStyle
  2
STANDARD
 70
     0
  3

 62
   256
 51
90.0
 52
90.0
 71
     2
 49
0.5
 62
   256
  6
BYLAYER
 49
-0.5
 62
   256
  6
BYLAYER
  0
ACDBPLACEHOLDER
  5
F
102
{ACAD_REACTORS
330
E
102
}
330
E
  0
DICTIONARYVAR
  5
43F
102
{ACAD_REACTORS
330
43D
102
}
330
43D
100
DictionaryVariables
280
     0
  1
2
  0
DICTIONARYVAR
  5
43E
102
{ACAD_REACTORS
330
43D
102
}
330
43D
100
DictionaryVariables
280
     0
  1
1
  0
XRECORD
  5
2D
102
{ACAD_REACTORS
330
2C
102
}
330
2C
100
AcDbXrecord
280
     1
  1
# Arhitektuur
  1
Ar*
  1
*
  1
*
 70
     0
  1
*
  1
*
  0
XRECORD
  5
2E
102
{ACAD_REACTORS
330
2C
102
}
330
2C
100
AcDbXrecord
280
     1
  1
# Asend
  1
GP*
  1
*
  1
*
 70
     0
  1
*
  1
*
  0
XRECORD
  5
2F
102
{ACAD_REACTORS
330
2C
102
}
330
2C
100
AcDbXrecord
280
     1
  1
# Asendiplaan
  1
GP*
  1
*
  1
*
 70
     0
  1
*
  1
*
  0
XRECORD
  5
30
102
{ACAD_REACTORS
330
2C
102
}
330
2C
100
AcDbXrecord
280
     1
  1
# Elekter
  1
El*
  1
*
  1
*
 70
     0
  1
*
  1
*
  0
XRECORD
  5
31
102
{ACAD_REACTORS
330
2C
102
}
330
2C
100
AcDbXrecord
280
     1
  1
# Kõik kihid
  1
*
  1
*
  1
*
 70
     0
  1
*
  1
*
  0
XRECORD
  5
32
102
{ACAD_REACTORS
330
2C
102
}
330
2C
100
AcDbXrecord
280
     1
  1
# Küte-vent
  1
KV*
  1
*
  1
*
 70
     0
  1
*
  1
*
  0
XRECORD
  5
33
102
{ACAD_REACTORS
330
2C
102
}
330
2C
100
AcDbXrecord
280
     1
  1
# Planeering
  1
*
  1
*
  1
*
 70
     0
  1
*
  1
*
  0
XRECORD
  5
34
102
{ACAD_REACTORS
330
2C
102
}
330
2C
100
AcDbXrecord
280
     1
  1
# Sisekujundus
  1
As*
  1
*
  1
*
 70
     1
  1
*
  1
*
  0
XRECORD
  5
35
102
{ACAD_REACTORS
330
2C
102
}
330
2C
100
AcDbXrecord
280
     1
  1
# Soojus
  1
SV*
  1
*
  1
*
 70
     0
  1
*
  1
*
  0
XRECORD
  5
36
102
{ACAD_REACTORS
330
2C
102
}
330
2C
100
AcDbXrecord
280
     1
  1
# Tehnoloogia
  1
Th*
  1
*
  1
*
 70
     1
  1
*
  1
*
  0
XRECORD
  5
37
102
{ACAD_REACTORS
330
2C
102
}
330
2C
100
AcDbXrecord
280
     1
  1
# Topo
  1
TG*
  1
*
  1
*
 70
     0
  1
*
  1
*
  0
XRECORD
  5
38
102
{ACAD_REACTORS
330
2C
102
}
330
2C
100
AcDbXrecord
280
     1
  1
# Topo-geodeesia
  1
Tg-*
  1
*
  1
*
 70
     1
  1
*
  1
*
  0
XRECORD
  5
39
102
{ACAD_REACTORS
330
2C
102
}
330
2C
100
AcDbXrecord
280
     1
  1
# Tugiplaan
  1
*
  1
*
  1
*
 70
     0
  1
*
  1
*
  0
XRECORD
  5
3A
102
{ACAD_REACTORS
330
2C
102
}
330
2C
100
AcDbXrecord
280
     1
  1
# Vertikaal-teed
  1
VP*
  1
*
  1
*
 70
     0
  1
*
  1
*
  0
XRECORD
  5
3B
102
{ACAD_REACTORS
330
2C
102
}
330
2C
100
AcDbXrecord
280
     1
  1
# Vesi-kanal
  1
VK*
  1
*
  1
*
 70
     1
  1
*
  1
*
  0
XRECORD
  5
3C
102
{ACAD_REACTORS
330
2C
102
}
330
2C
100
AcDbXrecord
280
     1
  1
$$$
  1
###
  1
*
  1
*
 70
     0
  1
*
  1
*
  0
XRECORD
  5
3D
102
{ACAD_REACTORS
330
2C
102
}
330
2C
100
AcDbXrecord
280
     1
  1
$F-
  1
option4*
  1
*
  1
*
 70
     0
  1
*
  1
*
  0
XRECORD
  5
3E
102
{ACAD_REACTORS
330
2C
102
}
330
2C
100
AcDbXrecord
280
     1
  1
-
  1
-*
  1
*
  1
*
 70
     0
  1
*
  1
*
  0
XRECORD
  5
3F
102
{ACAD_REACTORS
330
2C
102
}
330
2C
100
AcDbXrecord
280
     1
  1
-------
  1
-*
  1
*
  1
*
 70
     0
  1
*
  1
*
  0
XRECORD
  5
40
102
{ACAD_REACTORS
330
2C
102
}
330
2C
100
AcDbXrecord
280
     1
  1
-50
  1
*-50
  1
*
  1
*
 70
     0
  1
*
  1
*
  0
XRECORD
  5
41
102
{ACAD_REACTORS
330
2C
102
}
330
2C
100
AcDbXrecord
280
     1
  1
-_
  1
-_*
  1
*
  1
*
 70
     0
  1
*
  1
*
  0
XRECORD
  5
42
102
{ACAD_REACTORS
330
2C
102
}
330
2C
100
AcDbXrecord
280
     1
  1
-p
  1
*-p*
  1
*
  1
*
 70
     0
  1
*
  1
*
  0
XRECORD
  5
43
102
{ACAD_REACTORS
330
2C
102
}
330
2C
100
AcDbXrecord
280
     1
  1
0
  1
0*
  1
*
  1
*
 70
     0
  1
*
  1
*
  0
XRECORD
  5
44
102
{ACAD_REACTORS
330
2C
102
}
330
2C
100
AcDbXrecord
280
     1
  1
000
  1
*000
  1
*
  1
*
 70
     0
  1
*
  1
*
  0
XRECORD
  5
45
102
{ACAD_REACTORS
330
2C
102
}
330
2C
100
AcDbXrecord
280
     1
  1
009
  1
*009
  1
*
  1
*
 70
     0
  1
*
  1
*
  0
XRECORD
  5
46
102
{ACAD_REACTORS
330
2C
102
}
330
2C
100
AcDbXrecord
280
     1
  1
00_
  1
00_*
  1
*
  1
*
 70
     0
  1
*
  1
*
  0
XRECORD
  5
47
102
{ACAD_REACTORS
330
2C
102
}
330
2C
100
AcDbXrecord
280
     1
  1
01
  1
*01*
  1
*
  1
*
 70
     0
  1
*
  1
*
  0
XRECORD
  5
48
102
{ACAD_REACTORS
330
2C
102
}
330
2C
100
AcDbXrecord
280
     1
  1
013
  1
*013
  1
*
  1
*
 70
     0
  1
*
  1
*
  0
XRECORD
  5
49
102
{ACAD_REACTORS
330
2C
102
}
330
2C
100
AcDbXrecord
280
     1
  1
018
  1
*018
  1
*
  1
*
 70
     0
  1
*
  1
*
  0
XRECORD
  5
4A
102
{ACAD_REACTORS
330
2C
102
}
330
2C
100
AcDbXrecord
280
     1
  1
02
  1
*02*
  1
*
  1
*
 70
     0
  1
*
  1
*
  0
XRECORD
  5
4B
102
{ACAD_REACTORS
330
2C
102
}
330
2C
100
AcDbXrecord
280
     1
  1
025
  1
*025
  1
*
  1
*
 70
     0
  1
*
  1
*
  0
XRECORD
  5
4C
102
{ACAD_REACTORS
330
2C
102
}
330
2C
100
AcDbXrecord
280
     1
  1
030
  1
a03*
  1
*
  1
*
 70
     0
  1
*
  1
*
  0
XRECORD
  5
4D
102
{ACAD_REACTORS
330
2C
102
}
330
2C
100
AcDbXrecord
280
     1
  1
032
  1
*032*
  1
*
  1
*
 70
     0
  1
*
  1
*
  0
XRECORD
  5
4E
102
{ACAD_REACTORS
330
2C
102
}
330
2C
100
AcDbXrecord
280
     1
  1
032G
  1
*032G*
  1
*
  1
*
 70
     0
  1
*
  1
*
  0
XRECORD
  5
4F
102
{ACAD_REACTORS
330
2C
102
}
330
2C
100
AcDbXrecord
280
     1
  1
035
  1
*035
  1
*
  1
*
 70
     0
  1
*
  1
*
  0
XRECORD
  5
50
102
{ACAD_REACTORS
330
2C
102
}
330
2C
100
AcDbXrecord
280
     1
  1
050
  1
*050
  1
*
  1
*
 70
     0
  1
*
  1
*
  0
XRECORD
  5
51
102
{ACAD_REACTORS
330
2C
102
}
330
2C
100
AcDbXrecord
280
     1
  1
070
  1
*070
  1
*
  1
*
 70
     0
  1
*
  1
*
  0
XRECORD
  5
52
102
{ACAD_REACTORS
330
2C
102
}
330
2C
100
AcDbXrecord
280
     1
  1
0_
  1
0_*
  1
*
  1
*
 70
     0
  1
*
  1
*
  0
XRECORD
  5
53
102
{ACAD_REACTORS
330
2C
102
}
330
2C
100
AcDbXrecord
280
     1
  1
0aikstas
  1
*0a*,ASYS,*Tar*
  1
*
  1
*
 70
     0
  1
*
  1
*
  0
XRECORD
  5
54
102
{ACAD_REACTORS
330
2C
102
}
330
2C
100
AcDbXrecord
280
     1
  1
0k
  1
0k*
  1
*
  1
*
 70
     0
  1
*
  1
*
  0
XRECORD
  5
55
102
{ACAD_REACTORS
330
2C
102
}
330
2C
100
AcDbXrecord
280
     1
  1
0korrus
  1
0k *
  1
*
  1
*
 70
     0
  1
*
  1
*
  0
XRECORD
  5
56
102
{ACAD_REACTORS
330
2C
102
}
330
2C
100
AcDbXrecord
280
     1
  1
1
  1
1aPlonos,1aSiena
  1
*
  1
*
 70
     0
  1
*
  1
*
  0
XRECORD
  5
57
102
{ACAD_REACTORS
330
2C
102
}
330
2C
100
AcDbXrecord
280
     1
  1
1 GA
  1
??????_G??????
  1
*
  1
*
 70
     0
  1
*
  1
*
  0
XRECORD
  5
58
102
{ACAD_REACTORS
330
2C
102
}
330
2C
100
AcDbXrecord
280
     1
  1
1 korrus
  1
0k *
  1
*
  1
*
 70
  3415
  1
*
  1
*
  0
XRECORD
  5
59
102
{ACAD_REACTORS
330
2C
102
}
330
2C
100
AcDbXrecord
280
     1
  1
1-
  1
elec
  1
*
  1
*
 70
     0
  1
*
  1
*
  0
XRECORD
  5
5A
102
{ACAD_REACTORS
330
2C
102
}
330
2C
100
AcDbXrecord
280
     1
  1
100
  1
*
  1
*
  1
*
 70
     0
  1
*
  1
*
  0
XRECORD
  5
5B
102
{ACAD_REACTORS
330
2C
102
}
330
2C
100
AcDbXrecord
280
     1
  1
120
  1
*|*
  1
*
  1
*
 70
     0
  1
*
  1
*
  0
XRECORD
  5
5C
102
{ACAD_REACTORS
330
2C
102
}
330
2C
100
AcDbXrecord
280
     1
  1
121
  1
*
  1
*
  1
*
 70
    16
  1
*
  1
*
  0
XRECORD
  5
5D
102
{ACAD_REACTORS
330
2C
102
}
330
2C
100
AcDbXrecord
280
     1
  1
1343
  1
1343-*
  1
*
  1
*
 70
     0
  1
*
  1
*
  0
XRECORD
  5
5E
102
{ACAD_REACTORS
330
2C
102
}
330
2C
100
AcDbXrecord
280
     1
  1
1784
  1
1784*
  1
*
  1
*
 70
     0
  1
*
  1
*
  0
XRECORD
  5
5F
102
{ACAD_REACTORS
330
2C
102
}
330
2C
100
AcDbXrecord
280
     1
  1
1784frst
  1
*
  1
*
  1
*
 70
     0
  1
*
  1
*
  0
XRECORD
  5
60
102
{ACAD_REACTORS
330
2C
102
}
330
2C
100
AcDbXrecord
280
     1
  1
1784frst$0$
  1
1784frst$0$*
  1
*
  1
*
 70
     0
  1
*
  1
*
  0
XRECORD
  5
61
102
{ACAD_REACTORS
330
2C
102
}
330
2C
100
AcDbXrecord
280
     1
  1
1784sec5
  1
1784sec5*
  1
*
  1
*
 70
     0
  1
*
  1
*
  0
XRECORD
  5
62
102
{ACAD_REACTORS
330
2C
102
}
330
2C
100
AcDbXrecord
280
     1
  1
1947
  1
1947*
  1
*
  1
*
 70
     0
  1
*
  1
*
  0
XRECORD
  5
63
102
{ACAD_REACTORS
330
2C
102
}
330
2C
100
AcDbXrecord
280
     1
  1
1aukstas
  1
*1a*,ASYS,*Tar*
  1
*
  1
*
 70
     0
  1
*
  1
*
  0
XRECORD
  5
64
102
{ACAD_REACTORS
330
2C
102
}
330
2C
100
AcDbXrecord
280
     1
  1
1GRID
  1
*
  1
*
  1
*
 70
    16
  1
*
  1
*
  0
XRECORD
  5
65
102
{ACAD_REACTORS
330
2C
102
}
330
2C
100
AcDbXrecord
280
     1
  1
1k
  1
1k*
  1
*
  1
*
 70
     0
  1
*
  1
*
  0
XRECORD
  5
66
102
{ACAD_REACTORS
330
2C
102
}
330
2C
100
AcDbXrecord
280
     1
  1
1korrus
  1
1k*
  1
*
  1
*
 70
     0
  1
*
  1
*
  0
XRECORD
  5
67
102
{ACAD_REACTORS
330
2C
102
}
330
2C
100
AcDbXrecord
280
     1
  1
1puse
  1
1_6*
  1
*
  1
*
 70
     0
  1
*
  1
*
  0
XRECORD
  5
68
102
{ACAD_REACTORS
330
2C
102
}
330
2C
100
AcDbXrecord
280
     1
  1
1V
  1
*
  1
*
  1
*
 70
     4
  1
*
  1
*
  0
XRECORD
  5
69
102
{ACAD_REACTORS
330
2C
102
}
330
2C
100
AcDbXrecord
280
     1
  1
2
  1
2*
  1
*
  1
*
 70
     0
  1
*
  1
*
  0
XRECORD
  5
6A
102
{ACAD_REACTORS
330
2C
102
}
330
2C
100
AcDbXrecord
280
     1
  1
2 KORRUS
  1
2K *
  1
*
  1
*
 70
     0
  1
*
  1
*
  0
XRECORD
  5
6B
102
{ACAD_REACTORS
330
2C
102
}
330
2C
100
AcDbXrecord
280
     1
  1
2 SPACE PLAN
  1
??????_?S?????
  1
*
  1
*
 70
     0
  1
*
  1
*
  0
XRECORD
  5
6C
102
{ACAD_REACTORS
330
2C
102
}
330
2C
100
AcDbXrecord
280
     1
  1
200
  1
*
  1
*
  1
*
 70
    16
  1
*
  1
*
  0
XRECORD
  5
6D
102
{ACAD_REACTORS
330
2C
102
}
330
2C
100
AcDbXrecord
280
     1
  1
218
  1
*218*
  1
*
  1
*
 70
     0
  1
*
  1
*
  0
XRECORD
  5
6E
102
{ACAD_REACTORS
330
2C
102
}
330
2C
100
AcDbXrecord
280
     1
  1
220g
  1
*220*
  1
*
  1
*
 70
     0
  1
*
  1
*
  0
XRECORD
  5
6F
102
{ACAD_REACTORS
330
2C
102
}
330
2C
100
AcDbXrecord
280
     1
  1
250
  1
*
  1
*
  1
*
 70
    16
  1
*
  1
*
  0
XRECORD
  5
70
102
{ACAD_REACTORS
330
2C
102
}
330
2C
100
AcDbXrecord
280
     1
  1
2AUKSTAS
  1
*2a*,ASYS,*Tar*
  1
*
  1
*
 70
     0
  1
*
  1
*
  0
XRECORD
  5
71
102
{ACAD_REACTORS
330
2C
102
}
330
2C
100
AcDbXrecord
280
     1
  1
2d
  1
*
  1
*
  1
*
 70
  3072
  1
*
  1
*
  0
XRECORD
  5
72
102
{ACAD_REACTORS
330
2C
102
}
330
2C
100
AcDbXrecord
280
     1
  1
2DPLAN
  1
2D*
  1
*
  1
*
 70
     0
  1
*
  1
*
  0
XRECORD
  5
73
102
{ACAD_REACTORS
330
2C
102
}
330
2C
100
AcDbXrecord
280
     1
  1
2k
  1
2k*
  1
*
  1
*
 70
     0
  1
*
  1
*
  0
XRECORD
  5
74
102
{ACAD_REACTORS
330
2C
102
}
330
2C
100
AcDbXrecord
280
     1
  1
2puse
  1
11*
  1
*
  1
*
 70
     0
  1
*
  1
*
  0
XRECORD
  5
75
102
{ACAD_REACTORS
330
2C
102
}
330
2C
100
AcDbXrecord
280
     1
  1
3 CEILING
  1
??????_??C????
  1
*
  1
*
 70
     0
  1
*
  1
*
  0
XRECORD
  5
76
102
{ACAD_REACTORS
330
2C
102
}
330
2C
100
AcDbXrecord
280
     1
  1
300
  1
*
  1
*
  1
*
 70
    16
  1
*
  1
*
  0
XRECORD
  5
77
102
{ACAD_REACTORS
330
2C
102
}
330
2C
100
AcDbXrecord
280
     1
  1
300-1
  1
*
  1
*
  1
*
 70
    16
  1
*
  1
*
  0
XRECORD
  5
78
102
{ACAD_REACTORS
330
2C
102
}
330
2C
100
AcDbXrecord
280
     1
  1
3845-000
  1
22-external-walls----------------------------------------
  1
*
  1
*
 70
     1
  1
*
  1
*
  0
XRECORD
  5
79
102
{ACAD_REACTORS
330
2C
102
}
330
2C
100
AcDbXrecord
280
     1
  1
4
  1
*521*
  1
*
  1
*
 70
     0
  1
*
  1
*
  0
XRECORD
  5
7A
102
{ACAD_REACTORS
330
2C
102
}
330
2C
100
AcDbXrecord
280
     1
  1
4 ELECTRIC
  1
??????_???E???
  1
*
  1
*
 70
     0
  1
*
  1
*
  0
XRECORD
  5
7B
102
{ACAD_REACTORS
330
2C
102
}
330
2C
100
AcDbXrecord
280
     1
  1
4021
  1
4021*
  1
*
  1
*
 70
     0
  1
*
  1
*
  0
XRECORD
  5
7C
102
{ACAD_REACTORS
330
2C
102
}
330
2C
100
AcDbXrecord
280
     1
  1
5 DEMO
  1
??????_????D??
  1
*
  1
*
 70
     0
  1
*
  1
*
  0
XRECORD
  5
7D
102
{ACAD_REACTORS
330
2C
102
}
330
2C
100
AcDbXrecord
280
     1
  1
6 LAYER 1
  1
??????_?????1?
  1
*
  1
*
 70
     0
  1
*
  1
*
  0
XRECORD
  5
7E
102
{ACAD_REACTORS
330
2C
102
}
330
2C
100
AcDbXrecord
280
     1
  1
7 LAYER 2
  1
??????_??????2
  1
*
  1
*
 70
     0
  1
*
  1
*
  0
XRECORD
  5
7F
102
{ACAD_REACTORS
330
2C
102
}
330
2C
100
AcDbXrecord
280
     1
  1
720
  1
*720g*
  1
*
  1
*
 70
     0
  1
*
  1
*
  0
XRECORD
  5
80
102
{ACAD_REACTORS
330
2C
102
}
330
2C
100
AcDbXrecord
280
     1
  1
720g
  1
*720*
  1
*
  1
*
 70
     0
  1
*
  1
*
  0
XRECORD
  5
81
102
{ACAD_REACTORS
330
2C
102
}
330
2C
100
AcDbXrecord
280
     1
  1
8
  1
*
  1
8
  1
*
 70
     0
  1
*
  1
*
  0
XRECORD
  5
82
102
{ACAD_REACTORS
330
2C
102
}
330
2C
100
AcDbXrecord
280
     1
  1
9
  1
*
  1
9
  1
*
 70
     0
  1
*
  1
*
  0
XRECORD
  5
83
102
{ACAD_REACTORS
330
2C
102
}
330
2C
100
AcDbXrecord
280
     1
  1
96
  1
*96
  1
*
  1
*
 70
     0
  1
*
  1
*
  0
XRECORD
  5
84
102
{ACAD_REACTORS
330
2C
102
}
330
2C
100
AcDbXrecord
280
     1
  1
_4021
  1
*4021*
  1
*
  1
*
 70
     0
  1
*
  1
*
  0
XRECORD
  5
85
102
{ACAD_REACTORS
330
2C
102
}
330
2C
100
AcDbXrecord
280
     1
  1
__E1
  1
*E1*
  1
*
  1
*
 70
     0
  1
*
  1
*
  0
XRECORD
  5
86
102
{ACAD_REACTORS
330
2C
102
}
330
2C
100
AcDbXrecord
280
     1
  1
__E2
  1
*E2*
  1
*
  1
*
 70
     0
  1
*
  1
*
  0
XRECORD
  5
87
102
{ACAD_REACTORS
330
2C
102
}
330
2C
100
AcDbXrecord
280
     1
  1
__E3
  1
*E3*
  1
*
  1
*
 70
     0
  1
*
  1
*
  0
XRECORD
  5
88
102
{ACAD_REACTORS
330
2C
102
}
330
2C
100
AcDbXrecord
280
     1
  1
__E6
  1
*E6*
  1
*
  1
*
 70
     0
  1
*
  1
*
  0
XRECORD
  5
89
102
{ACAD_REACTORS
330
2C
102
}
330
2C
100
AcDbXrecord
280
     1
  1
_all
  1
*
  1
*
  1
*
 70
     0
  1
*
  1
*
  0
XRECORD
  5
8A
102
{ACAD_REACTORS
330
2C
102
}
330
2C
100
AcDbXrecord
280
     1
  1
_arch
  1
A-*
  1
*
  1
*
 70
     0
  1
*
  1
*
  0
XRECORD
  5
8B
102
{ACAD_REACTORS
330
2C
102
}
330
2C
100
AcDbXrecord
280
     1
  1
_AXIS
  1
*axis*
  1
*
  1
*
 70
     0
  1
*
  1
*
  0
XRECORD
  5
8C
102
{ACAD_REACTORS
330
2C
102
}
330
2C
100
AcDbXrecord
280
     1
  1
_BORT
  1
BORT*
  1
*
  1
*
 70
     0
  1
*
  1
*
  0
XRECORD
  5
8D
102
{ACAD_REACTORS
330
2C
102
}
330
2C
100
AcDbXrecord
280
     1
  1
_BR
  1
*br*
  1
*
  1
*
 70
     0
  1
*
  1
*
  0
XRECORD
  5
8E
102
{ACAD_REACTORS
330
2C
102
}
330
2C
100
AcDbXrecord
280
     1
  1
_Building 3
  1
*bld3*
  1
*
  1
*
 70
     0
  1
*
  1
*
  0
XRECORD
  5
8F
102
{ACAD_REACTORS
330
2C
102
}
330
2C
100
AcDbXrecord
280
     1
  1
_color6
  1
*
  1
6
  1
*
 70
     0
  1
*
  1
*
  0
XRECORD
  5
90
102
{ACAD_REACTORS
330
2C
102
}
330
2C
100
AcDbXrecord
280
     1
  1
_DIM
  1
*dim*
  1
*
  1
*
 70
     0
  1
*
  1
*
  0
XRECORD
  5
91
102
{ACAD_REACTORS
330
2C
102
}
330
2C
100
AcDbXrecord
280
     1
  1
_External Works
  1
*o-*
  1
*
  1
*
 70
     0
  1
*
  1
*
  0
XRECORD
  5
92
102
{ACAD_REACTORS
330
2C
102
}
330
2C
100
AcDbXrecord
280
     1
  1
_first
  1
*01*
  1
*
  1
*
 70
     0
  1
*
  1
*
  0
XRECORD
  5
93
102
{ACAD_REACTORS
330
2C
102
}
330
2C
100
AcDbXrecord
280
     1
  1
_First Floor
  1
*01*
  1
*
  1
*
 70
     0
  1
*
  1
*
  0
XRECORD
  5
94
102
{ACAD_REACTORS
330
2C
102
}
330
2C
100
AcDbXrecord
280
     1
  1
_ground
  1
*00*
  1
*
  1
*
 70
     0
  1
*
  1
*
  0
XRECORD
  5
95
102
{ACAD_REACTORS
330
2C
102
}
330
2C
100
AcDbXrecord
280
     1
  1
_Ground Floor
  1
*-00*
  1
*
  1
*
 70
     0
  1
*
  1
*
  0
XRECORD
  5
96
102
{ACAD_REACTORS
330
2C
102
}
330
2C
100
AcDbXrecord
280
     1
  1
_h
  1
*_H
  1
*
  1
*
 70
     0
  1
*
  1
*
  0
XRECORD
  5
97
102
{ACAD_REACTORS
330
2C
102
}
330
2C
100
AcDbXrecord
280
     1
  1
_Hatching
  1
*hat*
  1
*
  1
*
 70
     0
  1
*
  1
*
  0
XRECORD
  5
98
102
{ACAD_REACTORS
330
2C
102
}
330
2C
100
AcDbXrecord
280
     1
  1
_KOORD
  1
*koord*
  1
*
  1
*
 70
     0
  1
*
  1
*
  0
XRECORD
  5
99
102
{ACAD_REACTORS
330
2C
102
}
330
2C
100
AcDbXrecord
280
     1
  1
_New
  1
*-N
  1
*
  1
*
 70
     0
  1
*
  1
*
  0
XRECORD
  5
9A
102
{ACAD_REACTORS
330
2C
102
}
330
2C
100
AcDbXrecord
280
     1
  1
_OP
  1
*op*
  1
*
  1
*
 70
     0
  1
*
  1
*
  0
XRECORD
  5
9B
102
{ACAD_REACTORS
330
2C
102
}
330
2C
100
AcDbXrecord
280
     1
  1
_OP14
  1
*op14*
  1
*
  1
*
 70
     0
  1
*
  1
*
  0
XRECORD
  5
9C
102
{ACAD_REACTORS
330
2C
102
}
330
2C
100
AcDbXrecord
280
     1
  1
_OP15
  1
*op15*
  1
*
  1
*
 70
     0
  1
*
  1
*
  0
XRECORD
  5
9D
102
{ACAD_REACTORS
330
2C
102
}
330
2C
100
AcDbXrecord
280
     1
  1
_OP6
  1
*op6*
  1
*
  1
*
 70
     0
  1
*
  1
*
  0
XRECORD
  5
9E
102
{ACAD_REACTORS
330
2C
102
}
330
2C
100
AcDbXrecord
280
     1
  1
_PARK
  1
*PARK*
  1
*
  1
*
 70
     0
  1
*
  1
*
  0
XRECORD
  5
9F
102
{ACAD_REACTORS
330
2C
102
}
330
2C
100
AcDbXrecord
280
     1
  1
_PARK4
  1
*PARK4*
  1
*
  1
*
 70
     0
  1
*
  1
*
  0
XRECORD
  5
A0
102
{ACAD_REACTORS
330
2C
102
}
330
2C
100
AcDbXrecord
280
     1
  1
_PIKET
  1
*piket*
  1
*
  1
*
 70
     0
  1
*
  1
*
  0
XRECORD
  5
A1
102
{ACAD_REACTORS
330
2C
102
}
330
2C
100
AcDbXrecord
280
     1
  1
_PS
  1
*ps*
  1
*
  1
*
 70
     0
  1
*
  1
*
  0
XRECORD
  5
A2
102
{ACAD_REACTORS
330
2C
102
}
330
2C
100
AcDbXrecord
280
     1
  1
_Removed
  1
*Rem*
  1
*
  1
*
 70
     0
  1
*
  1
*
  0
XRECORD
  5
A3
102
{ACAD_REACTORS
330
2C
102
}
330
2C
100
AcDbXrecord
280
     1
  1
_roof
  1
*roof*
  1
*
  1
*
 70
     0
  1
*
  1
*
  0
XRECORD
  5
A4
102
{ACAD_REACTORS
330
2C
102
}
330
2C
100
AcDbXrecord
280
     1
  1
_SECTION
  1
*sec*
  1
*
  1
*
 70
     0
  1
*
  1
*
  0
XRECORD
  5
A5
102
{ACAD_REACTORS
330
2C
102
}
330
2C
100
AcDbXrecord
280
     1
  1
_SOL
  1
*SOL*
  1
*
  1
*
 70
     0
  1
*
  1
*
  0
XRECORD
  5
A6
102
{ACAD_REACTORS
330
2C
102
}
330
2C
100
AcDbXrecord
280
     1
  1
_SUP
  1
*sup*
  1
*
  1
*
 70
     0
  1
*
  1
*
  0
XRECORD
  5
A7
102
{ACAD_REACTORS
330
2C
102
}
330
2C
100
AcDbXrecord
280
     1
  1
_Text
  1
*Text*
  1
*
  1
*
 70
     0
  1
*
  1
*
  0
XRECORD
  5
A8
102
{ACAD_REACTORS
330
2C
102
}
330
2C
100
AcDbXrecord
280
     1
  1
_WIN
  1
*win*
  1
*
  1
*
 70
     0
  1
*
  1
*
  0
XRECORD
  5
A9
102
{ACAD_REACTORS
330
2C
102
}
330
2C
100
AcDbXrecord
280
     1
  1
_Without text
  1
*text*
  1
*
  1
*
 70
     0
  1
*
  1
*
  0
XRECORD
  5
AA
102
{ACAD_REACTORS
330
2C
102
}
330
2C
100
AcDbXrecord
280
     1
  1
A
  1
DETAL*
  1
*
  1
*
 70
     0
  1
*
  1
*
  0
XRECORD
  5
AB
102
{ACAD_REACTORS
330
2C
102
}
330
2C
100
AcDbXrecord
280
     1
  1
A layers
  1
A*
  1
*
  1
*
 70
     0
  1
*
  1
*
  0
XRECORD
  5
AC
102
{ACAD_REACTORS
330
2C
102
}
330
2C
100
AcDbXrecord
280
     1
  1
a-
  1
a-*
  1
*
  1
*
 70
     0
  1
*
  1
*
  0
XRECORD
  5
AD
102
{ACAD_REACTORS
330
2C
102
}
330
2C
100
AcDbXrecord
280
     1
  1
A-12101
  1
*
  1
*
  1
*
 70
    13
  1
*
  1
*
  0
XRECORD
  5
AE
102
{ACAD_REACTORS
330
2C
102
}
330
2C
100
AcDbXrecord
280
     1
  1
A0-FRAME
  1
A0*
  1
*
  1
*
 70
     0
  1
*
  1
*
  0
XRECORD
  5
AF
102
{ACAD_REACTORS
330
2C
102
}
330
2C
100
AcDbXrecord
280
     1
  1
A000D
  1
A000D*
  1
*
  1
*
 70
     0
  1
*
  1
*
  0
XRECORD
  5
B0
102
{ACAD_REACTORS
330
2C
102
}
330
2C
100
AcDbXrecord
280
     1
  1
A032G
  1
*a032G
  1
*
  1
*
 70
     0
  1
*
  1
*
  0
XRECORD
  5
B1
102
{ACAD_REACTORS
330
2C
102
}
330
2C
100
AcDbXrecord
280
     1
  1
a2
  1
a2*
  1
*
  1
*
 70
     0
  1
*
  1
*
  0
XRECORD
  5
B2
102
{ACAD_REACTORS
330
2C
102
}
330
2C
100
AcDbXrecord
280
     1
  1
a210h
  1
*a210h
  1
*
  1
*
 70
     0
  1
*
  1
*
  0
XRECORD
  5
B3
102
{ACAD_REACTORS
330
2C
102
}
330
2C
100
AcDbXrecord
280
     1
  1
a210h-50
  1
*a210h-50
  1
*
  1
*
 70
     0
  1
*
  1
*
  0
XRECORD
  5
B4
102
{ACAD_REACTORS
330
2C
102
}
330
2C
100
AcDbXrecord
280
     1
  1
a3
  1
a3*
  1
*
  1
*
 70
     0
  1
*
  1
*
  0
XRECORD
  5
B5
102
{ACAD_REACTORS
330
2C
102
}
330
2C
100
AcDbXrecord
280
     1
  1
a9
  1
a9*
  1
*
  1
*
 70
     0
  1
*
  1
*
  0
XRECORD
  5
B6
102
{ACAD_REACTORS
330
2C
102
}
330
2C
100
AcDbXrecord
280
     1
  1
AA
  1
AKS,M2AKS
  1
*
  1
*
 70
     0
  1
*
  1
*
  0
XRECORD
  5
B7
102
{ACAD_REACTORS
330
2C
102
}
330
2C
100
AcDbXrecord
280
     1
  1
aadressid
  1
aadr*
  1
*
  1
*
 70
     0
  1
*
  1
*
  0
XRECORD
  5
B8
102
{ACAD_REACTORS
330
2C
102
}
330
2C
100
AcDbXrecord
280
     1
  1
adler
  1
aadler*,xre*
  1
*
  1
*
 70
     0
  1
*
  1
*
  0
XRECORD
  5
B9
102
{ACAD_REACTORS
330
2C
102
}
330
2C
100
AcDbXrecord
280
     1
  1
AJUTINE
  1
AJUTINE *
  1
*
  1
*
 70
     0
  1
*
  1
*
  0
XRECORD
  5
BA
102
{ACAD_REACTORS
330
2C
102
}
330
2C
100
AcDbXrecord
280
     1
  1
ALEV07
  1
ALEV07*
  1
*
  1
*
 70
     0
  1
*
  1
*
  0
XRECORD
  5
BB
102
{ACAD_REACTORS
330
2C
102
}
330
2C
100
AcDbXrecord
280
     1
  1
ALL
  1
*
  1
*
  1
*
 70
     0
  1
*
  1
*
  0
XRECORD
  5
BC
102
{ACAD_REACTORS
330
2C
102
}
330
2C
100
AcDbXrecord
280
     1
  1
all on
  1
*
  1
*
  1
*
 70
     1
  1
*
  1
*
  0
XRECORD
  5
BD
102
{ACAD_REACTORS
330
2C
102
}
330
2C
100
AcDbXrecord
280
     1
  1
alles met_
  1
*_*
  1
*
  1
*
 70
     0
  1
*
  1
*
  0
XRECORD
  5
BE
102
{ACAD_REACTORS
330
2C
102
}
330
2C
100
AcDbXrecord
280
     1
  1
ALLTEXT
  1
*T*
  1
*
  1
*
 70
     0
  1
*
  1
*
  0
XRECORD
  5
BF
102
{ACAD_REACTORS
330
2C
102
}
330
2C
100
AcDbXrecord
280
     1
  1
ANGARS
  1
*ASIS
  1
*
  1
*
 70
     0
  1
*
  1
*
  0
XRECORD
  5
C0
102
{ACAD_REACTORS
330
2C
102
}
330
2C
100
AcDbXrecord
280
     1
  1
Antras
  1
2*
  1
*
  1
*
 70
  1024
  1
*
  1
*
  0
XRECORD
  5
C1
102
{ACAD_REACTORS
330
2C
102
}
330
2C
100
AcDbXrecord
280
     1
  1
AR
  1
*
  1
*
  1
*
 70
     0
  1
*
  1
*
  0
XRECORD
  5
C2
102
{ACAD_REACTORS
330
2C
102
}
330
2C
100
AcDbXrecord
280
     1
  1
ar_bwl
  1
*
  1
*
  1
*
 70
     3
  1
*
  1
*
  0
XRECORD
  5
C3
102
{ACAD_REACTORS
330
2C
102
}
330
2C
100
AcDbXrecord
280
     1
  1
ar_grd
  1
*
  1
*
  1
*
 70
     3
  1
*
  1
*
  0
XRECORD
  5
C4
102
{ACAD_REACTORS
330
2C
102
}
330
2C
100
AcDbXrecord
280
     1
  1
AR_GRID
  1
*
  1
*
  1
*
 70
     3
  1
*
  1
*
  0
XRECORD
  5
C5
102
{ACAD_REACTORS
330
2C
102
}
330
2C
100
AcDbXrecord
280
     1
  1
arch
  1
ar*
  1
*
  1
*
 70
     0
  1
*
  1
*
  0
XRECORD
  5
C6
102
{ACAD_REACTORS
330
2C
102
}
330
2C
100
AcDbXrecord
280
     1
  1
Architecture
  1
A*
  1
*
  1
*
 70
     0
  1
*
  1
*
  0
XRECORD
  5
C7
102
{ACAD_REACTORS
330
2C
102
}
330
2C
100
AcDbXrecord
280
     1
  1
AREA
  1
*AREA*
  1
*
  1
*
 70
     0
  1
*
  1
*
  0
XRECORD
  5
C8
102
{ACAD_REACTORS
330
2C
102
}
330
2C
100
AcDbXrecord
280
     1
  1
Arhitecture
  1
a*
  1
*
  1
*
 70
     0
  1
*
  1
*
  0
XRECORD
  5
C9
102
{ACAD_REACTORS
330
2C
102
}
330
2C
100
AcDbXrecord
280
     1
  1
ARM
  1
*ARM*
  1
*
  1
*
 70
     0
  1
*
  1
*
  0
XRECORD
  5
CA
102
{ACAD_REACTORS
330
2C
102
}
330
2C
100
AcDbXrecord
280
     1
  1
as
  1
as*
  1
*
  1
*
 70
     0
  1
*
  1
*
  0
XRECORD
  5
CB
102
{ACAD_REACTORS
330
2C
102
}
330
2C
100
AcDbXrecord
280
     1
  1
Asend
  1
*
  1
*
  1
*
 70
     0
  1
*
  1
*
  0
XRECORD
  5
CC
102
{ACAD_REACTORS
330
2C
102
}
330
2C
100
AcDbXrecord
280
     1
  1
asendiplaan
  1
as*
  1
*
  1
*
 70
     0
  1
*
  1
*
  0
XRECORD
  5
CD
102
{ACAD_REACTORS
330
2C
102
}
330
2C
100
AcDbXrecord
280
     1
  1
AUDITORIA
  1
AUD*
  1
*
  1
*
 70
     0
  1
*
  1
*
  0
XRECORD
  5
CE
102
{ACAD_REACTORS
330
2C
102
}
330
2C
100
AcDbXrecord
280
     1
  1
ax
  1
a*
  1
*
  1
*
 70
  3072
  1
*
  1
*
  0
XRECORD
  5
CF
102
{ACAD_REACTORS
330
2C
102
}
330
2C
100
AcDbXrecord
280
     1
  1
B
  1
*B
  1
*
  1
*
 70
     0
  1
*
  1
*
  0
XRECORD
  5
D0
102
{ACAD_REACTORS
330
2C
102
}
330
2C
100
AcDbXrecord
280
     1
  1
BACK BAR
  1
BACK*
  1
*
  1
*
 70
     0
  1
*
  1
*
  0
XRECORD
  5
D1
102
{ACAD_REACTORS
330
2C
102
}
330
2C
100
AcDbXrecord
280
     1
  1
BACKBAR
  1
BACKBAR*,2D*
  1
*
  1
*
 70
     0
  1
*
  1
*
  0
XRECORD
  5
D2
102
{ACAD_REACTORS
330
2C
102
}
330
2C
100
AcDbXrecord
280
     1
  1
BANQ'S
  1
BANQ*
  1
*
  1
*
 70
     0
  1
*
  1
*
  0
XRECORD
  5
D3
102
{ACAD_REACTORS
330
2C
102
}
330
2C
100
AcDbXrecord
280
     1
  1
BAR
  1
BAR*
  1
*
  1
*
 70
     0
  1
*
  1
*
  0
XRECORD
  5
D4
102
{ACAD_REACTORS
330
2C
102
}
330
2C
100
AcDbXrecord
280
     1
  1
bar-top
  1
*
  1
*
  1
*
 70
    16
  1
*
  1
*
  0
XRECORD
  5
D5
102
{ACAD_REACTORS
330
2C
102
}
330
2C
100
AcDbXrecord
280
     1
  1
bb
  1
rogarpissu,block
  1
*
  1
*
 70
     0
  1
*
  1
*
  0
XRECORD
  5
D6
102
{ACAD_REACTORS
330
2C
102
}
330
2C
100
AcDbXrecord
280
     1
  1
BDPF5R
  1
*BDPF*5*
  1
*
  1
*
 70
     0
  1
*
  1
*
  0
XRECORD
  5
D7
102
{ACAD_REACTORS
330
2C
102
}
330
2C
100
AcDbXrecord
280
     1
  1
BENCH
  1
BENCH*
  1
*
  1
*
 70
     0
  1
*
  1
*
  0
XRECORD
  5
D8
102
{ACAD_REACTORS
330
2C
102
}
330
2C
100
AcDbXrecord
280
     1
  1
BHWB
  1
*
  1
*
  1
*
 70
     0
  1
*
  1
*
  0
XRECORD
  5
D9
102
{ACAD_REACTORS
330
2C
102
}
330
2C
100
AcDbXrecord
280
     1
  1
blue
  1
*
  1
blue
  1
*
 70
     0
  1
*
  1
*
  0
XRECORD
  5
DA
102
{ACAD_REACTORS
330
2C
102
}
330
2C
100
AcDbXrecord
280
     1
  1
BOUNARY
  1
*BOUND*
  1
*
  1
*
 70
     0
  1
*
  1
*
  0
XRECORD
  5
DB
102
{ACAD_REACTORS
330
2C
102
}
330
2C
100
AcDbXrecord
280
     1
  1
BOUNDARY
  1
*
  1
*
  1
*
 70
    16
  1
*
  1
*
  0
XRECORD
  5
DC
102
{ACAD_REACTORS
330
2C
102
}
330
2C
100
AcDbXrecord
280
     1
  1
boundry-of
  1
*boundry
  1
*
  1
*
 70
     0
  1
*
  1
*
  0
XRECORD
  5
DD
102
{ACAD_REACTORS
330
2C
102
}
330
2C
100
AcDbXrecord
280
     1
  1
BUILDERS WORK
  1
*
  1
*
  1
*
 70
    16
  1
*
  1
*
  0
XRECORD
  5
DE
102
{ACAD_REACTORS
330
2C
102
}
330
2C
100
AcDbXrecord
280
     1
  1
BUILDERS-WORK
  1
*
  1
*
  1
*
 70
    16
  1
*
  1
*
  0
XRECORD
  5
DF
102
{ACAD_REACTORS
330
2C
102
}
330
2C
100
AcDbXrecord
280
     1
  1
BULKHEAD
  1
*BULKHEAD*
  1
*
  1
*
 70
     0
  1
*
  1
*
  0
XRECORD
  5
E0
102
{ACAD_REACTORS
330
2C
102
}
330
2C
100
AcDbXrecord
280
     1
  1
BV-LEASE
  1
*
  1
*
  1
*
 70
     0
  1
*
  1
*
  0
XRECORD
  5
E1
102
{ACAD_REACTORS
330
2C
102
}
330
2C
100
AcDbXrecord
280
     1
  1
bw
  1
a213*
  1
*
  1
*
 70
     0
  1
*
  1
*
  0
XRECORD
  5
E2
102
{ACAD_REACTORS
330
2C
102
}
330
2C
100
AcDbXrecord
280
     1
  1
bzik
  1
*
  1
*
  1
*
 70
   768
  1
*
  1
*
  0
XRECORD
  5
E3
102
{ACAD_REACTORS
330
2C
102
}
330
2C
100
AcDbXrecord
280
     1
  1
c
  1
c-*
  1
*
  1
*
 70
     0
  1
*
  1
*
  0
XRECORD
  5
E4
102
{ACAD_REACTORS
330
2C
102
}
330
2C
100
AcDbXrecord
280
     1
  1
C-
  1
C-*
  1
*
  1
*
 70
     0
  1
*
  1
*
  0
XRECORD
  5
E5
102
{ACAD_REACTORS
330
2C
102
}
330
2C
100
AcDbXrecord
280
     1
  1
C1
  1
*C1*
  1
*
  1
*
 70
     0
  1
*
  1
*
  0
XRECORD
  5
E6
102
{ACAD_REACTORS
330
2C
102
}
330
2C
100
AcDbXrecord
280
     1
  1
CANOPY
  1
CANOPY*
  1
*
  1
*
 70
     0
  1
*
  1
*
  0
XRECORD
  5
E7
102
{ACAD_REACTORS
330
2C
102
}
330
2C
100
AcDbXrecord
280
     1
  1
CART
  1
*CART*
  1
*
  1
*
 70
     0
  1
*
  1
*
  0
XRECORD
  5
E8
102
{ACAD_REACTORS
330
2C
102
}
330
2C
100
AcDbXrecord
280
     1
  1
CC
  1
*
  1
*
  1
*
 70
     1
  1
*
  1
*
  0
XRECORD
  5
E9
102
{ACAD_REACTORS
330
2C
102
}
330
2C
100
AcDbXrecord
280
     1
  1
Ceiling
  1
*clg*
  1
*
  1
*
 70
     0
  1
*
  1
*
  0
XRECORD
  5
EA
102
{ACAD_REACTORS
330
2C
102
}
330
2C
100
AcDbXrecord
280
     1
  1
CEILING LAYOUT
  1
A-CLG-*
  1
*
  1
*
 70
     0
  1
*
  1
*
  0
XRECORD
  5
EB
102
{ACAD_REACTORS
330
2C
102
}
330
2C
100
AcDbXrecord
280
     1
  1
CEILING PLAN
  1
*
  1
*
  1
*
 70
    16
  1
*
  1
*
  0
XRECORD
  5
EC
102
{ACAD_REACTORS
330
2C
102
}
330
2C
100
AcDbXrecord
280
     1
  1
cfp layers
  1
A*
  1
*
  1
*
 70
     0
  1
*
  1
*
  0
XRECORD
  5
ED
102
{ACAD_REACTORS
330
2C
102
}
330
2C
100
AcDbXrecord
280
     1
  1
CLAD
  1
*
  1
*
  1
*
 70
     0
  1
*
  1
*
  0
XRECORD
  5
EE
102
{ACAD_REACTORS
330
2C
102
}
330
2C
100
AcDbXrecord
280
     1
  1
coloour
  1
col*
  1
*
  1
*
 70
     0
  1
*
  1
*
  0
XRECORD
  5
EF
102
{ACAD_REACTORS
330
2C
102
}
330
2C
100
AcDbXrecord
280
     1
  1
colour
  1
col*
  1
*
  1
*
 70
     0
  1
*
  1
*
  0
XRECORD
  5
F0
102
{ACAD_REACTORS
330
2C
102
}
330
2C
100
AcDbXrecord
280
     1
  1
COLOURS
  1
*A080*
  1
*
  1
*
 70
     0
  1
*
  1
*
  0
XRECORD
  5
F1
102
{ACAD_REACTORS
330
2C
102
}
330
2C
100
AcDbXrecord
280
     1
  1
CONC
  1
*CONC*
  1
*
  1
*
 70
     0
  1
*
  1
*
  0
XRECORD
  5
F2
102
{ACAD_REACTORS
330
2C
102
}
330
2C
100
AcDbXrecord
280
     1
  1
CONCR
  1
*CONCR*
  1
*
  1
*
 70
     0
  1
*
  1
*
  0
XRECORD
  5
F3
102
{ACAD_REACTORS
330
2C
102
}
330
2C
100
AcDbXrecord
280
     1
  1
CONSERVITORY
  1
CON*,2D*
  1
*
  1
*
 70
     0
  1
*
  1
*
  0
XRECORD
  5
F4
102
{ACAD_REACTORS
330
2C
102
}
330
2C
100
AcDbXrecord
280
     1
  1
CORIAN
  1
*CORIAN*
  1
*
  1
*
 70
     0
  1
*
  1
*
  0
XRECORD
  5
F5
102
{ACAD_REACTORS
330
2C
102
}
330
2C
100
AcDbXrecord
280
     1
  1
cu dem
  1
dem*
  1
*
  1
*
 70
     0
  1
*
  1
*
  0
XRECORD
  5
F6
102
{ACAD_REACTORS
330
2C
102
}
330
2C
100
AcDbXrecord
280
     1
  1
cu s2
  1
s2*
  1
*
  1
*
 70
     0
  1
*
  1
*
  0
XRECORD
  5
F7
102
{ACAD_REACTORS
330
2C
102
}
330
2C
100
AcDbXrecord
280
     1
  1
cub
  1
*cub*
  1
*
  1
*
 70
     0
  1
*
  1
*
  0
XRECORD
  5
F8
102
{ACAD_REACTORS
330
2C
102
}
330
2C
100
AcDbXrecord
280
     1
  1
CURRENT
  1
*
  1
*
  1
*
 70
    16
  1
*
  1
*
  0
XRECORD
  5
F9
102
{ACAD_REACTORS
330
2C
102
}
330
2C
100
AcDbXrecord
280
     1
  1
CURVED GLASS
  1
*CURVED*
  1
*
  1
*
 70
     0
  1
*
  1
*
  0
XRECORD
  5
FA
102
{ACAD_REACTORS
330
2C
102
}
330
2C
100
AcDbXrecord
280
     1
  1
curved walkway
  1
curved*
  1
*
  1
*
 70
     0
  1
*
  1
*
  0
XRECORD
  5
FB
102
{ACAD_REACTORS
330
2C
102
}
330
2C
100
AcDbXrecord
280
     1
  1
CYAN
  1
*
  1
CYAN
  1
*
 70
     0
  1
*
  1
*
  0
XRECORD
  5
FC
102
{ACAD_REACTORS
330
2C
102
}
330
2C
100
AcDbXrecord
280
     1
  1
D
  1
DUMR
  1
*
  1
*
 70
     0
  1
*
  1
*
  0
XRECORD
  5
FD
102
{ACAD_REACTORS
330
2C
102
}
330
2C
100
AcDbXrecord
280
     1
  1
D1
  1
*D1*
  1
*
  1
*
 70
     0
  1
*
  1
*
  0
XRECORD
  5
FE
102
{ACAD_REACTORS
330
2C
102
}
330
2C
100
AcDbXrecord
280
     1
  1
D_
  1
D_*
  1
*
  1
*
 70
     0
  1
*
  1
*
  0
XRECORD
  5
FF
102
{ACAD_REACTORS
330
2C
102
}
330
2C
100
AcDbXrecord
280
     1
  1
dalaje
  1
dal*
  1
*
  1
*
 70
     0
  1
*
  1
*
  0
XRECORD
  5
100
102
{ACAD_REACTORS
330
2C
102
}
330
2C
100
AcDbXrecord
280
     1
  1
das
  1
*
  1
7
  1
*
 70
     0
  1
*
  1
*
  0
XRECORD
  5
101
102
{ACAD_REACTORS
330
2C
102
}
330
2C
100
AcDbXrecord
280
     1
  1
DAVE
  1
*
  1
*
  1
*
 70
     0
  1
*
  1
*
  0
XRECORD
  5
102
102
{ACAD_REACTORS
330
2C
102
}
330
2C
100
AcDbXrecord
280
     1
  1
demolition
  1
???????8*
  1
*
  1
*
 70
     0
  1
*
  1
*
  0
XRECORD
  5
103
102
{ACAD_REACTORS
330
2C
102
}
330
2C
100
AcDbXrecord
280
     1
  1
demolition work
  1
*
  1
*
  1
*
 70
    16
  1
*
  1
*
  0
XRECORD
  5
104
102
{ACAD_REACTORS
330
2C
102
}
330
2C
100
AcDbXrecord
280
     1
  1
dfd
  1
*
  1
*
  1
*
 70
     0
  1
*
  1
*
  0
XRECORD
  5
105
102
{ACAD_REACTORS
330
2C
102
}
330
2C
100
AcDbXrecord
280
     1
  1
dim
  1
dim*
  1
*
  1
*
 70
     0
  1
*
  1
*
  0
XRECORD
  5
106
102
{ACAD_REACTORS
330
2C
102
}
330
2C
100
AcDbXrecord
280
     1
  1
dim11
  1
dim11*
  1
*
  1
*
 70
     0
  1
*
  1
*
  0
XRECORD
  5
107
102
{ACAD_REACTORS
330
2C
102
}
330
2C
100
AcDbXrecord
280
     1
  1
dim12
  1
dim12*
  1
*
  1
*
 70
     0
  1
*
  1
*
  0
XRECORD
  5
108
102
{ACAD_REACTORS
330
2C
102
}
330
2C
100
AcDbXrecord
280
     1
  1
Dimensions
  1
?????d*
  1
*
  1
*
 70
     1
  1
*
  1
*
  0
XRECORD
  5
109
102
{ACAD_REACTORS
330
2C
102
}
330
2C
100
AcDbXrecord
280
     1
  1
dims
  1
*dims*
  1
*
  1
*
 70
     0
  1
*
  1
*
  0
XRECORD
  5
10A
102
{ACAD_REACTORS
330
2C
102
}
330
2C
100
AcDbXrecord
280
     1
  1
DN
  1
DN*
  1
*
  1
*
 70
     0
  1
*
  1
*
  0
XRECORD
  5
10B
102
{ACAD_REACTORS
330
2C
102
}
330
2C
100
AcDbXrecord
280
     1
  1
DOM
  1
DOM*
  1
*
  1
*
 70
     0
  1
*
  1
*
  0
XRECORD
  5
10C
102
{ACAD_REACTORS
330
2C
102
}
330
2C
100
AcDbXrecord
280
     1
  1
Don't plot
  1
*
  1
*
  1
*
 70
  3072
  1
*
  1
*
  0
XRECORD
  5
10D
102
{ACAD_REACTORS
330
2C
102
}
330
2C
100
AcDbXrecord
280
     1
  1
DOOR
  1
*DOOR*
  1
*
  1
*
 70
     0
  1
*
  1
*
  0
XRECORD
  5
10E
102
{ACAD_REACTORS
330
2C
102
}
330
2C
100
AcDbXrecord
280
     1
  1
Drain
  1
d*
  1
*
  1
*
 70
     0
  1
*
  1
*
  0
XRECORD
  5
10F
102
{ACAD_REACTORS
330
2C
102
}
330
2C
100
AcDbXrecord
280
     1
  1
drains
  1
*dra*
  1
*
  1
*
 70
     0
  1
*
  1
*
  0
XRECORD
  5
110
102
{ACAD_REACTORS
330
2C
102
}
330
2C
100
AcDbXrecord
280
     1
  1
DSD
  1
*720G*
  1
*
  1
*
 70
     0
  1
*
  1
*
  0
XRECORD
  5
111
102
{ACAD_REACTORS
330
2C
102
}
330
2C
100
AcDbXrecord
280
     1
  1
Ductwork
  1
*Duct*
  1
*
  1
*
 70
     0
  1
*
  1
*
  0
XRECORD
  5
112
102
{ACAD_REACTORS
330
2C
102
}
330
2C
100
AcDbXrecord
280
     1
  1
E - LAYERS
  1
*E_*
  1
*
  1
*
 70
     0
  1
*
  1
*
  0
XRECORD
  5
113
102
{ACAD_REACTORS
330
2C
102
}
330
2C
100
AcDbXrecord
280
     1
  1
E1
  1
*E1*
  1
*
  1
*
 70
     0
  1
*
  1
*
  0
XRECORD
  5
114
102
{ACAD_REACTORS
330
2C
102
}
330
2C
100
AcDbXrecord
280
     1
  1
E2
  1
*E2*
  1
*
  1
*
 70
     0
  1
*
  1
*
  0
XRECORD
  5
115
102
{ACAD_REACTORS
330
2C
102
}
330
2C
100
AcDbXrecord
280
     1
  1
E3
  1
*E3*
  1
*
  1
*
 70
     0
  1
*
  1
*
  0
XRECORD
  5
116
102
{ACAD_REACTORS
330
2C
102
}
330
2C
100
AcDbXrecord
280
     1
  1
E4
  1
*E4*
  1
*
  1
*
 70
     0
  1
*
  1
*
  0
XRECORD
  5
117
102
{ACAD_REACTORS
330
2C
102
}
330
2C
100
AcDbXrecord
280
     1
  1
EDDIE
  1
*EDDIE*
  1
*
  1
*
 70
     0
  1
*
  1
*
  0
XRECORD
  5
118
102
{ACAD_REACTORS
330
2C
102
}
330
2C
100
AcDbXrecord
280
     1
  1
EI PLOTI
  1
*
  1
*
  1
*
 70
  3072
  1
*
  1
*
  0
XRECORD
  5
119
102
{ACAD_REACTORS
330
2C
102
}
330
2C
100
AcDbXrecord
280
     1
  1
eiplo
  1
*
  1
*
  1
*
 70
  3072
  1
*
  1
*
  0
XRECORD
  5
11A
102
{ACAD_REACTORS
330
2C
102
}
330
2C
100
AcDbXrecord
280
     1
  1
EIplot
  1
*
  1
*
  1
*
 70
  3072
  1
*
  1
*
  0
XRECORD
  5
11B
102
{ACAD_REACTORS
330
2C
102
}
330
2C
100
AcDbXrecord
280
     1
  1
EKSEN
  1
*EKS*
  1
*
  1
*
 70
     0
  1
*
  1
*
  0
XRECORD
  5
11C
102
{ACAD_REACTORS
330
2C
102
}
330
2C
100
AcDbXrecord
280
     1
  1
ELEC
  1
E*
  1
*
  1
*
 70
     0
  1
*
  1
*
  0
XRECORD
  5
11D
102
{ACAD_REACTORS
330
2C
102
}
330
2C
100
AcDbXrecord
280
     1
  1
ELEVATION
  1
ELE*
  1
*
  1
*
 70
     0
  1
*
  1
*
  0
XRECORD
  5
11E
102
{ACAD_REACTORS
330
2C
102
}
330
2C
100
AcDbXrecord
280
     1
  1
elevations
  1
A-ELEV-*
  1
*
  1
*
 70
     0
  1
*
  1
*
  0
XRECORD
  5
11F
102
{ACAD_REACTORS
330
2C
102
}
330
2C
100
AcDbXrecord
280
     1
  1
endview
  1
*endview*
  1
*
  1
*
 70
     0
  1
*
  1
*
  0
XRECORD
  5
120
102
{ACAD_REACTORS
330
2C
102
}
330
2C
100
AcDbXrecord
280
     1
  1
entrance
  1
ent*
  1
*
  1
*
 70
     0
  1
*
  1
*
  0
XRECORD
  5
121
102
{ACAD_REACTORS
330
2C
102
}
330
2C
100
AcDbXrecord
280
     1
  1
esam
  1
*
  1
*
  1
*
 70
     0
  1
*
  1
*
  0
XRECORD
  5
122
102
{ACAD_REACTORS
330
2C
102
}
330
2C
100
AcDbXrecord
280
     1
  1
et trykkida välja
  1
*
  1
*
  1
*
 70
     0
  1
*
  1
*
  0
XRECORD
  5
123
102
{ACAD_REACTORS
330
2C
102
}
330
2C
100
AcDbXrecord
280
     1
  1
exg imported
  1
B*
  1
*
  1
*
 70
     0
  1
*
  1
*
  0
XRECORD
  5
124
102
{ACAD_REACTORS
330
2C
102
}
330
2C
100
AcDbXrecord
280
     1
  1
EXISTING
  1
EX_PLN_0
  1
*
  1
*
 70
     0
  1
*
  1
*
  0
XRECORD
  5
125
102
{ACAD_REACTORS
330
2C
102
}
330
2C
100
AcDbXrecord
280
     1
  1
F
  1
*
  1
*
  1
*
 70
     4
  1
*
  1
*
  0
XRECORD
  5
126
102
{ACAD_REACTORS
330
2C
102
}
330
2C
100
AcDbXrecord
280
     1
  1
FEATURE
  1
FEATURE*
  1
*
  1
*
 70
     0
  1
*
  1
*
  0
XRECORD
  5
127
102
{ACAD_REACTORS
330
2C
102
}
330
2C
100
AcDbXrecord
280
     1
  1
FENCE
  1
*FENCE*
  1
*
  1
*
 70
     0
  1
*
  1
*
  0
XRECORD
  5
128
102
{ACAD_REACTORS
330
2C
102
}
330
2C
100
AcDbXrecord
280
     1
  1
FINISH
  1
*FINISH
  1
*
  1
*
 70
     0
  1
*
  1
*
  0
XRECORD
  5
129
102
{ACAD_REACTORS
330
2C
102
}
330
2C
100
AcDbXrecord
280
     1
  1
finishes
  1
*finishes*
  1
*
  1
*
 70
     0
  1
*
  1
*
  0
XRECORD
  5
12A
102
{ACAD_REACTORS
330
2C
102
}
330
2C
100
AcDbXrecord
280
     1
  1
FINISHES PLAN
  1
*
  1
*
  1
*
 70
    16
  1
*
  1
*
  0
XRECORD
  5
12B
102
{ACAD_REACTORS
330
2C
102
}
330
2C
100
AcDbXrecord
280
     1
  1
FINISHES PLANS
  1
*
  1
*
  1
*
 70
    16
  1
*
  1
*
  0
XRECORD
  5
12C
102
{ACAD_REACTORS
330
2C
102
}
330
2C
100
AcDbXrecord
280
     1
  1
FIRE
  1
*
  1
*
  1
*
 70
    16
  1
*
  1
*
  0
XRECORD
  5
12D
102
{ACAD_REACTORS
330
2C
102
}
330
2C
100
AcDbXrecord
280
     1
  1
FIRE PLAN
  1
*
  1
*
  1
*
 70
     4
  1
*
  1
*
  0
XRECORD
  5
12E
102
{ACAD_REACTORS
330
2C
102
}
330
2C
100
AcDbXrecord
280
     1
  1
Fire strategy
  1
Fire*
  1
*
  1
*
 70
     0
  1
*
  1
*
  0
XRECORD
  5
12F
102
{ACAD_REACTORS
330
2C
102
}
330
2C
100
AcDbXrecord
280
     1
  1
FIRST FLOOR
  1
*-01
  1
*
  1
*
 70
     0
  1
*
  1
*
  0
XRECORD
  5
130
102
{ACAD_REACTORS
330
2C
102
}
330
2C
100
AcDbXrecord
280
     1
  1
First to Roof
  1
*F-R*
  1
*
  1
*
 70
     0
  1
*
  1
*
  0
XRECORD
  5
131
102
{ACAD_REACTORS
330
2C
102
}
330
2C
100
AcDbXrecord
280
     1
  1
FLAT GLASS
  1
*FLAT*
  1
*
  1
*
 70
     0
  1
*
  1
*
  0
XRECORD
  5
132
102
{ACAD_REACTORS
330
2C
102
}
330
2C
100
AcDbXrecord
280
     1
  1
FLOOR
  1
FLOOR*
  1
*
  1
*
 70
     0
  1
*
  1
*
  0
XRECORD
  5
133
102
{ACAD_REACTORS
330
2C
102
}
330
2C
100
AcDbXrecord
280
     1
  1
FLOOR PLAN
  1
A-FLR-*
  1
*
  1
*
 70
     0
  1
*
  1
*
  0
XRECORD
  5
134
102
{ACAD_REACTORS
330
2C
102
}
330
2C
100
AcDbXrecord
280
     1
  1
FR
  1
*
  1
*
  1
*
 70
     4
  1
*
  1
*
  0
XRECORD
  5
135
102
{ACAD_REACTORS
330
2C
102
}
330
2C
100
AcDbXrecord
280
     1
  1
Fragment 2
  1
*
  1
*
  1
*
 70
     0
  1
*
  1
*
  0
XRECORD
  5
136
102
{ACAD_REACTORS
330
2C
102
}
330
2C
100
AcDbXrecord
280
     1
  1
freeze
  1
*
  1
*
  1
*
 70
     4
  1
*
  1
*
  0
XRECORD
  5
137
102
{ACAD_REACTORS
330
2C
102
}
330
2C
100
AcDbXrecord
280
     1
  1
FROS CUR VPORT
  1
LUCIEN
  1
*
  1
*
 70
    16
  1
*
  1
*
  0
XRECORD
  5
138
102
{ACAD_REACTORS
330
2C
102
}
330
2C
100
AcDbXrecord
280
     1
  1
FROZ
  1
*
  1
*
  1
*
 70
     4
  1
*
  1
*
  0
XRECORD
  5
139
102
{ACAD_REACTORS
330
2C
102
}
330
2C
100
AcDbXrecord
280
     1
  1
FROZ CUR VPORT
  1
*
  1
*
  1
*
 70
    16
  1
*
  1
*
  0
XRECORD
  5
13A
102
{ACAD_REACTORS
330
2C
102
}
330
2C
100
AcDbXrecord
280
     1
  1
FROZ IN CURENT
  1
*
  1
*
  1
*
 70
    16
  1
*
  1
*
  0
XRECORD
  5
13B
102
{ACAD_REACTORS
330
2C
102
}
330
2C
100
AcDbXrecord
280
     1
  1
frozen
  1
*
  1
*
  1
*
 70
     4
  1
*
  1
*
  0
XRECORD
  5
13C
102
{ACAD_REACTORS
330
2C
102
}
330
2C
100
AcDbXrecord
280
     1
  1
frozen Layers
  1
*
  1
*
  1
*
 70
     4
  1
*
  1
*
  0
XRECORD
  5
13D
102
{ACAD_REACTORS
330
2C
102
}
330
2C
100
AcDbXrecord
280
     1
  1
FRZ
  1
*
  1
*
  1
*
 70
     4
  1
*
  1
*
  0
XRECORD
  5
13E
102
{ACAD_REACTORS
330
2C
102
}
330
2C
100
AcDbXrecord
280
     1
  1
Furniture
  1
f*
  1
*
  1
*
 70
     0
  1
*
  1
*
  0
XRECORD
  5
13F
102
{ACAD_REACTORS
330
2C
102
}
330
2C
100
AcDbXrecord
280
     1
  1
furntext
  1
*t2
  1
*
  1
*
 70
     0
  1
*
  1
*
  0
XRECORD
  5
140
102
{ACAD_REACTORS
330
2C
102
}
330
2C
100
AcDbXrecord
280
     1
  1
furntext1
  1
*t1
  1
*
  1
*
 70
     0
  1
*
  1
*
  0
XRECORD
  5
141
102
{ACAD_REACTORS
330
2C
102
}
330
2C
100
AcDbXrecord
280
     1
  1
furntext2
  1
*t2
  1
*
  1
*
 70
     0
  1
*
  1
*
  0
XRECORD
  5
142
102
{ACAD_REACTORS
330
2C
102
}
330
2C
100
AcDbXrecord
280
     1
  1
furntext3
  1
*t3
  1
*
  1
*
 70
     0
  1
*
  1
*
  0
XRECORD
  5
143
102
{ACAD_REACTORS
330
2C
102
}
330
2C
100
AcDbXrecord
280
     1
  1
FY
  1
*
  1
*
  1
*
 70
     0
  1
*
  1
*
  0
XRECORD
  5
144
102
{ACAD_REACTORS
330
2C
102
}
330
2C
100
AcDbXrecord
280
     1
  1
g
  1
g*
  1
*
  1
*
 70
     0
  1
*
  1
*
  0
XRECORD
  5
145
102
{ACAD_REACTORS
330
2C
102
}
330
2C
100
AcDbXrecord
280
     1
  1
GA
  1
*
  1
*
  1
*
 70
     0
  1
*
  1
*
  0
XRECORD
  5
146
102
{ACAD_REACTORS
330
2C
102
}
330
2C
100
AcDbXrecord
280
     1
  1
ga plan
  1
*
  1
*
  1
*
 70
    16
  1
*
  1
*
  0
XRECORD
  5
147
102
{ACAD_REACTORS
330
2C
102
}
330
2C
100
AcDbXrecord
280
     1
  1
GAMCO
  1
GAM*
  1
*
  1
*
 70
     0
  1
*
  1
*
  0
XRECORD
  5
148
102
{ACAD_REACTORS
330
2C
102
}
330
2C
100
AcDbXrecord
280
     1
  1
General
  1
y*
  1
*
  1
*
 70
     0
  1
*
  1
*
  0
XRECORD
  5
149
102
{ACAD_REACTORS
330
2C
102
}
330
2C
100
AcDbXrecord
280
     1
  1
geo
  1
geo*
  1
*
  1
*
 70
     0
  1
*
  1
*
  0
XRECORD
  5
14A
102
{ACAD_REACTORS
330
2C
102
}
330
2C
100
AcDbXrecord
280
     1
  1
geodeesia
  1
geo*
  1
*
  1
*
 70
     0
  1
*
  1
*
  0
XRECORD
  5
14B
102
{ACAD_REACTORS
330
2C
102
}
330
2C
100
AcDbXrecord
280
     1
  1
git
  1
*
  1
magenta
  1
*
 70
     0
  1
*
  1
*
  0
XRECORD
  5
14C
102
{ACAD_REACTORS
330
2C
102
}
330
2C
100
AcDbXrecord
280
     1
  1
GLASS
  1
*GLASS*
  1
*
  1
*
 70
     0
  1
*
  1
*
  0
XRECORD
  5
14D
102
{ACAD_REACTORS
330
2C
102
}
330
2C
100
AcDbXrecord
280
     1
  1
GLASS RACK
  1
GLASSRACK*
  1
*
  1
*
 70
     0
  1
*
  1
*
  0
XRECORD
  5
14E
102
{ACAD_REACTORS
330
2C
102
}
330
2C
100
AcDbXrecord
280
     1
  1
gondola
  1
*
  1
*
  1
*
 70
     0
  1
*
  1
*
  0
XRECORD
  5
14F
102
{ACAD_REACTORS
330
2C
102
}
330
2C
100
AcDbXrecord
280
     1
  1
gp
  1
gp*
  1
*
  1
*
 70
     0
  1
*
  1
*
  0
XRECORD
  5
150
102
{ACAD_REACTORS
330
2C
102
}
330
2C
100
AcDbXrecord
280
     1
  1
gp- ära
  1
gp
  1
*
  1
*
 70
     3
  1
*
  1
*
  0
XRECORD
  5
151
102
{ACAD_REACTORS
330
2C
102
}
330
2C
100
AcDbXrecord
280
     1
  1
GREEN
  1
*
  1
GREEN
  1
*
 70
     0
  1
*
  1
*
  0
XRECORD
  5
152
102
{ACAD_REACTORS
330
2C
102
}
330
2C
100
AcDbXrecord
280
     1
  1
GREET
  1
GREET*
  1
*
  1
*
 70
     0
  1
*
  1
*
  0
XRECORD
  5
153
102
{ACAD_REACTORS
330
2C
102
}
330
2C
100
AcDbXrecord
280
     1
  1
grey
  1
*
  1
8
  1
*
 70
     0
  1
*
  1
*
  0
XRECORD
  5
154
102
{ACAD_REACTORS
330
2C
102
}
330
2C
100
AcDbXrecord
280
     1
  1
grid
  1
1784grid-g$0$*
  1
*
  1
*
 70
     0
  1
*
  1
*
  0
XRECORD
  5
155
102
{ACAD_REACTORS
330
2C
102
}
330
2C
100
AcDbXrecord
280
     1
  1
GRID 0FF
  1
*032G
  1
*
  1
*
 70
     0
  1
*
  1
*
  0
XRECORD
  5
156
102
{ACAD_REACTORS
330
2C
102
}
330
2C
100
AcDbXrecord
280
     1
  1
grids
  1
*032g
  1
*
  1
*
 70
     0
  1
*
  1
*
  0
XRECORD
  5
157
102
{ACAD_REACTORS
330
2C
102
}
330
2C
100
AcDbXrecord
280
     1
  1
gridtext102
  1
*
  1
*
  1
*
 70
     0
  1
*
  1
*
  0
XRECORD
  5
158
102
{ACAD_REACTORS
330
2C
102
}
330
2C
100
AcDbXrecord
280
     1
  1
grnd
  1
1784grnd$0$*
  1
*
  1
*
 70
     0
  1
*
  1
*
  0
XRECORD
  5
159
102
{ACAD_REACTORS
330
2C
102
}
330
2C
100
AcDbXrecord
280
     1
  1
GROUND FLOOR
  1
*-00
  1
*
  1
*
 70
     0
  1
*
  1
*
  0
XRECORD
  5
15A
102
{ACAD_REACTORS
330
2C
102
}
330
2C
100
AcDbXrecord
280
     1
  1
Ground to First
  1
*G-F*
  1
*
  1
*
 70
     0
  1
*
  1
*
  0
XRECORD
  5
15B
102
{ACAD_REACTORS
330
2C
102
}
330
2C
100
AcDbXrecord
280
     1
  1
Ground to Roof
  1
*G-R*
  1
*
  1
*
 70
     0
  1
*
  1
*
  0
XRECORD
  5
15C
102
{ACAD_REACTORS
330
2C
102
}
330
2C
100
AcDbXrecord
280
     1
  1
HAIRDRESSER
  1
HD*
  1
*
  1
*
 70
     0
  1
*
  1
*
  0
XRECORD
  5
15D
102
{ACAD_REACTORS
330
2C
102
}
330
2C
100
AcDbXrecord
280
     1
  1
haljastus
  1
ha*
  1
*
  1
*
 70
     0
  1
*
  1
*
  0
XRECORD
  5
15E
102
{ACAD_REACTORS
330
2C
102
}
330
2C
100
AcDbXrecord
280
     1
  1
hand
  1
*rail*
  1
*
  1
*
 70
     0
  1
*
  1
*
  0
XRECORD
  5
15F
102
{ACAD_REACTORS
330
2C
102
}
330
2C
100
AcDbXrecord
280
     1
  1
HARDWARE
  1
*HARD*
  1
*
  1
*
 70
     0
  1
*
  1
*
  0
XRECORD
  5
160
102
{ACAD_REACTORS
330
2C
102
}
330
2C
100
AcDbXrecord
280
     1
  1
HAT
  1
*HAT*
  1
*
  1
*
 70
     0
  1
*
  1
*
  0
XRECORD
  5
161
102
{ACAD_REACTORS
330
2C
102
}
330
2C
100
AcDbXrecord
280
     1
  1
hatch
  1
*
  1
*
  1
*
 70
    23
  1
*
  1
*
  0
XRECORD
  5
162
102
{ACAD_REACTORS
330
2C
102
}
330
2C
100
AcDbXrecord
280
     1
  1
hatch-off
  1
*hatch
  1
*
  1
*
 70
     3
  1
*
  1
*
  0
XRECORD
  5
163
102
{ACAD_REACTORS
330
2C
102
}
330
2C
100
AcDbXrecord
280
     1
  1
hoonestuskava
  1
hk*
  1
*
  1
*
 70
     0
  1
*
  1
*
  0
XRECORD
  5
164
102
{ACAD_REACTORS
330
2C
102
}
330
2C
100
AcDbXrecord
280
     1
  1
HVAC
  1
H*
  1
*
  1
*
 70
     0
  1
*
  1
*
  0
XRECORD
  5
165
102
{ACAD_REACTORS
330
2C
102
}
330
2C
100
AcDbXrecord
280
     1
  1
iden
  1
*iden
  1
*
  1
*
 70
     0
  1
*
  1
*
  0
XRECORD
  5
166
102
{ACAD_REACTORS
330
2C
102
}
330
2C
100
AcDbXrecord
280
     1
  1
INDICATE THICK LINE OF BULKHEAD
  1
*
  1
*
  1
*
 70
    16
  1
*
  1
*
  0
XRECORD
  5
167
102
{ACAD_REACTORS
330
2C
102
}
330
2C
100
AcDbXrecord
280
     1
  1
insulation
  1
*
  1
*
  1
*
 70
     0
  1
*
  1
*
  0
XRECORD
  5
168
102
{ACAD_REACTORS
330
2C
102
}
330
2C
100
AcDbXrecord
280
     1
  1
jack
  1
~*#
  1
*
  1
*
 70
     0
  1
*
  1
*
  0
XRECORD
  5
169
102
{ACAD_REACTORS
330
2C
102
}
330
2C
100
AcDbXrecord
280
     1
  1
JBHGVHG
  1
BAR*
  1
*
  1
*
 70
     0
  1
*
  1
*
  0
XRECORD
  5
16A
102
{ACAD_REACTORS
330
2C
102
}
330
2C
100
AcDbXrecord
280
     1
  1
JETO
  1
0
  1
*
  1
*
 70
     0
  1
*
  1
*
  0
XRECORD
  5
16B
102
{ACAD_REACTORS
330
2C
102
}
330
2C
100
AcDbXrecord
280
     1
  1
jhd
  1
jhd*
  1
*
  1
*
 70
     0
  1
*
  1
*
  0
XRECORD
  5
16C
102
{ACAD_REACTORS
330
2C
102
}
330
2C
100
AcDbXrecord
280
     1
  1
John-Harrison
  1
W-M-T-*
  1
*
  1
*
 70
     0
  1
*
  1
*
  0
XRECORD
  5
16D
102
{ACAD_REACTORS
330
2C
102
}
330
2C
100
AcDbXrecord
280
     1
  1
JOINERE SETTING OUT
  1
*
  1
*
  1
*
 70
    16
  1
*
  1
*
  0
XRECORD
  5
16E
102
{ACAD_REACTORS
330
2C
102
}
330
2C
100
AcDbXrecord
280
     1
  1
KASUTUSEL
  1
*
  1
*
  1
*
 70
    13
  1
*
  1
*
  0
XRECORD
  5
16F
102
{ACAD_REACTORS
330
2C
102
}
330
2C
100
AcDbXrecord
280
     1
  1
katus
  1
katus *
  1
*
  1
*
 70
     0
  1
*
  1
*
  0
XRECORD
  5
170
102
{ACAD_REACTORS
330
2C
102
}
330
2C
100
AcDbXrecord
280
     1
  1
KATUSEPLAAN
  1
KATUS
  1
*
  1
*
 70
     0
  1
*
  1
*
  0
XRECORD
  5
171
102
{ACAD_REACTORS
330
2C
102
}
330
2C
100
AcDbXrecord
280
     1
  1
KAYDIRAKLAR
  1
KAY*
  1
*
  1
*
 70
     0
  1
*
  1
*
  0
XRECORD
  5
172
102
{ACAD_REACTORS
330
2C
102
}
330
2C
100
AcDbXrecord
280
     1
  1
kaylar
  1
*kay*
  1
*
  1
*
 70
     0
  1
*
  1
*
  0
XRECORD
  5
173
102
{ACAD_REACTORS
330
2C
102
}
330
2C
100
AcDbXrecord
280
     1
  1
KENARLAR
  1
*KENAR
  1
*
  1
*
 70
     0
  1
*
  1
*
  0
XRECORD
  5
174
102
{ACAD_REACTORS
330
2C
102
}
330
2C
100
AcDbXrecord
280
     1
  1
kiitoks
  1
kit*
  1
*
  1
*
 70
     0
  1
*
  1
*
  0
XRECORD
  5
175
102
{ACAD_REACTORS
330
2C
102
}
330
2C
100
AcDbXrecord
280
     1
  1
KINNI
  1
*
  1
*
  1
*
 70
     3
  1
*
  1
*
  0
XRECORD
  5
176
102
{ACAD_REACTORS
330
2C
102
}
330
2C
100
AcDbXrecord
280
     1
  1
KIRJANURK
  1
KN *
  1
*
  1
*
 70
     0
  1
*
  1
*
  0
XRECORD
  5
177
102
{ACAD_REACTORS
330
2C
102
}
330
2C
100
AcDbXrecord
280
     1
  1
kitas
  1
k-*
  1
*
  1
*
 70
     0
  1
*
  1
*
  0
XRECORD
  5
178
102
{ACAD_REACTORS
330
2C
102
}
330
2C
100
AcDbXrecord
280
     1
  1
KITCHEN
  1
KITCHEN*
  1
*
  1
*
 70
     0
  1
*
  1
*
  0
XRECORD
  5
179
102
{ACAD_REACTORS
330
2C
102
}
330
2C
100
AcDbXrecord
280
     1
  1
KITCHEN PLAN
  1
*
  1
*
  1
*
 70
    16
  1
*
  1
*
  0
XRECORD
  5
17A
102
{ACAD_REACTORS
330
2C
102
}
330
2C
100
AcDbXrecord
280
     1
  1
KITCHEN SETTING OUT
  1
*
  1
*
  1
*
 70
    16
  1
*
  1
*
  0
XRECORD
  5
17B
102
{ACAD_REACTORS
330
2C
102
}
330
2C
100
AcDbXrecord
280
     1
  1
KONSOLLAR
  1
KONSOL*
  1
*
  1
*
 70
     0
  1
*
  1
*
  0
XRECORD
  5
17C
102
{ACAD_REACTORS
330
2C
102
}
330
2C
100
AcDbXrecord
280
     1
  1
Koondvõrk
  1
*
  1
*
  1
*
 70
     0
  1
*
  1
*
  0
XRECORD
  5
17D
102
{ACAD_REACTORS
330
2C
102
}
330
2C
100
AcDbXrecord
280
     1
  1
koord
  1
*koord*
  1
*
  1
*
 70
     0
  1
*
  1
*
  0
XRECORD
  5
17E
102
{ACAD_REACTORS
330
2C
102
}
330
2C
100
AcDbXrecord
280
     1
  1
kr
  1
kr*
  1
*
  1
*
 70
     0
  1
*
  1
*
  0
XRECORD
  5
17F
102
{ACAD_REACTORS
330
2C
102
}
330
2C
100
AcDbXrecord
280
     1
  1
L
  1
LUCIEN
  1
*
  1
*
 70
     0
  1
*
  1
*
  0
XRECORD
  5
180
102
{ACAD_REACTORS
330
2C
102
}
330
2C
100
AcDbXrecord
280
     1
  1
LABIEKARTOJUMS
  1
LB*
  1
*
  1
*
 70
     0
  1
*
  1
*
  0
XRECORD
  5
181
102
{ACAD_REACTORS
330
2C
102
}
330
2C
100
AcDbXrecord
280
     1
  1
LAHTI
  1
*
  1
*
  1
*
 70
     1
  1
*
  1
*
  0
XRECORD
  5
182
102
{ACAD_REACTORS
330
2C
102
}
330
2C
100
AcDbXrecord
280
     1
  1
Layer off
  1
*
  1
*
  1
*
 70
     3
  1
*
  1
*
  0
XRECORD
  5
183
102
{ACAD_REACTORS
330
2C
102
}
330
2C
100
AcDbXrecord
280
     1
  1
LIBRARY
  1
LIBRARY*
  1
*
  1
*
 70
     0
  1
*
  1
*
  0
XRECORD
  5
184
102
{ACAD_REACTORS
330
2C
102
}
330
2C
100
AcDbXrecord
280
     1
  1
licencing
  1
*
  1
*
  1
*
 70
    16
  1
*
  1
*
  0
XRECORD
  5
185
102
{ACAD_REACTORS
330
2C
102
}
330
2C
100
AcDbXrecord
280
     1
  1
lift
  1
lift*
  1
*
  1
*
 70
     0
  1
*
  1
*
  0
XRECORD
  5
186
102
{ACAD_REACTORS
330
2C
102
}
330
2C
100
AcDbXrecord
280
     1
  1
LIGHT
  1
LIGHT*
  1
*
  1
*
 70
     0
  1
*
  1
*
  0
XRECORD
  5
187
102
{ACAD_REACTORS
330
2C
102
}
330
2C
100
AcDbXrecord
280
     1
  1
Lighting
  1
light*
  1
*
  1
*
 70
     0
  1
*
  1
*
  0
XRECORD
  5
188
102
{ACAD_REACTORS
330
2C
102
}
330
2C
100
AcDbXrecord
280
     1
  1
liik
  1
liik*
  1
*
  1
*
 70
     0
  1
*
  1
*
  0
XRECORD
  5
189
102
{ACAD_REACTORS
330
2C
102
}
330
2C
100
AcDbXrecord
280
     1
  1
LINII
  1
LINI*
  1
*
  1
*
 70
     0
  1
*
  1
*
  0
XRECORD
  5
18A
102
{ACAD_REACTORS
330
2C
102
}
330
2C
100
AcDbXrecord
280
     1
  1
lk
  1
*
  1
*
  1
*
 70
   256
  1
*
  1
*
  0
XRECORD
  5
18B
102
{ACAD_REACTORS
330
2C
102
}
330
2C
100
AcDbXrecord
280
     1
  1
LOBBY
  1
LOBBY*
  1
*
  1
*
 70
     0
  1
*
  1
*
  0
XRECORD
  5
18C
102
{ACAD_REACTORS
330
2C
102
}
330
2C
100
AcDbXrecord
280
     1
  1
LOBBY AND OFFICE
  1
LOBBY*,OFFICE
  1
*
  1
*
 70
     0
  1
*
  1
*
  0
XRECORD
  5
18D
102
{ACAD_REACTORS
330
2C
102
}
330
2C
100
AcDbXrecord
280
     1
  1
LOCK
  1
-*
  1
*
  1
*
 70
   256
  1
*
  1
*
  0
XRECORD
  5
18E
102
{ACAD_REACTORS
330
2C
102
}
330
2C
100
AcDbXrecord
280
     1
  1
locked
  1
*
  1
*
  1
*
 70
   256
  1
*
  1
*
  0
XRECORD
  5
18F
102
{ACAD_REACTORS
330
2C
102
}
330
2C
100
AcDbXrecord
280
     1
  1
LUKKU
  1
*
  1
*
  1
*
 70
   257
  1
*
  1
*
  0
XRECORD
  5
190
102
{ACAD_REACTORS
330
2C
102
}
330
2C
100
AcDbXrecord
280
     1
  1
LÕIGE
  1
LÕIGE *
  1
*
  1
*
 70
     0
  1
*
  1
*
  0
XRECORD
  5
191
102
{ACAD_REACTORS
330
2C
102
}
330
2C
100
AcDbXrecord
280
     1
  1
M1
  1
*M1*
  1
*
  1
*
 70
     0
  1
*
  1
*
  0
XRECORD
  5
192
102
{ACAD_REACTORS
330
2C
102
}
330
2C
100
AcDbXrecord
280
     1
  1
magenta
  1
*
  1
magenta
  1
*
 70
     0
  1
*
  1
*
  0
XRECORD
  5
193
102
{ACAD_REACTORS
330
2C
102
}
330
2C
100
AcDbXrecord
280
     1
  1
Magna2000
  1
MAGNA2000$*
  1
*
  1
*
 70
     0
  1
*
  1
*
  0
XRECORD
  5
194
102
{ACAD_REACTORS
330
2C
102
}
330
2C
100
AcDbXrecord
280
     1
  1
MDM1
  1
X0*
  1
*
  1
*
 70
   775
  1
*
  1
*
  0
XRECORD
  5
195
102
{ACAD_REACTORS
330
2C
102
}
330
2C
100
AcDbXrecord
280
     1
  1
mech
  1
*mech*
  1
*
  1
*
 70
     0
  1
*
  1
*
  0
XRECORD
  5
196
102
{ACAD_REACTORS
330
2C
102
}
330
2C
100
AcDbXrecord
280
     1
  1
MECHANICAL
  1
*MECH*
  1
*
  1
*
 70
     0
  1
*
  1
*
  0
XRECORD
  5
197
102
{ACAD_REACTORS
330
2C
102
}
330
2C
100
AcDbXrecord
280
     1
  1
MEMBRANE
  1
*
  1
*
  1
*
 70
     0
  1
*
  1
*
  0
XRECORD
  5
198
102
{ACAD_REACTORS
330
2C
102
}
330
2C
100
AcDbXrecord
280
     1
  1
moje
  1
A *, PS*
  1
*
  1
*
 70
     0
  1
*
  1
*
  0
XRECORD
  5
199
102
{ACAD_REACTORS
330
2C
102
}
330
2C
100
AcDbXrecord
280
     1
  1
N
  1
N_*
  1
*
  1
*
 70
     0
  1
*
  1
*
  0
XRECORD
  5
19A
102
{ACAD_REACTORS
330
2C
102
}
330
2C
100
AcDbXrecord
280
     1
  1
N_
  1
N_*
  1
*
  1
*
 70
     0
  1
*
  1
*
  0
XRECORD
  5
19B
102
{ACAD_REACTORS
330
2C
102
}
330
2C
100
AcDbXrecord
280
     1
  1
ncw
  1
*
  1
*red
  1
*
 70
     0
  1
*
  1
*
  0
XRECORD
  5
19C
102
{ACAD_REACTORS
330
2C
102
}
330
2C
100
AcDbXrecord
280
     1
  1
NERO
  1
NERO*
  1
*
  1
*
 70
     0
  1
*
  1
*
  0
XRECORD
  5
19D
102
{ACAD_REACTORS
330
2C
102
}
330
2C
100
AcDbXrecord
280
     1
  1
No Nums
  1
~*#
  1
*
  1
*
 70
     0
  1
*
  1
*
  0
XRECORD
  5
19E
102
{ACAD_REACTORS
330
2C
102
}
330
2C
100
AcDbXrecord
280
     1
  1
nofurn
  1
*_1,2,3
  1
*
  1
*
 70
     0
  1
*
  1
*
  0
XRECORD
  5
19F
102
{ACAD_REACTORS
330
2C
102
}
330
2C
100
AcDbXrecord
280
     1
  1
nofurn1
  1
*_2
  1
*
  1
*
 70
     0
  1
*
  1
*
  0
XRECORD
  5
1A0
102
{ACAD_REACTORS
330
2C
102
}
330
2C
100
AcDbXrecord
280
     1
  1
nofurn2
  1
*_3
  1
*
  1
*
 70
     0
  1
*
  1
*
  0
XRECORD
  5
1A1
102
{ACAD_REACTORS
330
2C
102
}
330
2C
100
AcDbXrecord
280
     1
  1
NON XREF DEPENDANTS
  1
*DEMO*
  1
*
  1
*
 70
     0
  1
*
  1
*
  0
XRECORD
  5
1A2
102
{ACAD_REACTORS
330
2C
102
}
330
2C
100
AcDbXrecord
280
     1
  1
Nosuc
  1
N_*
  1
*
  1
*
 70
     0
  1
*
  1
*
  0
XRECORD
  5
1A3
102
{ACAD_REACTORS
330
2C
102
}
330
2C
100
AcDbXrecord
280
     1
  1
npl
  1
*
  1
*
  1
*
 70
  3072
  1
*
  1
*
  0
XRECORD
  5
1A4
102
{ACAD_REACTORS
330
2C
102
}
330
2C
100
AcDbXrecord
280
     1
  1
nurgapu
  1
*
  1
*
  1
*
 70
    13
  1
*
  1
*
  0
XRECORD
  5
1A5
102
{ACAD_REACTORS
330
2C
102
}
330
2C
100
AcDbXrecord
280
     1
  1
nõrkvool
  1
arvuti
  1
*
  1
*
 70
     0
  1
*
  1
*
  0
XRECORD
  5
1A6
102
{ACAD_REACTORS
330
2C
102
}
330
2C
100
AcDbXrecord
280
     1
  1
off
  1
*
  1
*
  1
*
 70
     3
  1
*
  1
*
  0
XRECORD
  5
1A7
102
{ACAD_REACTORS
330
2C
102
}
330
2C
100
AcDbXrecord
280
     1
  1
OFFICE
  1
*OFFICE*
  1
*
  1
*
 70
     0
  1
*
  1
*
  0
XRECORD
  5
1A8
102
{ACAD_REACTORS
330
2C
102
}
330
2C
100
AcDbXrecord
280
     1
  1
OFFICE FIRST FLOOR
  1
*-01
  1
*
  1
*
 70
     0
  1
*
  1
*
  0
XRECORD
  5
1A9
102
{ACAD_REACTORS
330
2C
102
}
330
2C
100
AcDbXrecord
280
     1
  1
on
  1
*
  1
*
  1
*
 70
     1
  1
*
  1
*
  0
XRECORD
  5
1AA
102
{ACAD_REACTORS
330
2C
102
}
330
2C
100
AcDbXrecord
280
     1
  1
on and thawed
  1
*
  1
*
  1
*
 70
    13
  1
*
  1
*
  0
XRECORD
  5
1AB
102
{ACAD_REACTORS
330
2C
102
}
330
2C
100
AcDbXrecord
280
     1
  1
onlayers
  1
*
  1
*
  1
*
 70
    13
  1
*
  1
*
  0
XRECORD
  5
1AC
102
{ACAD_REACTORS
330
2C
102
}
330
2C
100
AcDbXrecord
280
     1
  1
OP1
  1
*op1*
  1
*
  1
*
 70
     0
  1
*
  1
*
  0
XRECORD
  5
1AD
102
{ACAD_REACTORS
330
2C
102
}
330
2C
100
AcDbXrecord
280
     1
  1
OP2
  1
*op2*
  1
*
  1
*
 70
     0
  1
*
  1
*
  0
XRECORD
  5
1AE
102
{ACAD_REACTORS
330
2C
102
}
330
2C
100
AcDbXrecord
280
     1
  1
option 1
  1
1*
  1
*
  1
*
 70
     0
  1
*
  1
*
  0
XRECORD
  5
1AF
102
{ACAD_REACTORS
330
2C
102
}
330
2C
100
AcDbXrecord
280
     1
  1
option 2
  1
2*
  1
*
  1
*
 70
     0
  1
*
  1
*
  0
XRECORD
  5
1B0
102
{ACAD_REACTORS
330
2C
102
}
330
2C
100
AcDbXrecord
280
     1
  1
Option1
  1
A210G704_walls Internal
  1
*
  1
*
 70
     0
  1
*
  1
*
  0
XRECORD
  5
1B1
102
{ACAD_REACTORS
330
2C
102
}
330
2C
100
AcDbXrecord
280
     1
  1
option4
  1
option4*
  1
*
  1
*
 70
     0
  1
*
  1
*
  0
XRECORD
  5
1B2
102
{ACAD_REACTORS
330
2C
102
}
330
2C
100
AcDbXrecord
280
     1
  1
Option5
  1
??????05*
  1
*
  1
*
 70
     0
  1
*
  1
*
  0
XRECORD
  5
1B3
102
{ACAD_REACTORS
330
2C
102
}
330
2C
100
AcDbXrecord
280
     1
  1
ORIGINAL
  1
*
  1
*
  1
*
 70
    13
  1
*
  1
*
  0
XRECORD
  5
1B4
102
{ACAD_REACTORS
330
2C
102
}
330
2C
100
AcDbXrecord
280
     1
  1
out
  1
*out*
  1
*
  1
*
 70
     0
  1
*
  1
*
  0
XRECORD
  5
1B5
102
{ACAD_REACTORS
330
2C
102
}
330
2C
100
AcDbXrecord
280
     1
  1
Outer
  1
ert*
  1
*
  1
*
 70
     0
  1
*
  1
*
  0
XRECORD
  5
1B6
102
{ACAD_REACTORS
330
2C
102
}
330
2C
100
AcDbXrecord
280
     1
  1
outline
  1
*outline
  1
*
  1
*
 70
     0
  1
*
  1
*
  0
XRECORD
  5
1B7
102
{ACAD_REACTORS
330
2C
102
}
330
2C
100
AcDbXrecord
280
     1
  1
P
  1
P *
  1
*
  1
*
 70
     0
  1
*
  1
*
  0
XRECORD
  5
1B8
102
{ACAD_REACTORS
330
2C
102
}
330
2C
100
AcDbXrecord
280
     1
  1
P - LAYERS
  1
*P_*
  1
*
  1
*
 70
     0
  1
*
  1
*
  0
XRECORD
  5
1B9
102
{ACAD_REACTORS
330
2C
102
}
330
2C
100
AcDbXrecord
280
     1
  1
P _
  1
*P_*
  1
*
  1
*
 70
     0
  1
*
  1
*
  0
XRECORD
  5
1BA
102
{ACAD_REACTORS
330
2C
102
}
330
2C
100
AcDbXrecord
280
     1
  1
P-LAYERS
  1
*P_*
  1
*
  1
*
 70
     0
  1
*
  1
*
  0
XRECORD
  5
1BB
102
{ACAD_REACTORS
330
2C
102
}
330
2C
100
AcDbXrecord
280
     1
  1
PH
  1
PH*
  1
*
  1
*
 70
     0
  1
*
  1
*
  0
XRECORD
  5
1BC
102
{ACAD_REACTORS
330
2C
102
}
330
2C
100
AcDbXrecord
280
     1
  1
phase 1
  1
*01
  1
*
  1
*
 70
     0
  1
*
  1
*
  0
XRECORD
  5
1BD
102
{ACAD_REACTORS
330
2C
102
}
330
2C
100
AcDbXrecord
280
     1
  1
PHEALTH
  1
P-*
  1
*
  1
*
 70
     0
  1
*
  1
*
  0
XRECORD
  5
1BE
102
{ACAD_REACTORS
330
2C
102
}
330
2C
100
AcDbXrecord
280
     1
  1
PHIL
  1
*
  1
*
  1
*
 70
    16
  1
*
  1
*
  0
XRECORD
  5
1BF
102
{ACAD_REACTORS
330
2C
102
}
330
2C
100
AcDbXrecord
280
     1
  1
Piepl
  1
P_*
  1
*
  1
*
 70
     0
  1
*
  1
*
  0
XRECORD
  5
1C0
102
{ACAD_REACTORS
330
2C
102
}
330
2C
100
AcDbXrecord
280
     1
  1
PIPE
  1
P-*
  1
*
  1
*
 70
     0
  1
*
  1
*
  0
XRECORD
  5
1C1
102
{ACAD_REACTORS
330
2C
102
}
330
2C
100
AcDbXrecord
280
     1
  1
pipes
  1
pipe*
  1
*
  1
*
 70
     0
  1
*
  1
*
  0
XRECORD
  5
1C2
102
{ACAD_REACTORS
330
2C
102
}
330
2C
100
AcDbXrecord
280
     1
  1
Pipes1
  1
pipes1*
  1
*
  1
*
 70
     0
  1
*
  1
*
  0
XRECORD
  5
1C3
102
{ACAD_REACTORS
330
2C
102
}
330
2C
100
AcDbXrecord
280
     1
  1
Pipework
  1
*Pipe*
  1
*
  1
*
 70
     0
  1
*
  1
*
  0
XRECORD
  5
1C4
102
{ACAD_REACTORS
330
2C
102
}
330
2C
100
AcDbXrecord
280
     1
  1
pirmas
  1
K-*
  1
*
  1
*
 70
     0
  1
*
  1
*
  0
XRECORD
  5
1C5
102
{ACAD_REACTORS
330
2C
102
}
330
2C
100
AcDbXrecord
280
     1
  1
PIZZA
  1
PIZZA*,2D*
  1
*
  1
*
 70
     0
  1
*
  1
*
  0
XRECORD
  5
1C6
102
{ACAD_REACTORS
330
2C
102
}
330
2C
100
AcDbXrecord
280
     1
  1
pk 2d-plan
  1
*
  1
*
  1
*
 70
     3
  1
*
  1
*
  0
XRECORD
  5
1C7
102
{ACAD_REACTORS
330
2C
102
}
330
2C
100
AcDbXrecord
280
     1
  1
pl
  1
*
  1
*
  1
*
 70
  1024
  1
*
  1
*
  0
XRECORD
  5
1C8
102
{ACAD_REACTORS
330
2C
102
}
330
2C
100
AcDbXrecord
280
     1
  1
PL1
  1
PAUL
  1
*
  1
*
 70
     0
  1
*
  1
*
  0
XRECORD
  5
1C9
102
{ACAD_REACTORS
330
2C
102
}
330
2C
100
AcDbXrecord
280
     1
  1
PLAKALAR
  1
PLAKA*
  1
*
  1
*
 70
     0
  1
*
  1
*
  0
XRECORD
  5
1CA
102
{ACAD_REACTORS
330
2C
102
}
330
2C
100
AcDbXrecord
280
     1
  1
planas
  1
k-*
  1
*
  1
*
 70
     0
  1
*
  1
*
  0
XRECORD
  5
1CB
102
{ACAD_REACTORS
330
2C
102
}
330
2C
100
AcDbXrecord
280
     1
  1
PLINTH
  1
*PLINTH*
  1
*
  1
*
 70
     0
  1
*
  1
*
  0
XRECORD
  5
1CC
102
{ACAD_REACTORS
330
2C
102
}
330
2C
100
AcDbXrecord
280
     1
  1
PLINTHS
  1
*PLINTH*
  1
*
  1
*
 70
     0
  1
*
  1
*
  0
XRECORD
  5
1CD
102
{ACAD_REACTORS
330
2C
102
}
330
2C
100
AcDbXrecord
280
     1
  1
PLO
  1
*
  1
*
  1
*
 70
  1036
  1
*
  1
*
  0
XRECORD
  5
1CE
102
{ACAD_REACTORS
330
2C
102
}
330
2C
100
AcDbXrecord
280
     1
  1
plot
  1
*
  1
*
  1
*
 70
  1024
  1
*
  1
*
  0
XRECORD
  5
1CF
102
{ACAD_REACTORS
330
2C
102
}
330
2C
100
AcDbXrecord
280
     1
  1
plumbing
  1
*plumbing*
  1
*
  1
*
 70
     0
  1
*
  1
*
  0
XRECORD
  5
1D0
102
{ACAD_REACTORS
330
2C
102
}
330
2C
100
AcDbXrecord
280
     1
  1
PN
  1
PN_*
  1
*
  1
*
 70
     0
  1
*
  1
*
  0
XRECORD
  5
1D1
102
{ACAD_REACTORS
330
2C
102
}
330
2C
100
AcDbXrecord
280
     1
  1
PN_N
  1
PN_*N
  1
*
  1
*
 70
     0
  1
*
  1
*
  0
XRECORD
  5
1D2
102
{ACAD_REACTORS
330
2C
102
}
330
2C
100
AcDbXrecord
280
     1
  1
PN_P
  1
PN_*P
  1
*
  1
*
 70
     0
  1
*
  1
*
  0
XRECORD
  5
1D3
102
{ACAD_REACTORS
330
2C
102
}
330
2C
100
AcDbXrecord
280
     1
  1
porch
  1
porch*
  1
*
  1
*
 70
     0
  1
*
  1
*
  0
XRECORD
  5
1D4
102
{ACAD_REACTORS
330
2C
102
}
330
2C
100
AcDbXrecord
280
     1
  1
Power
  1
Power*
  1
*
  1
*
 70
     0
  1
*
  1
*
  0
XRECORD
  5
1D5
102
{ACAD_REACTORS
330
2C
102
}
330
2C
100
AcDbXrecord
280
     1
  1
PR
  1
X-NIVEL1*
  1
10
  1
*
 70
    13
  1
*
  1
*
  0
XRECORD
  5
1D6
102
{ACAD_REACTORS
330
2C
102
}
330
2C
100
AcDbXrecord
280
     1
  1
PR-TRASSID
  1
pr-*
  1
*
  1
*
 70
     0
  1
*
  1
*
  0
XRECORD
  5
1D7
102
{ACAD_REACTORS
330
2C
102
}
330
2C
100
AcDbXrecord
280
     1
  1
prep
  1
*prep*
  1
*
  1
*
 70
     0
  1
*
  1
*
  0
XRECORD
  5
1D8
102
{ACAD_REACTORS
330
2C
102
}
330
2C
100
AcDbXrecord
280
     1
  1
primary
  1
*primary*
  1
*
  1
*
 70
     0
  1
*
  1
*
  0
XRECORD
  5
1D9
102
{ACAD_REACTORS
330
2C
102
}
330
2C
100
AcDbXrecord
280
     1
  1
proj
  1
pr*
  1
*
  1
*
 70
     0
  1
*
  1
*
  0
XRECORD
  5
1DA
102
{ACAD_REACTORS
330
2C
102
}
330
2C
100
AcDbXrecord
280
     1
  1
proj-trassid
  1
pr*
  1
*
  1
*
 70
     0
  1
*
  1
*
  0
XRECORD
  5
1DB
102
{ACAD_REACTORS
330
2C
102
}
330
2C
100
AcDbXrecord
280
     1
  1
PROP
  1
PROP *
  1
*
  1
*
 70
     0
  1
*
  1
*
  0
XRECORD
  5
1DC
102
{ACAD_REACTORS
330
2C
102
}
330
2C
100
AcDbXrecord
280
     1
  1
prop builders work
  1
*
  1
*
  1
*
 70
    16
  1
*
  1
*
  0
XRECORD
  5
1DD
102
{ACAD_REACTORS
330
2C
102
}
330
2C
100
AcDbXrecord
280
     1
  1
proposed
  1
???????5*
  1
*
  1
*
 70
     0
  1
*
  1
*
  0
XRECORD
  5
1DE
102
{ACAD_REACTORS
330
2C
102
}
330
2C
100
AcDbXrecord
280
     1
  1
ps
  1
*ps
  1
*
  1
*
 70
     0
  1
*
  1
*
  0
XRECORD
  5
1DF
102
{ACAD_REACTORS
330
2C
102
}
330
2C
100
AcDbXrecord
280
     1
  1
PU
  1
PU *
  1
*
  1
*
 70
     0
  1
*
  1
*
  0
XRECORD
  5
1E0
102
{ACAD_REACTORS
330
2C
102
}
330
2C
100
AcDbXrecord
280
     1
  1
qq
  1
02bu*
  1
*
  1
*
 70
     0
  1
*
  1
*
  0
XRECORD
  5
1E1
102
{ACAD_REACTORS
330
2C
102
}
330
2C
100
AcDbXrecord
280
     1
  1
r
  1
11*
  1
*
  1
*
 70
     0
  1
*
  1
*
  0
XRECORD
  5
1E2
102
{ACAD_REACTORS
330
2C
102
}
330
2C
100
AcDbXrecord
280
     1
  1
R0
  1
*R0*
  1
*
  1
*
 70
     0
  1
*
  1
*
  0
XRECORD
  5
1E3
102
{ACAD_REACTORS
330
2C
102
}
330
2C
100
AcDbXrecord
280
     1
  1
R1
  1
*R1*
  1
*
  1
*
 70
     0
  1
*
  1
*
  0
XRECORD
  5
1E4
102
{ACAD_REACTORS
330
2C
102
}
330
2C
100
AcDbXrecord
280
     1
  1
R2
  1
*R2*
  1
*
  1
*
 70
     0
  1
*
  1
*
  0
XRECORD
  5
1E5
102
{ACAD_REACTORS
330
2C
102
}
330
2C
100
AcDbXrecord
280
     1
  1
R3
  1
*R3*
  1
*
  1
*
 70
     0
  1
*
  1
*
  0
XRECORD
  5
1E6
102
{ACAD_REACTORS
330
2C
102
}
330
2C
100
AcDbXrecord
280
     1
  1
rack
  1
*rack*
  1
*
  1
*
 70
     0
  1
*
  1
*
  0
XRECORD
  5
1E7
102
{ACAD_REACTORS
330
2C
102
}
330
2C
100
AcDbXrecord
280
     1
  1
RCP
  1
A-CLG-*
  1
*
  1
*
 70
     0
  1
*
  1
*
  0
XRECORD
  5
1E8
102
{ACAD_REACTORS
330
2C
102
}
330
2C
100
AcDbXrecord
280
     1
  1
RED
  1
*
  1
RED
  1
*
 70
     0
  1
*
  1
*
  0
XRECORD
  5
1E9
102
{ACAD_REACTORS
330
2C
102
}
330
2C
100
AcDbXrecord
280
     1
  1
reds
  1
*
  1
red
  1
*
 70
     0
  1
*
  1
*
  0
XRECORD
  5
1EA
102
{ACAD_REACTORS
330
2C
102
}
330
2C
100
AcDbXrecord
280
     1
  1
ref ceiling
  1
*
  1
*
  1
*
 70
    16
  1
*
  1
*
  0
XRECORD
  5
1EB
102
{ACAD_REACTORS
330
2C
102
}
330
2C
100
AcDbXrecord
280
     1
  1
ref ceiling 1
  1
*
  1
*
  1
*
 70
    16
  1
*
  1
*
  0
XRECORD
  5
1EC
102
{ACAD_REACTORS
330
2C
102
}
330
2C
100
AcDbXrecord
280
     1
  1
REFLECTED CEILING PLAN
  1
*
  1
*
  1
*
 70
    16
  1
*
  1
*
  0
XRECORD
  5
1ED
102
{ACAD_REACTORS
330
2C
102
}
330
2C
100
AcDbXrecord
280
     1
  1
REI ainult
  1
REI-
  1
*
  1
*
 70
     1
  1
*
  1
*
  0
XRECORD
  5
1EE
102
{ACAD_REACTORS
330
2C
102
}
330
2C
100
AcDbXrecord
280
     1
  1
RELECTED CEILING PLAN 012
  1
*
  1
*
  1
*
 70
    16
  1
*
  1
*
  0
XRECORD
  5
1EF
102
{ACAD_REACTORS
330
2C
102
}
330
2C
100
AcDbXrecord
280
     1
  1
REST
  1
REST*
  1
*
  1
*
 70
     0
  1
*
  1
*
  0
XRECORD
  5
1F0
102
{ACAD_REACTORS
330
2C
102
}
330
2C
100
AcDbXrecord
280
     1
  1
restaurant
  1
rest*
  1
*
  1
*
 70
     0
  1
*
  1
*
  0
XRECORD
  5
1F1
102
{ACAD_REACTORS
330
2C
102
}
330
2C
100
AcDbXrecord
280
     1
  1
rev
  1
*revc*
  1
*
  1
*
 70
     0
  1
*
  1
*
  0
XRECORD
  5
1F2
102
{ACAD_REACTORS
330
2C
102
}
330
2C
100
AcDbXrecord
280
     1
  1
Revs
  1
r*
  1
*
  1
*
 70
     0
  1
*
  1
*
  0
XRECORD
  5
1F3
102
{ACAD_REACTORS
330
2C
102
}
330
2C
100
AcDbXrecord
280
     1
  1
ROHELINE
  1
*
  1
GREEN
  1
*
 70
     0
  1
*
  1
*
  0
XRECORD
  5
1F4
102
{ACAD_REACTORS
330
2C
102
}
330
2C
100
AcDbXrecord
280
     1
  1
ROOFLIGHT
  1
ROOFLIGHT*
  1
*
  1
*
 70
     0
  1
*
  1
*
  0
XRECORD
  5
1F5
102
{ACAD_REACTORS
330
2C
102
}
330
2C
100
AcDbXrecord
280
     1
  1
rsfl
  1
a33*
  1
*
  1
*
 70
     0
  1
*
  1
*
  0
XRECORD
  5
1F6
102
{ACAD_REACTORS
330
2C
102
}
330
2C
100
AcDbXrecord
280
     1
  1
s
  1
s-*
  1
*
  1
*
 70
     0
  1
*
  1
*
  0
XRECORD
  5
1F7
102
{ACAD_REACTORS
330
2C
102
}
330
2C
100
AcDbXrecord
280
     1
  1
S - LAYERS
  1
*S_*
  1
*
  1
*
 70
     0
  1
*
  1
*
  0
XRECORD
  5
1F8
102
{ACAD_REACTORS
330
2C
102
}
330
2C
100
AcDbXrecord
280
     1
  1
s 1
  1
*
  1
7
  1
*
 70
     0
  1
*
  1
*
  0
XRECORD
  5
1F9
102
{ACAD_REACTORS
330
2C
102
}
330
2C
100
AcDbXrecord
280
     1
  1
saldymas
  1
*
  1
*
  1
*
 70
     0
  1
*
  1
*
  0
XRECORD
  5
1FA
102
{ACAD_REACTORS
330
2C
102
}
330
2C
100
AcDbXrecord
280
     1
  1
san
  1
*san*
  1
*
  1
*
 70
     0
  1
*
  1
*
  0
XRECORD
  5
1FB
102
{ACAD_REACTORS
330
2C
102
}
330
2C
100
AcDbXrecord
280
     1
  1
SANDSTONE
  1
SAND*
  1
*
  1
*
 70
     0
  1
*
  1
*
  0
XRECORD
  5
1FC
102
{ACAD_REACTORS
330
2C
102
}
330
2C
100
AcDbXrecord
280
     1
  1
sanitary
  1
*san*
  1
*
  1
*
 70
     0
  1
*
  1
*
  0
XRECORD
  5
1FD
102
{ACAD_REACTORS
330
2C
102
}
330
2C
100
AcDbXrecord
280
     1
  1
SCALE 100 TEXT
  1
*F
  1
*
  1
*
 70
     0
  1
*
  1
*
  0
XRECORD
  5
1FE
102
{ACAD_REACTORS
330
2C
102
}
330
2C
100
AcDbXrecord
280
     1
  1
SCALE 200 TEXT
  1
*G
  1
*
  1
*
 70
     0
  1
*
  1
*
  0
XRECORD
  5
1FF
102
{ACAD_REACTORS
330
2C
102
}
330
2C
100
AcDbXrecord
280
     1
  1
SCALE 50 TEXT
  1
*E
  1
*
  1
*
 70
     0
  1
*
  1
*
  0
XRECORD
  5
200
102
{ACAD_REACTORS
330
2C
102
}
330
2C
100
AcDbXrecord
280
     1
  1
screed plan
  1
*
  1
*
  1
*
 70
    16
  1
*
  1
*
  0
XRECORD
  5
201
102
{ACAD_REACTORS
330
2C
102
}
330
2C
100
AcDbXrecord
280
     1
  1
SEC
  1
*sec*
  1
*
  1
*
 70
     0
  1
*
  1
*
  0
XRECORD
  5
202
102
{ACAD_REACTORS
330
2C
102
}
330
2C
100
AcDbXrecord
280
     1
  1
secondary
  1
*secondary*
  1
*
  1
*
 70
     0
  1
*
  1
*
  0
XRECORD
  5
203
102
{ACAD_REACTORS
330
2C
102
}
330
2C
100
AcDbXrecord
280
     1
  1
section
  1
sec*
  1
*
  1
*
 70
     0
  1
*
  1
*
  0
XRECORD
  5
204
102
{ACAD_REACTORS
330
2C
102
}
330
2C
100
AcDbXrecord
280
     1
  1
SELF SERVICE
  1
*SELF SERV*
  1
*
  1
*
 70
     0
  1
*
  1
*
  0
XRECORD
  5
205
102
{ACAD_REACTORS
330
2C
102
}
330
2C
100
AcDbXrecord
280
     1
  1
servery
  1
servery*
  1
*
  1
*
 70
     0
  1
*
  1
*
  0
XRECORD
  5
206
102
{ACAD_REACTORS
330
2C
102
}
330
2C
100
AcDbXrecord
280
     1
  1
SERVICES
  1
00*
  1
*
  1
*
 70
     0
  1
*
  1
*
  0
XRECORD
  5
207
102
{ACAD_REACTORS
330
2C
102
}
330
2C
100
AcDbXrecord
280
     1
  1
SF
  1
SF*
  1
*
  1
*
 70
     0
  1
*
  1
*
  0
XRECORD
  5
208
102
{ACAD_REACTORS
330
2C
102
}
330
2C
100
AcDbXrecord
280
     1
  1
shadow
  1
*shadow
  1
*
  1
*
 70
     0
  1
*
  1
*
  0
XRECORD
  5
209
102
{ACAD_REACTORS
330
2C
102
}
330
2C
100
AcDbXrecord
280
     1
  1
shadow-off
  1
*SHADOW
  1
*
  1
*
 70
     0
  1
*
  1
*
  0
XRECORD
  5
20A
102
{ACAD_REACTORS
330
2C
102
}
330
2C
100
AcDbXrecord
280
     1
  1
SHELF
  1
*SHEL*
  1
*
  1
*
 70
    12
  1
*
  1
*
  0
XRECORD
  5
20B
102
{ACAD_REACTORS
330
2C
102
}
330
2C
100
AcDbXrecord
280
     1
  1
SHELVES
  1
*SHEL*
  1
*
  1
*
 70
     0
  1
*
  1
*
  0
XRECORD
  5
20C
102
{ACAD_REACTORS
330
2C
102
}
330
2C
100
AcDbXrecord
280
     1
  1
shema
  1
*shema
  1
*
  1
*
 70
     0
  1
*
  1
*
  0
XRECORD
  5
20D
102
{ACAD_REACTORS
330
2C
102
}
330
2C
100
AcDbXrecord
280
     1
  1
sienos
  1
Sie*
  1
*
  1
*
 70
     0
  1
*
  1
*
  0
XRECORD
  5
20E
102
{ACAD_REACTORS
330
2C
102
}
330
2C
100
AcDbXrecord
280
     1
  1
SIGNAGE
  1
*
  1
*
  1
*
 70
     0
  1
*
  1
*
  0
XRECORD
  5
20F
102
{ACAD_REACTORS
330
2C
102
}
330
2C
100
AcDbXrecord
280
     1
  1
SINBLU
  1
*
  1
blue
  1
*
 70
     0
  1
*
  1
*
  0
XRECORD
  5
210
102
{ACAD_REACTORS
330
2C
102
}
330
2C
100
AcDbXrecord
280
     1
  1
Sinergy
  1
_*
  1
*
  1
*
 70
     0
  1
*
  1
*
  0
XRECORD
  5
211
102
{ACAD_REACTORS
330
2C
102
}
330
2C
100
AcDbXrecord
280
     1
  1
SININE
  1
*
  1
BLUE
  1
*
 70
     0
  1
*
  1
*
  0
XRECORD
  5
212
102
{ACAD_REACTORS
330
2C
102
}
330
2C
100
AcDbXrecord
280
     1
  1
SININE1
  1
*
  1
BLUE
  1
*
 70
     0
  1
*
  1
*
  0
XRECORD
  5
213
102
{ACAD_REACTORS
330
2C
102
}
330
2C
100
AcDbXrecord
280
     1
  1
SIT
  1
SIT*
  1
*
  1
*
 70
     0
  1
*
  1
*
  0
XRECORD
  5
214
102
{ACAD_REACTORS
330
2C
102
}
330
2C
100
AcDbXrecord
280
     1
  1
SITE
  1
SITE*
  1
*
  1
*
 70
     0
  1
*
  1
*
  0
XRECORD
  5
215
102
{ACAD_REACTORS
330
2C
102
}
330
2C
100
AcDbXrecord
280
     1
  1
siyah
  1
*
  1
*
  1
*
 70
     4
  1
*
  1
siyah
  0
XRECORD
  5
216
102
{ACAD_REACTORS
330
2C
102
}
330
2C
100
AcDbXrecord
280
     1
  1
skersinis
  1
Sk*
  1
*
  1
*
 70
     0
  1
*
  1
*
  0
XRECORD
  5
217
102
{ACAD_REACTORS
330
2C
102
}
330
2C
100
AcDbXrecord
280
     1
  1
solid
  1
*hatch*
  1
*
  1
*
 70
     0
  1
*
  1
*
  0
XRECORD
  5
218
102
{ACAD_REACTORS
330
2C
102
}
330
2C
100
AcDbXrecord
280
     1
  1
solid fills
  1
*-h
  1
*
  1
*
 70
     0
  1
*
  1
*
  0
XRECORD
  5
219
102
{ACAD_REACTORS
330
2C
102
}
330
2C
100
AcDbXrecord
280
     1
  1
SPIRAL
  1
SPIRAL*
  1
*
  1
*
 70
     0
  1
*
  1
*
  0
XRECORD
  5
21A
102
{ACAD_REACTORS
330
2C
102
}
330
2C
100
AcDbXrecord
280
     1
  1
SPOTLIGHTS
  1
SPOT*
  1
*
  1
*
 70
     0
  1
*
  1
*
  0
XRECORD
  5
21B
102
{ACAD_REACTORS
330
2C
102
}
330
2C
100
AcDbXrecord
280
     1
  1
stairs
  1
*240*
  1
*
  1
*
 70
     0
  1
*
  1
*
  0
XRECORD
  5
21C
102
{ACAD_REACTORS
330
2C
102
}
330
2C
100
AcDbXrecord
280
     1
  1
standard
  1
*###
  1
*
  1
*
 70
     0
  1
*
  1
*
  0
XRECORD
  5
21D
102
{ACAD_REACTORS
330
2C
102
}
330
2C
100
AcDbXrecord
280
     1
  1
stoły
  1
MU*
  1
*
  1
*
 70
     0
  1
*
  1
*
  0
XRECORD
  5
21E
102
{ACAD_REACTORS
330
2C
102
}
330
2C
100
AcDbXrecord
280
     1
  1
Stru
  1
s-*
  1
*
  1
*
 70
     0
  1
*
  1
*
  0
XRECORD
  5
21F
102
{ACAD_REACTORS
330
2C
102
}
330
2C
100
AcDbXrecord
280
     1
  1
Structure
  1
s*
  1
*
  1
*
 70
     0
  1
*
  1
*
  0
XRECORD
  5
220
102
{ACAD_REACTORS
330
2C
102
}
330
2C
100
AcDbXrecord
280
     1
  1
STRUT
  1
*STRUT*
  1
*
  1
*
 70
     0
  1
*
  1
*
  0
XRECORD
  5
221
102
{ACAD_REACTORS
330
2C
102
}
330
2C
100
AcDbXrecord
280
     1
  1
STUBS
  1
*STUB*
  1
*
  1
*
 70
     0
  1
*
  1
*
  0
XRECORD
  5
222
102
{ACAD_REACTORS
330
2C
102
}
330
2C
100
AcDbXrecord
280
     1
  1
SUFLATORI
  1
*
  1
*
  1
*
 70
     1
  1
*
  1
*
  0
XRECORD
  5
223
102
{ACAD_REACTORS
330
2C
102
}
330
2C
100
AcDbXrecord
280
     1
  1
surv
  1
1784surv$0$*
  1
*
  1
*
 70
     0
  1
*
  1
*
  0
XRECORD
  5
224
102
{ACAD_REACTORS
330
2C
102
}
330
2C
100
AcDbXrecord
280
     1
  1
SURVEY
  1
*
  1
*
  1
*
 70
     0
  1
*
  1
*
  0
XRECORD
  5
225
102
{ACAD_REACTORS
330
2C
102
}
330
2C
100
AcDbXrecord
280
     1
  1
Susanne
  1
310,40,41,70,910,913,921,930,940
  1
*
  1
*
 70
     7
  1
*
  1
*
  0
XRECORD
  5
226
102
{ACAD_REACTORS
330
2C
102
}
330
2C
100
AcDbXrecord
280
     1
  1
SWEET
  1
SWEET*
  1
*
  1
*
 70
     0
  1
*
  1
*
  0
XRECORD
  5
227
102
{ACAD_REACTORS
330
2C
102
}
330
2C
100
AcDbXrecord
280
     1
  1
SYNERGY
  1
SYN-*
  1
*
  1
*
 70
     0
  1
*
  1
*
  0
XRECORD
  5
228
102
{ACAD_REACTORS
330
2C
102
}
330
2C
100
AcDbXrecord
280
     1
  1
T1
  1
00#
  1
*
  1
*
 70
     0
  1
*
  1
*
  0
XRECORD
  5
229
102
{ACAD_REACTORS
330
2C
102
}
330
2C
100
AcDbXrecord
280
     1
  1
TABLE
  1
*TABLE
  1
*
  1
*
 70
     0
  1
*
  1
*
  0
XRECORD
  5
22A
102
{ACAD_REACTORS
330
2C
102
}
330
2C
100
AcDbXrecord
280
     1
  1
tags
  1
*220t
  1
*
  1
*
 70
     0
  1
*
  1
*
  0
XRECORD
  5
22B
102
{ACAD_REACTORS
330
2C
102
}
330
2C
100
AcDbXrecord
280
     1
  1
TEACH
  1
TEACH*
  1
*
  1
*
 70
     0
  1
*
  1
*
  0
XRECORD
  5
22C
102
{ACAD_REACTORS
330
2C
102
}
330
2C
100
AcDbXrecord
280
     1
  1
test
  1
*E1*
  1
*
  1
*
 70
     1
  1
*
  1
*
  0
XRECORD
  5
22D
102
{ACAD_REACTORS
330
2C
102
}
330
2C
100
AcDbXrecord
280
     1
  1
TEXT
  1
*TEXT*
  1
*
  1
*
 70
     0
  1
*
  1
*
  0
XRECORD
  5
22E
102
{ACAD_REACTORS
330
2C
102
}
330
2C
100
AcDbXrecord
280
     1
  1
TH
  1
*
  1
*
  1
*
 70
    12
  1
*
  1
*
  0
XRECORD
  5
22F
102
{ACAD_REACTORS
330
2C
102
}
330
2C
100
AcDbXrecord
280
     1
  1
thaw
  1
*
  1
*
  1
*
 70
    12
  1
*
  1
*
  0
XRECORD
  5
230
102
{ACAD_REACTORS
330
2C
102
}
330
2C
100
AcDbXrecord
280
     1
  1
thawed
  1
*
  1
*
  1
*
 70
    12
  1
*
  1
*
  0
XRECORD
  5
231
102
{ACAD_REACTORS
330
2C
102
}
330
2C
100
AcDbXrecord
280
     1
  1
THP
  1
THP*
  1
*
  1
*
 70
     0
  1
*
  1
*
  0
XRECORD
  5
232
102
{ACAD_REACTORS
330
2C
102
}
330
2C
100
AcDbXrecord
280
     1
  1
tjp
  1
tjp*
  1
*
  1
*
 70
     0
  1
*
  1
*
  0
XRECORD
  5
233
102
{ACAD_REACTORS
330
2C
102
}
330
2C
100
AcDbXrecord
280
     1
  1
tone
  1
tone*
  1
*
  1
*
 70
     0
  1
*
  1
*
  0
XRECORD
  5
234
102
{ACAD_REACTORS
330
2C
102
}
330
2C
100
AcDbXrecord
280
     1
  1
TOP
  1
*TOP*
  1
*
  1
*
 70
     0
  1
*
  1
*
  0
XRECORD
  5
235
102
{ACAD_REACTORS
330
2C
102
}
330
2C
100
AcDbXrecord
280
     1
  1
Topo
  1
REI*
  1
*
  1
*
 70
     0
  1
*
  1
*
  0
XRECORD
  5
236
102
{ACAD_REACTORS
330
2C
102
}
330
2C
100
AcDbXrecord
280
     1
  1
tr
  1
tr*
  1
*
  1
*
 70
     0
  1
*
  1
*
  0
XRECORD
  5
237
102
{ACAD_REACTORS
330
2C
102
}
330
2C
100
AcDbXrecord
280
     1
  1
trassid
  1
tr*
  1
*
  1
*
 70
     0
  1
*
  1
*
  0
XRECORD
  5
238
102
{ACAD_REACTORS
330
2C
102
}
330
2C
100
AcDbXrecord
280
     1
  1
trassid-txt
  1
ttxt*
  1
*
  1
*
 70
     0
  1
*
  1
*
  0
XRECORD
  5
239
102
{ACAD_REACTORS
330
2C
102
}
330
2C
100
AcDbXrecord
280
     1
  1
tree
  1
*tree*
  1
*
  1
*
 70
     0
  1
*
  1
*
  0
XRECORD
  5
23A
102
{ACAD_REACTORS
330
2C
102
}
330
2C
100
AcDbXrecord
280
     1
  1
tu_
  1
tu_*
  1
*
  1
*
 70
     0
  1
*
  1
*
  0
XRECORD
  5
23B
102
{ACAD_REACTORS
330
2C
102
}
330
2C
100
AcDbXrecord
280
     1
  1
Tugiplaan
  1
*
  1
*
  1
*
 70
     0
  1
*
  1
*
  0
XRECORD
  5
23C
102
{ACAD_REACTORS
330
2C
102
}
330
2C
100
AcDbXrecord
280
     1
  1
txt
  1
txt*
  1
*
  1
*
 70
     0
  1
*
  1
*
  0
XRECORD
  5
23D
102
{ACAD_REACTORS
330
2C
102
}
330
2C
100
AcDbXrecord
280
     1
  1
UFR
  1
*
  1
*
  1
*
 70
    12
  1
*
  1
*
  0
XRECORD
  5
23E
102
{ACAD_REACTORS
330
2C
102
}
330
2C
100
AcDbXrecord
280
     1
  1
UNITA
  1
*a
  1
*
  1
*
 70
     0
  1
*
  1
*
  0
XRECORD
  5
23F
102
{ACAD_REACTORS
330
2C
102
}
330
2C
100
AcDbXrecord
280
     1
  1
UNITB
  1
*B
  1
*
  1
*
 70
     0
  1
*
  1
*
  0
XRECORD
  5
240
102
{ACAD_REACTORS
330
2C
102
}
330
2C
100
AcDbXrecord
280
     1
  1
UNITC
  1
*C
  1
*
  1
*
 70
     0
  1
*
  1
*
  0
XRECORD
  5
241
102
{ACAD_REACTORS
330
2C
102
}
330
2C
100
AcDbXrecord
280
     1
  1
UP
  1
UP*
  1
*
  1
*
 70
     0
  1
*
  1
*
  0
XRECORD
  5
242
102
{ACAD_REACTORS
330
2C
102
}
330
2C
100
AcDbXrecord
280
     1
  1
UPLO
  1
*
  1
*
  1
*
 70
  3084
  1
*
  1
*
  0
XRECORD
  5
243
102
{ACAD_REACTORS
330
2C
102
}
330
2C
100
AcDbXrecord
280
     1
  1
upper
  1
*
  1
*
  1
*
 70
    16
  1
*
  1
*
  0
XRECORD
  5
244
102
{ACAD_REACTORS
330
2C
102
}
330
2C
100
AcDbXrecord
280
     1
  1
uus
  1
*
  1
*
  1
*
 70
     4
  1
*
  1
*
  0
XRECORD
  5
245
102
{ACAD_REACTORS
330
2C
102
}
330
2C
100
AcDbXrecord
280
     1
  1
v31
  1
V31*
  1
*
  1
*
 70
     0
  1
*
  1
*
  0
XRECORD
  5
246
102
{ACAD_REACTORS
330
2C
102
}
330
2C
100
AcDbXrecord
280
     1
  1
VAADE
  1
VAADE *
  1
*
  1
*
 70
     0
  1
*
  1
*
  0
XRECORD
  5
247
102
{ACAD_REACTORS
330
2C
102
}
330
2C
100
AcDbXrecord
280
     1
  1
Valgus
  1
*
  1
*
  1
*
 70
     0
  1
*
  1
*
  0
XRECORD
  5
248
102
{ACAD_REACTORS
330
2C
102
}
330
2C
100
AcDbXrecord
280
     1
  1
varem-proj-trassid
  1
vp-*
  1
*
  1
*
 70
     0
  1
*
  1
*
  0
XRECORD
  5
249
102
{ACAD_REACTORS
330
2C
102
}
330
2C
100
AcDbXrecord
280
     1
  1
Vertikaal
  1
*
  1
*
  1
*
 70
     0
  1
*
  1
*
  0
XRECORD
  5
24A
102
{ACAD_REACTORS
330
2C
102
}
330
2C
100
AcDbXrecord
280
     1
  1
vertikalinis
  1
*
  1
*
  1
*
 70
     0
  1
*
  1
*
  0
XRECORD
  5
24B
102
{ACAD_REACTORS
330
2C
102
}
330
2C
100
AcDbXrecord
280
     1
  1
viewports
  1
*view*
  1
*
  1
*
 70
     0
  1
*
  1
*
  0
XRECORD
  5
24C
102
{ACAD_REACTORS
330
2C
102
}
330
2C
100
AcDbXrecord
280
     1
  1
VK
  1
VK*
  1
*
  1
*
 70
     0
  1
*
  1
*
  0
XRECORD
  5
24D
102
{ACAD_REACTORS
330
2C
102
}
330
2C
100
AcDbXrecord
280
     1
  1
vor
  1
vor*
  1
*
  1
*
 70
     0
  1
*
  1
*
  0
XRECORD
  5
24E
102
{ACAD_REACTORS
330
2C
102
}
330
2C
100
AcDbXrecord
280
     1
  1
vormistus
  1
vor*
  1
*
  1
*
 70
     0
  1
*
  1
*
  0
XRECORD
  5
24F
102
{ACAD_REACTORS
330
2C
102
}
330
2C
100
AcDbXrecord
280
     1
  1
vpl
  1
vpl*
  1
*
  1
*
 70
     0
  1
*
  1
*
  0
XRECORD
  5
250
102
{ACAD_REACTORS
330
2C
102
}
330
2C
100
AcDbXrecord
280
     1
  1
VS_01
  1
*_01*
  1
*
  1
*
 70
     0
  1
*
  1
*
  0
XRECORD
  5
251
102
{ACAD_REACTORS
330
2C
102
}
330
2C
100
AcDbXrecord
280
     1
  1
VS_02
  1
*_02*
  1
*
  1
*
 70
     0
  1
*
  1
*
  0
XRECORD
  5
252
102
{ACAD_REACTORS
330
2C
102
}
330
2C
100
AcDbXrecord
280
     1
  1
VS_03
  1
*_03*
  1
*
  1
*
 70
     0
  1
*
  1
*
  0
XRECORD
  5
253
102
{ACAD_REACTORS
330
2C
102
}
330
2C
100
AcDbXrecord
280
     1
  1
VS_04
  1
*_04*
  1
*
  1
*
 70
     0
  1
*
  1
*
  0
XRECORD
  5
254
102
{ACAD_REACTORS
330
2C
102
}
330
2C
100
AcDbXrecord
280
     1
  1
VS_05
  1
*_05*
  1
*
  1
*
 70
     0
  1
*
  1
*
  0
XRECORD
  5
255
102
{ACAD_REACTORS
330
2C
102
}
330
2C
100
AcDbXrecord
280
     1
  1
VS_06
  1
*_06*
  1
*
  1
*
 70
     0
  1
*
  1
*
  0
XRECORD
  5
256
102
{ACAD_REACTORS
330
2C
102
}
330
2C
100
AcDbXrecord
280
     1
  1
VS_07
  1
*_07*
  1
*
  1
*
 70
     0
  1
*
  1
*
  0
XRECORD
  5
257
102
{ACAD_REACTORS
330
2C
102
}
330
2C
100
AcDbXrecord
280
     1
  1
VS_08
  1
*_08*
  1
*
  1
*
 70
     0
  1
*
  1
*
  0
XRECORD
  5
258
102
{ACAD_REACTORS
330
2C
102
}
330
2C
100
AcDbXrecord
280
     1
  1
VS_09
  1
*_09*
  1
*
  1
*
 70
     0
  1
*
  1
*
  0
XRECORD
  5
259
102
{ACAD_REACTORS
330
2C
102
}
330
2C
100
AcDbXrecord
280
     1
  1
VS_10
  1
*_10*
  1
*
  1
*
 70
     0
  1
*
  1
*
  0
XRECORD
  5
25A
102
{ACAD_REACTORS
330
2C
102
}
330
2C
100
AcDbXrecord
280
     1
  1
VS_11
  1
*_11*
  1
*
  1
*
 70
     0
  1
*
  1
*
  0
XRECORD
  5
25B
102
{ACAD_REACTORS
330
2C
102
}
330
2C
100
AcDbXrecord
280
     1
  1
VS_12
  1
*_12*
  1
*
  1
*
 70
     0
  1
*
  1
*
  0
XRECORD
  5
25C
102
{ACAD_REACTORS
330
2C
102
}
330
2C
100
AcDbXrecord
280
     1
  1
VS_13
  1
*_13*
  1
*
  1
*
 70
     0
  1
*
  1
*
  0
XRECORD
  5
25D
102
{ACAD_REACTORS
330
2C
102
}
330
2C
100
AcDbXrecord
280
     1
  1
VS_14
  1
*_14*
  1
*
  1
*
 70
     0
  1
*
  1
*
  0
XRECORD
  5
25E
102
{ACAD_REACTORS
330
2C
102
}
330
2C
100
AcDbXrecord
280
     1
  1
VS_15
  1
*_15*
  1
*
  1
*
 70
     0
  1
*
  1
*
  0
XRECORD
  5
25F
102
{ACAD_REACTORS
330
2C
102
}
330
2C
100
AcDbXrecord
280
     1
  1
VS_16
  1
*_16*
  1
*
  1
*
 70
     0
  1
*
  1
*
  0
XRECORD
  5
260
102
{ACAD_REACTORS
330
2C
102
}
330
2C
100
AcDbXrecord
280
     1
  1
VS_17
  1
*_17*
  1
*
  1
*
 70
     0
  1
*
  1
*
  0
XRECORD
  5
261
102
{ACAD_REACTORS
330
2C
102
}
330
2C
100
AcDbXrecord
280
     1
  1
VS_18
  1
*_18*
  1
*
  1
*
 70
     0
  1
*
  1
*
  0
XRECORD
  5
262
102
{ACAD_REACTORS
330
2C
102
}
330
2C
100
AcDbXrecord
280
     1
  1
VS_19
  1
*_19*
  1
*
  1
*
 70
     0
  1
*
  1
*
  0
XRECORD
  5
263
102
{ACAD_REACTORS
330
2C
102
}
330
2C
100
AcDbXrecord
280
     1
  1
VS_20
  1
*_20*
  1
*
  1
*
 70
     0
  1
*
  1
*
  0
XRECORD
  5
264
102
{ACAD_REACTORS
330
2C
102
}
330
2C
100
AcDbXrecord
280
     1
  1
W
  1
*SYMB*
  1
*
  1
*
 70
     0
  1
*
  1
*
  0
XRECORD
  5
265
102
{ACAD_REACTORS
330
2C
102
}
330
2C
100
AcDbXrecord
280
     1
  1
W.M.T.
  1
W.M.T.*
  1
*
  1
*
 70
     0
  1
*
  1
*
  0
XRECORD
  5
266
102
{ACAD_REACTORS
330
2C
102
}
330
2C
100
AcDbXrecord
280
     1
  1
WADE
  1
*DEMO*
  1
*
  1
*
 70
     0
  1
*
  1
*
  0
XRECORD
  5
267
102
{ACAD_REACTORS
330
2C
102
}
330
2C
100
AcDbXrecord
280
     1
  1
waiter
  1
waiter*
  1
*
  1
*
 70
     0
  1
*
  1
*
  0
XRECORD
  5
268
102
{ACAD_REACTORS
330
2C
102
}
330
2C
100
AcDbXrecord
280
     1
  1
WALL
  1
*WALL
  1
*
  1
*
 70
     0
  1
*
  1
*
  0
XRECORD
  5
269
102
{ACAD_REACTORS
330
2C
102
}
330
2C
100
AcDbXrecord
280
     1
  1
Walls
  1
*ExtWalls
  1
*
  1
*
 70
     0
  1
*
  1
*
  0
XRECORD
  5
26A
102
{ACAD_REACTORS
330
2C
102
}
330
2C
100
AcDbXrecord
280
     1
  1
white
  1
*
  1
white
  1
*
 70
     0
  1
*
  1
*
  0
XRECORD
  5
26B
102
{ACAD_REACTORS
330
2C
102
}
330
2C
100
AcDbXrecord
280
     1
  1
white color
  1
*
  1
7
  1
*
 70
     0
  1
*
  1
*
  0
XRECORD
  5
26C
102
{ACAD_REACTORS
330
2C
102
}
330
2C
100
AcDbXrecord
280
     1
  1
whs-zebra-issue
  1
*
  1
*
  1
*
 70
     0
  1
*
  1
*
  0
XRECORD
  5
26D
102
{ACAD_REACTORS
330
2C
102
}
330
2C
100
AcDbXrecord
280
     1
  1
window
  1
window*
  1
*
  1
*
 70
     0
  1
*
  1
*
  0
XRECORD
  5
26E
102
{ACAD_REACTORS
330
2C
102
}
330
2C
100
AcDbXrecord
280
     1
  1
WINEBIN
  1
WINE*,2D*
  1
*
  1
*
 70
     0
  1
*
  1
*
  0
XRECORD
  5
26F
102
{ACAD_REACTORS
330
2C
102
}
330
2C
100
AcDbXrecord
280
     1
  1
winebins
  1
wine*
  1
*
  1
*
 70
     0
  1
*
  1
*
  0
XRECORD
  5
270
102
{ACAD_REACTORS
330
2C
102
}
330
2C
100
AcDbXrecord
280
     1
  1
WORK
  1
L*,P*,XREF,M*,F*,C*
  1
*
  1
*
 70
     0
  1
*
  1
*
  0
XRECORD
  5
271
102
{ACAD_REACTORS
330
2C
102
}
330
2C
100
AcDbXrecord
280
     1
  1
X
  1
x-*
  1
*
  1
*
 70
     0
  1
*
  1
*
  0
XRECORD
  5
272
102
{ACAD_REACTORS
330
2C
102
}
330
2C
100
AcDbXrecord
280
     1
  1
xerf
  1
*
  1
*
  1
*
 70
     0
  1
*
  1
*
  0
XRECORD
  5
273
102
{ACAD_REACTORS
330
2C
102
}
330
2C
100
AcDbXrecord
280
     1
  1
XREF
  1
Xref*
  1
*
  1
*
 70
     0
  1
*
  1
*
  0
XRECORD
  5
274
102
{ACAD_REACTORS
330
2C
102
}
330
2C
100
AcDbXrecord
280
     1
  1
xref-of
  1
*|*
  1
*
  1
*
 70
     0
  1
*
  1
*
  0
XRECORD
  5
275
102
{ACAD_REACTORS
330
2C
102
}
330
2C
100
AcDbXrecord
280
     1
  1
XREFID
  1
XREF *
  1
*
  1
*
 70
     0
  1
*
  1
*
  0
XRECORD
  5
276
102
{ACAD_REACTORS
330
2C
102
}
330
2C
100
AcDbXrecord
280
     1
  1
YARDIMLAR
  1
*YARDIM
  1
*
  1
*
 70
     0
  1
*
  1
*
  0
XRECORD
  5
277
102
{ACAD_REACTORS
330
2C
102
}
330
2C
100
AcDbXrecord
280
     1
  1
YUZEYLER
  1
*YUZEY*
  1
*
  1
*
 70
     0
  1
*
  1
*
  0
ENDSEC
  0
EOF
