  0
SECTION
  2
HEADER
  9
$ACADVER
  1
AC1015
  9
$ACADMAINTVER
 70
    13
  9
$DWGCODEPAGE
  3
ANSI_1257
  9
$INSBASE
 10
0.0
 20
0.0
 30
0.0
  9
$EXTMIN
 10
150.6750495727023
 20
119.3911767838932
 30
0.0
  9
$EXTMAX
 10
977.6750495727027
 20
721.3911767838932
 30
0.0
  9
$LIMMIN
 10
0.0
 20
0.0
  9
$LIMMAX
 10
420.0
 20
297.0
  9
$ORTHOMODE
 70
     1
  9
$REGENMODE
 70
     1
  9
$FILLMODE
 70
     1
  9
$QTEXTMODE
 70
     0
  9
$MIRRTEXT
 70
     1
  9
$LTSCALE
 40
1.0
  9
$ATTMODE
 70
     1
  9
$TEXTSIZE
 40
3.0
  9
$TRACEWID
 40
1.0
  9
$TEXTSTYLE
  7
Standard
  9
$CLAYER
  8
kiri
  9
$CELTYPE
  6
ByLayer
  9
$CECOLOR
 62
   256
  9
$CELTSCALE
 40
1.0
  9
$DISPSILH
 70
     0
  9
$DIMSCALE
 40
1.0
  9
$DIMASZ
 40
2.5
  9
$DIMEXO
 40
0.625
  9
$DIMDLI
 40
3.75
  9
$DIMRND
 40
0.0
  9
$DIMDLE
 40
0.0
  9
$DIMEXE
 40
1.25
  9
$DIMTP
 40
0.0
  9
$DIMTM
 40
0.0
  9
$DIMTXT
 40
2.5
  9
$DIMCEN
 40
2.5
  9
$DIMTSZ
 40
0.0
  9
$DIMTOL
 70
     0
  9
$DIMLIM
 70
     0
  9
$DIMTIH
 70
     0
  9
$DIMTOH
 70
     0
  9
$DIMSE1
 70
     0
  9
$DIMSE2
 70
     0
  9
$DIMTAD
 70
     1
  9
$DIMZIN
 70
     8
  9
$DIMBLK
  1

  9
$DIMASO
 70
     1
  9
$DIMSHO
 70
     1
  9
$DIMPOST
  1

  9
$DIMAPOST
  1

  9
$DIMALT
 70
     0
  9
$DIMALTD
 70
     3
  9
$DIMALTF
 40
0.03937007874016
  9
$DIMLFAC
 40
1.0
  9
$DIMTOFL
 70
     1
  9
$DIMTVP
 40
0.0
  9
$DIMTIX
 70
     0
  9
$DIMSOXD
 70
     0
  9
$DIMSAH
 70
     0
  9
$DIMBLK1
  1

  9
$DIMBLK2
  1

  9
$DIMSTYLE
  2
ISO-25
  9
$DIMCLRD
 70
     0
  9
$DIMCLRE
 70
     0
  9
$DIMCLRT
 70
     0
  9
$DIMTFAC
 40
1.0
  9
$DIMGAP
 40
0.625
  9
$DIMJUST
 70
     0
  9
$DIMSD1
 70
     0
  9
$DIMSD2
 70
     0
  9
$DIMTOLJ
 70
     0
  9
$DIMTZIN
 70
     8
  9
$DIMALTZ
 70
     0
  9
$DIMALTTZ
 70
     0
  9
$DIMUPT
 70
     0
  9
$DIMDEC
 70
     2
  9
$DIMTDEC
 70
     2
  9
$DIMALTU
 70
     2
  9
$DIMALTTD
 70
     3
  9
$DIMTXSTY
  7
Standard
  9
$DIMAUNIT
 70
     0
  9
$DIMADEC
 70
     0
  9
$DIMALTRND
 40
0.0
  9
$DIMAZIN
 70
     0
  9
$DIMDSEP
 70
    44
  9
$DIMATFIT
 70
     3
  9
$DIMFRAC
 70
     0
  9
$DIMLDRBLK
  1

  9
$DIMLUNIT
 70
     2
  9
$DIMLWD
 70
    -2
  9
$DIMLWE
 70
    -2
  9
$DIMTMOVE
 70
     0
  9
$LUNITS
 70
     2
  9
$LUPREC
 70
     4
  9
$SKETCHINC
 40
1.0
  9
$FILLETRAD
 40
10.0
  9
$AUNITS
 70
     0
  9
$AUPREC
 70
     0
  9
$MENU
  1
.
  9
$ELEVATION
 40
0.0
  9
$PELEVATION
 40
0.0
  9
$THICKNESS
 40
0.0
  9
$LIMCHECK
 70
     0
  9
$CHAMFERA
 40
10.0
  9
$CHAMFERB
 40
10.0
  9
$CHAMFERC
 40
20.0
  9
$CHAMFERD
 40
0.0
  9
$SKPOLY
 70
     0
  9
$TDCREATE
 40
2453237.517024733
  9
$TDUCREATE
 40
2453237.433691400
  9
$TDUPDATE
 40
2453334.543429352
  9
$TDUUPDATE
 40
2453334.460096018
  9
$TDINDWG
 40
0.1252889583
  9
$TDUSRTIMER
 40
0.1252889583
  9
$USRTIMER
 70
     1
  9
$ANGBASE
 50
0.0
  9
$ANGDIR
 70
     0
  9
$PDMODE
 70
     0
  9
$PDSIZE
 40
0.0
  9
$PLINEWID
 40
0.0
  9
$SPLFRAME
 70
     0
  9
$SPLINETYPE
 70
     6
  9
$SPLINESEGS
 70
     8
  9
$HANDSEED
  5
53F
  9
$SURFTAB1
 70
     6
  9
$SURFTAB2
 70
     6
  9
$SURFTYPE
 70
     6
  9
$SURFU
 70
     6
  9
$SURFV
 70
     6
  9
$UCSBASE
  2

  9
$UCSNAME
  2

  9
$UCSORG
 10
0.0
 20
0.0
 30
0.0
  9
$UCSXDIR
 10
1.0
 20
0.0
 30
0.0
  9
$UCSYDIR
 10
0.0
 20
1.0
 30
0.0
  9
$UCSORTHOREF
  2

  9
$UCSORTHOVIEW
 70
     0
  9
$UCSORGTOP
 10
0.0
 20
0.0
 30
0.0
  9
$UCSORGBOTTOM
 10
0.0
 20
0.0
 30
0.0
  9
$UCSORGLEFT
 10
0.0
 20
0.0
 30
0.0
  9
$UCSORGRIGHT
 10
0.0
 20
0.0
 30
0.0
  9
$UCSORGFRONT
 10
0.0
 20
0.0
 30
0.0
  9
$UCSORGBACK
 10
0.0
 20
0.0
 30
0.0
  9
$PUCSBASE
  2

  9
$PUCSNAME
  2

  9
$PUCSORG
 10
0.0
 20
0.0
 30
0.0
  9
$PUCSXDIR
 10
1.0
 20
0.0
 30
0.0
  9
$PUCSYDIR
 10
0.0
 20
1.0
 30
0.0
  9
$PUCSORTHOREF
  2

  9
$PUCSORTHOVIEW
 70
     0
  9
$PUCSORGTOP
 10
0.0
 20
0.0
 30
0.0
  9
$PUCSORGBOTTOM
 10
0.0
 20
0.0
 30
0.0
  9
$PUCSORGLEFT
 10
0.0
 20
0.0
 30
0.0
  9
$PUCSORGRIGHT
 10
0.0
 20
0.0
 30
0.0
  9
$PUCSORGFRONT
 10
0.0
 20
0.0
 30
0.0
  9
$PUCSORGBACK
 10
0.0
 20
0.0
 30
0.0
  9
$USERI1
 70
     0
  9
$USERI2
 70
     0
  9
$USERI3
 70
     0
  9
$USERI4
 70
     0
  9
$USERI5
 70
     0
  9
$USERR1
 40
0.0
  9
$USERR2
 40
0.0
  9
$USERR3
 40
0.0
  9
$USERR4
 40
0.0
  9
$USERR5
 40
0.0
  9
$WORLDVIEW
 70
     1
  9
$SHADEDGE
 70
     3
  9
$SHADEDIF
 70
    70
  9
$TILEMODE
 70
     0
  9
$MAXACTVP
 70
    64
  9
$PINSBASE
 10
0.0
 20
0.0
 30
0.0
  9
$PLIMCHECK
 70
     0
  9
$PEXTMIN
 10
3.818921490455977
 20
3.944484243049316
 30
-0.0015258207003583
  9
$PEXTMAX
 10
286.8387866479656
 20
199.9464645874804
 30
0.0000000349246037
  9
$PLIMMIN
 10
-3.17498779296875
 20
-3.174999952316284
  9
$PLIMMAX
 10
293.8780212402343
 20
206.7136566638946
  9
$UNITMODE
 70
     0
  9
$VISRETAIN
 70
     1
  9
$PLINEGEN
 70
     0
  9
$PSLTSCALE
 70
     1
  9
$TREEDEPTH
 70
  3020
  9
$CMLSTYLE
  2
Standard
  9
$CMLJUST
 70
     0
  9
$CMLSCALE
 40
20.0
  9
$PROXYGRAPHICS
 70
     1
  9
$MEASUREMENT
 70
     1
  9
$CELWEIGHT
370
    -1
  9
$ENDCAPS
280
     0
  9
$JOINSTYLE
280
     0
  9
$LWDISPLAY
290
     0
  9
$INSUNITS
 70
     4
  9
$HYPERLINKBASE
  1

  9
$STYLESHEET
  1
monochrome.ctb
  9
$XEDIT
290
     1
  9
$CEPSNTYPE
380
     0
  9
$PSTYLEMODE
290
     1
  9
$FINGERPRINTGUID
  2
{74EAB696-2266-4B6E-A092-8CA0D677407A}
  9
$VERSIONGUID
  2
{313E61E7-F439-463F-81B3-56B2AB2CA0F9}
  9
$EXTNAMES
290
     1
  9
$PSVPSCALE
 40
0.0
  9
$OLESTARTUP
290
     0
  0
ENDSEC
  0
SECTION
  2
CLASSES
  0
CLASS
  1
ACDBDICTIONARYWDFLT
  2
AcDbDictionaryWithDefault
  3
AutoCAD 2000
 90
        0
280
     0
281
     0
  0
CLASS
  1
ACDBPLACEHOLDER
  2
AcDbPlaceHolder
  3
AutoCAD 2000
 90
        0
280
     0
281
     0
  0
CLASS
  1
LAYOUT
  2
AcDbLayout
  3
AutoCAD 2000
 90
        0
280
     0
281
     0
  0
CLASS
  1
IMAGEDEF
  2
AcDbRasterImageDef
  3
ISM
 90
        0
280
     0
281
     0
  0
CLASS
  1
RASTERVARIABLES
  2
AcDbRasterVariables
  3
ISM
 90
        0
280
     0
281
     0
  0
CLASS
  1
IMAGEDEF_REACTOR
  2
AcDbRasterImageDefReactor
  3
ISM
 90
        1
280
     0
281
     0
  0
CLASS
  1
IMAGE
  2
AcDbRasterImage
  3
ISM
 90
      127
280
     0
281
     1
  0
CLASS
  1
DICTIONARYVAR
  2
AcDbDictionaryVar
  3
AutoCAD 2000
 90
        0
280
     0
281
     0
  0
ENDSEC
  0
SECTION
  2
TABLES
  0
TABLE
  2
VPORT
  5
8
330
0
100
AcDbSymbolTable
 70
     3
  0
VPORT
  5
53E
330
8
100
AcDbSymbolTableRecord
100
AcDbViewportTableRecord
  2
*Active
 70
     0
 10
0.0
 20
0.0
 11
1.0
 21
1.0
 12
482.7457557908839
 22
502.9325119555255
 13
0.0
 23
0.0
 14
10.0
 24
10.0
 15
10.0
 25
10.0
 16
0.0
 26
0.0
 36
1.0
 17
0.0
 27
0.0
 37
0.0
 40
297.2239865506048
 41
1.544204322200392
 42
50.0
 43
0.0
 44
0.0
 50
0.0
 51
0.0
 71
     0
 72
   100
 73
     1
 74
     3
 75
     0
 76
     0
 77
     0
 78
     0
281
     0
 65
     1
110
0.0
120
0.0
130
0.0
111
1.0
121
0.0
131
0.0
112
0.0
122
1.0
132
0.0
 79
     0
146
0.0
  0
ENDTAB
  0
TABLE
  2
LTYPE
  5
5
330
0
100
AcDbSymbolTable
 70
     4
  0
LTYPE
  5
14
330
5
100
AcDbSymbolTableRecord
100
AcDbLinetypeTableRecord
  2
ByBlock
 70
     0
  3

 72
    65
 73
     0
 40
0.0
  0
LTYPE
  5
15
330
5
100
AcDbSymbolTableRecord
100
AcDbLinetypeTableRecord
  2
ByLayer
 70
     0
  3

 72
    65
 73
     0
 40
0.0
  0
LTYPE
  5
16
330
5
100
AcDbSymbolTableRecord
100
AcDbLinetypeTableRecord
  2
Continuous
 70
     0
  3
Solid line
 72
    65
 73
     0
 40
0.0
  0
LTYPE
  5
2C9
330
5
100
AcDbSymbolTableRecord
100
AcDbLinetypeTableRecord
  2
DASHDOT
 70
     0
  3
__ . __ . __ . __ . __ . __ . __ . __ . __ . __
 72
    65
 73
     4
 40
1.0
 49
0.5
 74
     0
 49
-0.25
 74
     0
 49
0.0
 74
     0
 49
-0.25
 74
     0
  0
LTYPE
  5
2CA
330
5
100
AcDbSymbolTableRecord
100
AcDbLinetypeTableRecord
  2
DASHED
 70
     0
  3
Dashed __ __ __ __ __ __ __ __ __ __ __ __ __ _
 72
    65
 73
     2
 40
0.75
 49
0.5
 74
     0
 49
-0.25
 74
     0
  0
LTYPE
  5
4BF
330
5
100
AcDbSymbolTableRecord
100
AcDbLinetypeTableRecord
  2
ACAD_ISO03W100
 70
     0
  3
ISO dash space __    __    __    __    __    __
 72
    65
 73
     2
 40
30.0
 49
12.0
 74
     0
 49
-18.0
 74
     0
  0
ENDTAB
  0
TABLE
  2
LAYER
  5
2
102
{ACAD_XDICTIONARY
360
39
102
}
330
0
100
AcDbSymbolTable
 70
     6
  0
LAYER
  5
10
330
2
100
AcDbSymbolTableRecord
100
AcDbLayerTableRecord
  2
0
 70
     0
 62
     7
  6
Continuous
370
    -3
390
F
  0
LAYER
  5
28A
330
2
100
AcDbSymbolTableRecord
100
AcDbLayerTableRecord
  2
kiri
 70
     0
 62
     7
  6
Continuous
370
     9
390
F
  0
LAYER
  5
2CB
330
2
100
AcDbSymbolTableRecord
100
AcDbLayerTableRecord
  2
DIM
 70
     0
 62
     7
  6
Continuous
370
    -3
390
F
  0
LAYER
  5
2CC
330
2
100
AcDbSymbolTableRecord
100
AcDbLayerTableRecord
  2
DEFPOINTS
 70
     0
 62
     7
  6
Continuous
290
     0
370
    -3
390
F
  0
LAYER
  5
494
330
2
100
AcDbSymbolTableRecord
100
AcDbLayerTableRecord
  2
vaateväli
 70
     0
 62
     7
  6
Continuous
290
     0
370
    -3
390
F
  0
LAYER
  5
4C0
330
2
100
AcDbSymbolTableRecord
100
AcDbLayerTableRecord
  2
hüdroiso
 70
     0
 62
     1
  6
ACAD_ISO03W100
370
    53
390
F
  0
ENDTAB
  0
TABLE
  2
STYLE
  5
3
330
0
100
AcDbSymbolTable
 70
     5
  0
STYLE
  5
11
330
3
100
AcDbSymbolTableRecord
100
AcDbTextStyleTableRecord
  2
Standard
 70
     0
 40
0.0
 41
1.0
 50
0.0
 71
     0
 42
3.0
  3
ARIAL.TTF
  4

1001
ACAD
1000
Arial
1071
       34
  0
STYLE
  5
2CD
330
3
100
AcDbSymbolTableRecord
100
AcDbTextStyleTableRecord
  2
ROMANS
 70
     0
 40
0.0
 41
1.0
 50
0.0
 71
     0
 42
25.0
  3
C:\Program Files\AutoCAD LT\romans.shx
  4

  0
STYLE
  5
2CE
330
3
100
AcDbSymbolTableRecord
100
AcDbTextStyleTableRecord
  2
STYLE1
 70
     0
 40
0.0
 41
1.0
 50
0.0
 71
     0
 42
20.0
  3
C:\Program Files\AutoCAD LT\romans.shx
  4

  0
STYLE
  5
495
330
3
100
AcDbSymbolTableRecord
100
AcDbTextStyleTableRecord
  2
ARIAL
 70
     0
 40
0.0
 41
1.0
 50
0.0
 71
     0
 42
25.0
  3
ARIAL.TTF
  4

1001
ACAD
1000
Arial
1071
       34
  0
STYLE
  5
4BE
330
3
100
AcDbSymbolTableRecord
100
AcDbTextStyleTableRecord
  2

 70
     1
 40
0.0
 41
1.0
 50
0.0
 71
     0
 42
2.5
  3
ltypeshp.shx
  4

  0
ENDTAB
  0
TABLE
  2
VIEW
  5
6
330
0
100
AcDbSymbolTable
 70
     0
  0
ENDTAB
  0
TABLE
  2
UCS
  5
7
330
0
100
AcDbSymbolTable
 70
     0
  0
ENDTAB
  0
TABLE
  2
APPID
  5
9
330
0
100
AcDbSymbolTable
 70
     1
  0
APPID
  5
12
330
9
100
AcDbSymbolTableRecord
100
AcDbRegAppTableRecord
  2
ACAD
 70
     0
  0
ENDTAB
  0
TABLE
  2
DIMSTYLE
  5
A
330
0
100
AcDbSymbolTable
 70
     2
100
AcDbDimStyleTable
 71
     1
340
27
  0
DIMSTYLE
105
27
330
A
100
AcDbSymbolTableRecord
100
AcDbDimStyleTableRecord
  2
ISO-25
 70
     0
 41
2.5
 42
0.625
 43
3.75
 44
1.25
 73
     0
 74
     0
 77
     1
 78
     8
140
2.5
141
2.5
143
0.03937007874016
147
0.625
171
     3
172
     1
271
     2
272
     2
274
     3
278
    44
283
     0
284
     8
340
11
  0
DIMSTYLE
105
2CF
102
{ACAD_REACTORS
330
408
102
}
330
A
100
AcDbSymbolTableRecord
100
AcDbDimStyleTableRecord
  2
MK10
 70
     0
 40
10.0
 41
0.2
 42
0.1
 43
0.4
 44
0.2
141
0.1
147
0.1
173
     1
271
     0
272
     0
340
11
341
2B7
343
2B7
344
2B7
  0
ENDTAB
  0
TABLE
  2
BLOCK_RECORD
  5
1
330
0
100
AcDbSymbolTable
 70
     4
  0
BLOCK_RECORD
  5
1F
330
1
100
AcDbSymbolTableRecord
100
AcDbBlockTableRecord
  2
*Model_Space
340
22
  0
BLOCK_RECORD
  5
1B
330
1
100
AcDbSymbolTableRecord
100
AcDbBlockTableRecord
  2
*Paper_Space
340
1E
  0
BLOCK_RECORD
  5
286
330
1
100
AcDbSymbolTableRecord
100
AcDbBlockTableRecord
  2
_ArchTick
340
0
  0
BLOCK_RECORD
  5
28C
330
1
100
AcDbSymbolTableRecord
100
AcDbBlockTableRecord
  2
A4 raamjoon
340
0
1001
ACAD
1000
DesignCenter Data
1002
{
1070
     1
1070
     4
1002
}
  0
BLOCK_RECORD
  5
2B7
330
1
100
AcDbSymbolTableRecord
100
AcDbBlockTableRecord
  2
_OBLIQUE
340
0
102
{BLKREFS
331
48C
331
48D
331
51F
331
520
331
52B
331
52C
331
539
331
53A
102
}
  0
BLOCK_RECORD
  5
45D
330
1
100
AcDbSymbolTableRecord
100
AcDbBlockTableRecord
  2
*D3
340
0
  0
ENDTAB
  0
ENDSEC
  0
SECTION
  2
BLOCKS
  0
BLOCK
  5
20
330
1F
100
AcDbEntity
  8
0
100
AcDbBlockBegin
  2
*Model_Space
 70
     0
 10
0.0
 20
0.0
 30
0.0
  3
*Model_Space
  1

  0
ENDBLK
  5
21
330
1F
100
AcDbEntity
  8
0
100
AcDbBlockEnd
  0
BLOCK
  5
1C
330
1B
100
AcDbEntity
 67
     1
  8
0
100
AcDbBlockBegin
  2
*Paper_Space
 70
     0
 10
0.0
 20
0.0
 30
0.0
  3
*Paper_Space
  1

  0
ENDBLK
  5
1D
330
1B
100
AcDbEntity
 67
     1
  8
0
100
AcDbBlockEnd
  0
BLOCK
  5
288
330
286
100
AcDbEntity
  8
0
100
AcDbBlockBegin
  2
_ArchTick
 70
     0
 10
0.0
 20
0.0
 30
0.0
  3
_ArchTick
  1

  0
LWPOLYLINE
  5
287
330
286
100
AcDbEntity
  8
0
  6
ByBlock
 62
     0
100
AcDbPolyline
 90
        2
 70
     0
 43
0.15
 10
-0.5
 20
-0.5
 10
0.5
 20
0.5
  0
ENDBLK
  5
289
330
286
100
AcDbEntity
  8
0
100
AcDbBlockEnd
  0
BLOCK
  5
290
330
28C
100
AcDbEntity
  8
0
100
AcDbBlockBegin
  2
A4 raamjoon
 70
     0
 10
0.0
 20
0.0
 30
0.0
  3
A4 raamjoon
  1

  0
LWPOLYLINE
  5
28D
330
28C
100
AcDbEntity
  8
kiri
100
AcDbPolyline
 90
        4
 70
     1
 43
0.0
 10
0.0000000000000524
 20
290.0425024513717
 10
196.0
 20
290.0425024513717
 10
196.0
 20
7.042502451371717
 10
0.0
 20
7.042502451371776
  0
LINE
  5
28E
330
28C
100
AcDbEntity
  8
kiri
100
AcDbLine
 10
0.0
 20
7.042502451371776
 30
0.0
 11
-7.204399417194053
 21
7.042502451371776
 31
0.0
  0
LINE
  5
28F
330
28C
100
AcDbEntity
  8
kiri
100
AcDbLine
 10
0.0
 20
7.042502451371776
 30
0.0
 11
0.0
 21
0.0
 31
0.0
  0
ENDBLK
  5
291
330
28C
100
AcDbEntity
  8
0
100
AcDbBlockEnd
  0
BLOCK
  5
2B9
330
2B7
100
AcDbEntity
  8
0
100
AcDbBlockBegin
  2
_OBLIQUE
 70
     0
 10
0.0
 20
0.0
 30
0.0
  3
_OBLIQUE
  1

  0
LINE
  5
2B8
330
2B7
100
AcDbEntity
  8
0
  6
ByBlock
 62
     0
100
AcDbLine
 10
-0.5
 20
-0.5
 30
0.0
 11
0.5
 21
0.5
 31
0.0
  0
ENDBLK
  5
2BA
330
2B7
100
AcDbEntity
  8
0
100
AcDbBlockEnd
  0
BLOCK
  5
469
330
45D
100
AcDbEntity
  8
0
100
AcDbBlockBegin
  2
*D3
 70
     1
 10
0.0
 20
0.0
 30
0.0
  3
*D3
  1

  0
LINE
  5
531
330
45D
100
AcDbEntity
  8
DIM
 62
     0
370
    -2
100
AcDbLine
 10
687.3500410204735
 20
414.1105603690855
 30
0.0
 11
631.6055883319968
 21
585.674344697197
 31
0.0
  0
LINE
  5
532
330
45D
100
AcDbEntity
  8
DIM
 62
     0
370
    -2
100
AcDbLine
 10
658.5754682597139
 20
476.4020091850432
 30
0.0
 11
623.8857402459329
 21
583.1660140021081
 31
0.0
  0
LINE
  5
533
330
45D
100
AcDbEntity
  8
DIM
 62
     0
370
    -2
100
AcDbLine
 10
632.2236223207469
 20
583.7722316646067
 30
0.0
 11
641.7341874836981
 21
586.8624016083572
 31
0.0
  0
LINE
  5
534
330
45D
100
AcDbEntity
  8
DIM
 62
     0
370
    -2
100
AcDbLine
 10
624.503774234683
 20
581.2639009695178
 30
0.0
 11
614.9932090717316
 21
578.1737310257674
 31
0.0
  0
LINE
  5
535
330
45D
100
AcDbEntity
  8
DIM
 62
     0
370
    -2
100
AcDbLine
 10
486.6056098916113
 20
536.4580713000765
 30
0.0
 11
624.503774234683
 21
581.2639009695178
 31
0.0
  0
MTEXT
  5
536
330
45D
100
AcDbEntity
  8
DIM
 62
     0
100
AcDbMText
 10
541.5945628027957
 20
566.1206639072709
 30
0.0
 40
20.0
 41
0.0
 71
     5
 72
     1
  1
\A1;10-30 mm
 11
0.9510565162951229
 21
0.3090169943750418
 31
0.0
 73
     1
 44
1.0
  0
LINE
  5
537
330
45D
100
AcDbEntity
  8
DIM
 62
     0
370
    -2
100
AcDbLine
 10
632.2236223207469
 20
583.7722316646067
 30
0.0
 11
624.503774234683
 21
581.2639009695178
 31
0.0
  0
LINE
  5
538
330
45D
100
AcDbEntity
  8
DIM
 62
     0
370
    -2
100
AcDbLine
 10
632.2236223207469
 20
583.7722316646067
 30
0.0
 11
624.503774234683
 21
581.2639009695178
 31
0.0
  0
INSERT
  5
539
330
45D
100
AcDbEntity
  8
DIM
 62
     0
370
    -2
100
AcDbBlockReference
  2
_OBLIQUE
 10
632.2236223207469
 20
583.7722316646067
 30
0.0
 41
10.0
 42
10.0
 43
10.0
 50
198.0000000000057
  0
INSERT
  5
53A
330
45D
100
AcDbEntity
  8
DIM
 62
     0
370
    -2
100
AcDbBlockReference
  2
_OBLIQUE
 10
624.503774234683
 20
581.2639009695178
 30
0.0
 41
10.0
 42
10.0
 43
10.0
 50
18.00000000000568
  0
POINT
  5
53B
330
45D
100
AcDbEntity
  8
DEFPOINTS
 62
     0
100
AcDbPoint
 10
687.6590580148485
 20
413.1595038527903
 30
0.0
  0
POINT
  5
53C
330
45D
100
AcDbEntity
  8
DEFPOINTS
 62
     0
100
AcDbPoint
 10
658.884485254089
 20
475.450952668748
 30
0.0
  0
POINT
  5
53D
330
45D
100
AcDbEntity
  8
DEFPOINTS
 62
     0
100
AcDbPoint
 10
624.503774234683
 20
581.2639009695178
 30
0.0
  0
ENDBLK
  5
46A
330
45D
100
AcDbEntity
  8
0
100
AcDbBlockEnd
  0
ENDSEC
  0
SECTION
  2
ENTITIES
  0
LINE
  5
399
330
1F
100
AcDbEntity
  8
0
 62
     0
100
AcDbLine
 10
345.0453707122551
 20
456.1919879006974
 30
0.0
 11
333.152290176261
 21
478.6987565573562
 31
0.0
  0
LWPOLYLINE
  5
39A
330
1F
100
AcDbEntity
  8
0
100
AcDbPolyline
 90
        3
 70
     0
 43
0.0
 10
150.6750495727026
 20
535.000065032258
 10
462.5352712852118
 20
439.1400007431701
 10
457.2284272248797
 20
421.9400761468436
1001
ACAD
1000
ASC_BOUNDS
1002
{
1070
    19
1002
}
  0
LWPOLYLINE
  5
39B
102
{ACAD_REACTORS
330
409
102
}
330
1F
100
AcDbEntity
  8
0
100
AcDbPolyline
 90
        4
 70
     0
 43
0.0
 10
150.6750495727026
 20
574.767681231348
 10
473.7386087459137
 20
475.450952668748
 10
457.2284272248798
 20
421.9400761468436
 10
150.6750495727026
 20
516.1627731484783
1001
ACAD
1000
ASC_BOUNDS
1002
{
1070
    19
1002
}
  0
LINE
  5
39C
330
1F
100
AcDbEntity
  8
0
100
AcDbLine
 10
150.6750495727023
 20
430.971587328982
 30
0.0
 11
541.3005935835421
 21
304.0496542281663
 31
0.0
  0
LINE
  5
39E
330
1F
100
AcDbEntity
  8
0
100
AcDbLine
 10
541.3005935835419
 20
146.3303205924263
 30
0.0
 11
150.6750495727026
 21
273.2522536932418
 31
0.0
  0
LINE
  5
39F
330
1F
100
AcDbEntity
  8
0
100
AcDbLine
 10
255.9836386949962
 20
396.7547525406504
 30
0.0
 11
351.0892903245114
 21
365.8530531031557
 31
0.0
  0
LINE
  5
3A0
330
1F
100
AcDbEntity
  8
0
100
AcDbLine
 10
344.2909164482625
 20
344.9298097446622
 30
0.0
 11
249.185264818747
 21
375.8315091821572
 31
0.0
  0
LINE
  5
3A1
330
1F
100
AcDbEntity
  8
0
100
AcDbLine
 10
249.185264818747
 20
375.8315091821572
 30
0.0
 11
351.0892903245114
 21
365.8530531031557
 31
0.0
  0
LINE
  5
3A2
330
1F
100
AcDbEntity
  8
0
100
AcDbLine
 10
344.2909164482625
 20
344.9298097446622
 30
0.0
 11
255.9836386949962
 21
396.7547525406504
 31
0.0
  0
LINE
  5
3A3
330
1F
100
AcDbEntity
  8
0
100
AcDbLine
 10
150.6750495727026
 20
454.103756262224
 30
0.0
 11
375.4822097522207
 21
381.0594820657125
 31
0.0
  0
LINE
  5
3A4
330
1F
100
AcDbEntity
  8
0
100
AcDbLine
 10
289.2736717021654
 20
343.879676158847
 30
0.0
 11
295.6940669213675
 21
331.278941052146
 31
0.0
  0
LINE
  5
3A5
330
1F
100
AcDbEntity
  8
0
100
AcDbLine
 10
298.7842368651171
 20
340.7895062150974
 30
0.0
 11
286.1835017584161
 21
334.3691109958955
 31
0.0
  0
LINE
  5
3A6
330
1F
100
AcDbEntity
  8
0
100
AcDbLine
 10
225.4088519113686
 20
383.556934041531
 30
0.0
 11
185.8546766313752
 21
261.8216999557511
 31
0.0
  0
LINE
  5
3A7
330
1F
100
AcDbEntity
  8
DIM
  6
DASHDOT
100
AcDbLine
 10
150.6750495727026
 20
119.3911767838932
 30
0.0
 11
150.6750495727026
 21
721.3911767838932
 31
0.0
  0
LINE
  5
3A8
330
1F
100
AcDbEntity
  8
0
100
AcDbLine
 10
226.5100515003637
 20
280.1558346302323
 30
0.0
 11
232.9304467195659
 21
267.5550995235313
 31
0.0
  0
LINE
  5
3A9
330
1F
100
AcDbEntity
  8
0
100
AcDbLine
 10
236.0206166633151
 20
277.0656646864828
 30
0.0
 11
223.4198815566141
 21
270.6452694672808
 31
0.0
  0
LINE
  5
3AA
330
1F
100
AcDbEntity
  8
0
100
AcDbLine
 10
276.9129919271676
 20
305.8374155070406
 30
0.0
 11
283.3333871463699
 21
293.2366804003396
 31
0.0
  0
LINE
  5
3AB
330
1F
100
AcDbEntity
  8
0
100
AcDbLine
 10
286.4235570901194
 20
302.7472455632911
 30
0.0
 11
273.8228219834181
 21
296.3268503440891
 31
0.0
  0
LINE
  5
3AC
330
1F
100
AcDbEntity
  8
0
100
AcDbLine
 10
264.5523121521697
 20
267.7951548552347
 30
0.0
 11
270.9727073713719
 21
255.1944197485337
 31
0.0
  0
LINE
  5
3AD
330
1F
100
AcDbEntity
  8
0
100
AcDbLine
 10
238.8707312753614
 20
318.1980952820387
 30
0.0
 11
245.2911264945636
 21
305.5973601753377
 31
0.0
  0
LINE
  5
3AE
330
1F
100
AcDbEntity
  8
0
100
AcDbLine
 10
248.3812964383131
 20
315.1079253382892
 30
0.0
 11
235.7805613316121
 21
308.6875301190872
 31
0.0
  0
LINE
  5
3AF
330
1F
100
AcDbEntity
  8
0
100
AcDbLine
 10
274.0628773151214
 20
264.7049849114852
 30
0.0
 11
261.4621422084204
 21
258.2845896922832
 31
0.0
  0
LINE
  5
3B0
330
1F
100
AcDbEntity
  8
0
 62
     0
100
AcDbLine
 10
242.0722186201962
 20
487.9632004716032
 30
0.0
 11
230.1791380842018
 21
510.4699691282617
 31
0.0
  0
LINE
  5
3B1
330
1F
100
AcDbEntity
  8
0
100
AcDbLine
 10
225.4088519113686
 20
383.5569340415307
 30
0.0
 11
249.1852648187473
 21
375.8315091821569
 31
0.0
  0
LINE
  5
3B2
330
1F
100
AcDbEntity
  8
0
 62
     0
100
AcDbLine
 10
229.2005746086888
 20
491.9346020429663
 30
0.0
 11
217.3074940726946
 21
514.4413706996252
 31
0.0
  0
LINE
  5
3B3
330
1F
100
AcDbEntity
  8
0
 62
     0
100
AcDbLine
 10
216.3289305971813
 20
495.9060036143297
 30
0.0
 11
204.4358500611872
 21
518.4127722709883
 31
0.0
  0
LINE
  5
3B4
330
1F
100
AcDbEntity
  8
0
 62
     0
100
AcDbLine
 10
190.5856425741665
 20
503.8488067570561
 30
0.0
 11
178.6925620381723
 21
526.3555754137147
 31
0.0
  0
LINE
  5
3B5
330
1F
100
AcDbEntity
  8
0
 62
     0
100
AcDbLine
 10
164.842354551152
 20
511.7916098997824
 30
0.0
 11
152.9492740151576
 21
534.2983785564412
 31
0.0
  0
LINE
  5
3B6
330
1F
100
AcDbEntity
  8
0
 62
     0
100
AcDbLine
 10
151.9707105396444
 20
515.7630114711456
 30
0.0
 11
150.6750495727026
 21
518.2149533000234
 31
0.0
  0
LINE
  5
3B7
330
1F
100
AcDbEntity
  8
0
 62
     0
100
AcDbLine
 10
177.7139985626592
 20
507.8202083284192
 30
0.0
 11
165.8209180266651
 21
530.3269769850782
 31
0.0
  0
LINE
  5
3B8
330
1F
100
AcDbEntity
  8
0
 62
     0
100
AcDbLine
 10
203.4572865856739
 20
499.8774051856927
 30
0.0
 11
191.5642060496798
 21
522.3841738423517
 31
0.0
  0
LINE
  5
3B9
330
1F
100
AcDbEntity
  8
0
 62
     0
100
AcDbLine
 10
254.9438626317034
 20
483.9917989002398
 30
0.0
 11
243.0507820957093
 21
506.4985675568988
 31
0.0
  0
LINE
  5
3BA
330
1F
100
AcDbEntity
  8
0
 62
     0
100
AcDbLine
 10
267.8155066432109
 20
480.0203973288768
 30
0.0
 11
255.9224261072167
 21
502.5271659855353
 31
0.0
  0
LINE
  5
3BB
330
1F
100
AcDbEntity
  8
0
 62
     0
100
AcDbLine
 10
280.6871506547183
 20
476.0489957575136
 30
0.0
 11
268.7940701187242
 21
498.5557644141723
 31
0.0
  0
LINE
  5
3BC
330
1F
100
AcDbEntity
  8
0
 62
     0
100
AcDbLine
 10
293.5587946662256
 20
472.0775941861503
 30
0.0
 11
281.6657141302314
 21
494.5843628428091
 31
0.0
  0
LINE
  5
3BD
330
1F
100
AcDbEntity
  8
0
100
AcDbLine
 10
251.2314110503593
 20
356.2403559338446
 30
0.0
 11
257.6518062695615
 21
343.6396208271436
 31
0.0
  0
LINE
  5
3BE
330
1F
100
AcDbEntity
  8
0
100
AcDbLine
 10
260.741976213311
 20
353.1501859900951
 30
0.0
 11
248.14124110661
 21
346.7297907708931
 31
0.0
  0
LINE
  5
3BF
330
1F
100
AcDbEntity
  8
0
100
AcDbLine
 10
249.185264818747
 20
375.8315091821572
 30
0.0
 11
255.9836386949962
 21
396.7547525406504
 31
0.0
  0
LINE
  5
3C0
330
1F
100
AcDbEntity
  8
0
 62
     0
100
AcDbLine
 10
319.3020826892404
 20
464.1347910434238
 30
0.0
 11
307.4090021532463
 21
486.6415597000826
 31
0.0
  0
LINE
  5
3C1
330
1F
100
AcDbEntity
  8
0
 62
     0
100
AcDbLine
 10
306.430438677733
 20
468.106192614787
 30
0.0
 11
294.5373581417388
 21
490.6129612714458
 31
0.0
  0
LINE
  5
3C2
330
1F
100
AcDbEntity
  8
0
 62
     0
100
AcDbLine
 10
332.1737267007477
 20
460.1633894720606
 30
0.0
 11
320.2806461647535
 21
482.6701581287194
 31
0.0
  0
LINE
  5
3C3
330
1F
100
AcDbEntity
  8
0
 62
     0
100
AcDbLine
 10
736.091147241718
 20
440.3063816152445
 30
0.0
 11
747.9842277777122
 21
462.8131502719033
 31
0.0
  0
LWPOLYLINE
  5
3C4
330
1F
100
AcDbEntity
  8
0
100
AcDbPolyline
 90
        3
 70
     0
 43
0.0
 10
977.6750495727027
 20
533.6866254431389
 10
670.0878227147909
 20
439.1400007431701
 10
675.394666775123
 20
421.9400761468436
1001
ACAD
1000
ASC_BOUNDS
1002
{
1070
    19
1002
}
  0
LWPOLYLINE
  5
3C5
330
1F
100
AcDbEntity
  8
0
100
AcDbPolyline
 90
        4
 70
     0
 43
0.0
 10
977.6750495727027
 20
573.4540701536717
 10
658.884485254089
 20
475.450952668748
 10
675.3946667751229
 20
421.9400761468436
 10
977.6750495727027
 20
514.8494191656978
1001
ACAD
1000
ASC_BOUNDS
1002
{
1070
    19
1002
}
  0
LWPOLYLINE
  5
3C6
330
1F
100
AcDbEntity
  8
0
100
AcDbPolyline
 90
        4
 70
     1
 43
0.0
 10
709.5880584330243
 20
365.6086323469652
 10
694.1372087142769
 20
413.1614581617228
 10
741.6900345290348
 20
428.6123078804702
 10
757.1408842477819
 20
381.0594820657125
  0
LINE
  5
3C7
330
1F
100
AcDbEntity
  8
0
100
AcDbLine
 10
757.1408842477819
 20
381.0594820657125
 30
0.0
 11
694.1372087142769
 21
413.1614581617228
 31
0.0
  0
LINE
  5
3C8
330
1F
100
AcDbEntity
  8
0
100
AcDbLine
 10
709.5880584330245
 20
365.6086323469652
 30
0.0
 11
741.6900345290346
 21
428.6123078804702
 31
0.0
  0
LINE
  5
3C9
330
1F
100
AcDbEntity
  8
0
100
AcDbLine
 10
693.2265259222247
 20
314.0281103071675
 30
0.0
 11
781.5338036754913
 21
365.8530531031557
 31
0.0
  0
LINE
  5
3CA
330
1F
100
AcDbEntity
  8
0
100
AcDbLine
 10
788.3321775517401
 20
344.9298097446622
 30
0.0
 11
686.4281520459759
 21
334.951353665661
 31
0.0
  0
LINE
  5
3CB
330
1F
100
AcDbEntity
  8
0
100
AcDbLine
 10
693.2265259222247
 20
314.0281103071675
 30
0.0
 11
788.3321775517401
 21
344.9298097446622
 31
0.0
  0
LINE
  5
3CC
330
1F
100
AcDbEntity
  8
0
100
AcDbLine
 10
781.5338036754913
 20
365.8530531031557
 30
0.0
 11
686.4281520459759
 21
334.951353665661
 31
0.0
  0
LINE
  5
3CE
330
1F
100
AcDbEntity
  8
0
100
AcDbLine
 10
977.6750495727027
 20
429.5832071388214
 30
0.0
 11
591.3225004164606
 21
304.0496542281663
 31
0.0
  0
LINE
  5
3CF
330
1F
100
AcDbEntity
  8
0
100
AcDbLine
 10
591.3225004164607
 20
146.3303205924263
 30
0.0
 11
977.6750495727027
 21
271.8638735030814
 31
0.0
  0
LINE
  5
3D1
330
1F
100
AcDbEntity
  8
0
100
AcDbLine
 10
439.396568077778
 20
314.0281103071675
 30
0.0
 11
344.2909164482625
 21
344.9298097446622
 31
0.0
  0
LINE
  5
3D2
330
1F
100
AcDbEntity
  8
0
100
AcDbLine
 10
439.396568077778
 20
314.0281103071675
 30
0.0
 11
351.0892903245114
 21
365.8530531031557
 31
0.0
  0
LINE
  5
3D3
330
1F
100
AcDbEntity
  8
0
100
AcDbLine
 10
351.0892903245114
 20
365.8530531031557
 30
0.0
 11
446.1949419540267
 21
334.951353665661
 31
0.0
  0
LINE
  5
3D4
330
1F
100
AcDbEntity
  8
0
100
AcDbLine
 10
344.2909164482625
 20
344.9298097446622
 30
0.0
 11
446.1949419540267
 21
334.951353665661
 31
0.0
  0
LWPOLYLINE
  5
3D5
102
{ACAD_REACTORS
330
409
102
}
330
1F
100
AcDbEntity
  8
0
100
AcDbPolyline
 90
        5
 70
     0
 43
2.0
 10
566.3115470000014
 20
321.1581962233134
 10
428.4083521372042
 20
365.9656604076809
 10
443.8592018559513
 20
413.5184862224385
 10
401.0616586226694
 20
427.4242509693111
 10
410.4420911373101
 20
428.386941692831
  0
LWPOLYLINE
  5
3D6
330
1F
100
AcDbEntity
  8
0
100
AcDbPolyline
 90
        5
 70
     0
 43
2.0
 10
566.3115470000014
 20
321.1581962233134
 10
704.2147418627986
 20
365.9656604076809
 10
688.7638921440513
 20
413.5184862224385
 10
731.5614353773333
 20
427.4242509693111
 10
722.1810028626926
 20
428.386941692831
  0
LINE
  5
3D7
330
1F
100
AcDbEntity
  8
0
100
AcDbLine
 10
541.3005935835421
 20
304.0496542281663
 30
0.0
 11
534.5022197072933
 21
283.1264108696728
 31
0.0
  0
LINE
  5
3D8
330
1F
100
AcDbEntity
  8
0
100
AcDbLine
 10
541.3005935835421
 20
304.0496542281663
 30
0.0
 11
534.5022197072933
 21
283.1264108696728
 31
0.0
  0
LINE
  5
3D9
330
1F
100
AcDbEntity
  8
0
100
AcDbLine
 10
446.1949419540267
 20
334.951353665661
 30
0.0
 11
541.3005935835421
 21
304.0496542281663
 31
0.0
  0
LINE
  5
3DA
330
1F
100
AcDbEntity
  8
0
100
AcDbLine
 10
439.396568077778
 20
314.0281103071675
 30
0.0
 11
541.3005935835421
 21
304.0496542281663
 31
0.0
  0
LINE
  5
3DB
330
1F
100
AcDbEntity
  8
0
100
AcDbLine
 10
447.1551632808393
 20
208.4638919352447
 30
0.0
 11
434.5544281741383
 21
202.0434967160428
 31
0.0
  0
LINE
  5
3DC
330
1F
100
AcDbEntity
  8
0
100
AcDbLine
 10
534.5022197072933
 20
283.1264108696728
 30
0.0
 11
446.1949419540267
 21
334.951353665661
 31
0.0
  0
LINE
  5
3DD
330
1F
100
AcDbEntity
  8
0
100
AcDbLine
 10
497.5581037076433
 20
234.1454728120528
 30
0.0
 11
484.9573686009423
 21
227.7250775928508
 31
0.0
  0
LINE
  5
3DE
330
1F
100
AcDbEntity
  8
0
100
AcDbLine
 10
541.3225004164606
 20
280.910367333427
 30
0.0
 11
439.396568077778
 21
314.0281103071675
 31
0.0
  0
LINE
  5
3DF
330
1F
100
AcDbEntity
  8
0
100
AcDbLine
 10
437.6445981178876
 20
211.5540618789942
 30
0.0
 11
444.0649933370898
 21
198.9533267722933
 31
0.0
  0
LINE
  5
3E0
330
1F
100
AcDbEntity
  8
0
100
AcDbLine
 10
459.5158430558369
 20
246.5061525870509
 30
0.0
 11
446.915107949136
 21
240.0857573678489
 31
0.0
  0
LINE
  5
3E1
330
1F
100
AcDbEntity
  8
0
100
AcDbLine
 10
450.0052778928853
 20
249.5963225308004
 30
0.0
 11
456.4256731120874
 21
236.9955874240994
 31
0.0
  0
LINE
  5
3E2
330
1F
100
AcDbEntity
  8
0
100
AcDbLine
 10
485.1974239326453
 20
196.1032121602467
 30
0.0
 11
472.5966888259442
 21
189.6828169410447
 31
0.0
  0
LINE
  5
3E3
330
1F
100
AcDbEntity
  8
0
100
AcDbLine
 10
475.6868587696935
 20
199.1933821039962
 30
0.0
 11
482.1072539888957
 21
186.5926469972952
 31
0.0
  0
LINE
  5
3E4
330
1F
100
AcDbEntity
  8
0
100
AcDbLine
 10
471.876522830835
 20
284.548413238857
 30
0.0
 11
459.275787724134
 21
278.128018019655
 31
0.0
  0
LINE
  5
3E5
330
1F
100
AcDbEntity
  8
0
100
AcDbLine
 10
446.1949419540267
 20
334.951353665661
 30
0.0
 11
439.396568077778
 21
314.0281103071675
 31
0.0
  0
LINE
  5
3E6
330
1F
100
AcDbEntity
  8
0
100
AcDbLine
 10
439.396568077778
 20
314.0281103071675
 30
0.0
 11
446.1949419540267
 21
334.951353665661
 31
0.0
  0
LINE
  5
3E7
330
1F
100
AcDbEntity
  8
0
100
AcDbLine
 10
462.3659576678835
 20
287.6385831826065
 30
0.0
 11
468.7863528870855
 21
275.0378480759055
 31
0.0
  0
LINE
  5
3E8
330
1F
100
AcDbEntity
  8
0
100
AcDbLine
 10
488.0475385446918
 20
237.2356427558023
 30
0.0
 11
494.4679337638937
 21
224.6349076491013
 31
0.0
  0
LINE
  5
3E9
330
1F
100
AcDbEntity
  8
0
100
AcDbLine
 10
509.9187834826409
 20
272.1877334638589
 30
0.0
 11
497.3180483759399
 21
265.767338244657
 31
0.0
  0
LINE
  5
3EA
330
1F
100
AcDbEntity
  8
0
100
AcDbLine
 10
500.4082183196892
 20
275.2779034076084
 30
0.0
 11
506.8286135388914
 21
262.6771683009075
 31
0.0
  0
LINE
  5
3EB
330
1F
100
AcDbEntity
  8
0
100
AcDbLine
 10
635.0649902923594
 20
234.1454728120528
 30
0.0
 11
647.6657253990605
 21
227.7250775928508
 31
0.0
  0
LINE
  5
3EC
330
1F
100
AcDbEntity
  8
0
100
AcDbLine
 10
598.1208742927094
 20
283.1264108696728
 30
0.0
 11
686.4281520459759
 21
334.951353665661
 31
0.0
  0
LINE
  5
3ED
330
1F
100
AcDbEntity
  8
0
100
AcDbLine
 10
591.3225004164606
 20
280.9174852949242
 30
0.0
 11
693.2265259222248
 21
314.0281103071675
 31
0.0
  0
LINE
  5
3EE
330
1F
100
AcDbEntity
  8
0
100
AcDbLine
 10
686.4281520459759
 20
334.951353665661
 30
0.0
 11
591.3225004164606
 21
304.0496542281663
 31
0.0
  0
LINE
  5
3EF
330
1F
100
AcDbEntity
  8
0
100
AcDbLine
 10
693.2265259222248
 20
314.0281103071675
 30
0.0
 11
591.3225004164606
 21
304.0496542281663
 31
0.0
  0
LINE
  5
3F0
330
1F
100
AcDbEntity
  8
0
100
AcDbLine
 10
591.3225004164606
 20
304.0496542281663
 30
0.0
 11
591.3225004164606
 21
146.3303205924263
 31
0.0
  0
LINE
  5
3F1
330
1F
100
AcDbEntity
  8
0
100
AcDbLine
 10
541.3005935835421
 20
304.0496542281663
 30
0.0
 11
541.3005935835421
 21
146.3303205924263
 31
0.0
  0
LINE
  5
3F3
330
1F
100
AcDbEntity
  8
0
100
AcDbLine
 10
541.3225004164606
 20
296.3912878881332
 30
0.0
 11
591.3225004164606
 21
146.3303205924263
 31
0.0
  0
LINE
  5
3F4
330
1F
100
AcDbEntity
  8
0
100
AcDbLine
 10
541.3225004164606
 20
146.3911767838932
 30
0.0
 11
591.3131051806914
 21
296.3304431318317
 31
0.0
  0
LINE
  5
3F8
330
1F
100
AcDbEntity
  8
0
100
AcDbLine
 10
591.3225004164606
 20
304.0496542281663
 30
0.0
 11
598.1208742927094
 21
283.1264108696728
 31
0.0
  0
LINE
  5
3F9
330
1F
100
AcDbEntity
  8
0
100
AcDbLine
 10
591.3225004164606
 20
304.0496542281663
 30
0.0
 11
598.1208742927094
 21
283.1264108696728
 31
0.0
  0
LINE
  5
3FA
330
1F
100
AcDbEntity
  8
0
100
AcDbLine
 10
622.7043105173615
 20
272.1877334638589
 30
0.0
 11
635.3050456240626
 21
265.767338244657
 31
0.0
  0
LINE
  5
3FB
330
1F
100
AcDbEntity
  8
0
100
AcDbLine
 10
632.214875680313
 20
275.2779034076084
 30
0.0
 11
625.794480461111
 21
262.6771683009075
 31
0.0
  0
LINE
  5
3FC
330
1F
100
AcDbEntity
  8
0
100
AcDbLine
 10
693.2265259222248
 20
314.0281103071675
 30
0.0
 11
686.4281520459759
 21
334.951353665661
 31
0.0
  0
LINE
  5
3FD
330
1F
100
AcDbEntity
  8
0
100
AcDbLine
 10
686.4281520459759
 20
334.951353665661
 30
0.0
 11
693.2265259222247
 21
314.0281103071675
 31
0.0
  0
LINE
  5
3FE
330
1F
100
AcDbEntity
  8
0
100
AcDbLine
 10
685.4679307191633
 20
208.4638919352447
 30
0.0
 11
698.0686658258645
 21
202.0434967160428
 31
0.0
  0
LINE
  5
3FF
330
1F
100
AcDbEntity
  8
0
100
AcDbLine
 10
647.4256700673573
 20
196.1032121602467
 30
0.0
 11
660.0264051740583
 21
189.6828169410447
 31
0.0
  0
LINE
  5
400
330
1F
100
AcDbEntity
  8
0
100
AcDbLine
 10
656.9362352303088
 20
199.1933821039962
 30
0.0
 11
650.5158400111067
 21
186.5926469972952
 31
0.0
  0
LINE
  5
401
330
1F
100
AcDbEntity
  8
0
100
AcDbLine
 10
644.5755554553109
 20
237.2356427558023
 30
0.0
 11
638.1551602361089
 21
224.6349076491013
 31
0.0
  0
LINE
  5
402
330
1F
100
AcDbEntity
  8
0
100
AcDbLine
 10
673.1072509441656
 20
246.5061525870506
 30
0.0
 11
685.7079860508665
 21
240.0857573678487
 31
0.0
  0
LINE
  5
403
330
1F
100
AcDbEntity
  8
0
100
AcDbLine
 10
682.617816107117
 20
249.5963225308002
 30
0.0
 11
676.1974208879149
 21
236.9955874240992
 31
0.0
  0
LINE
  5
404
330
1F
100
AcDbEntity
  8
0
100
AcDbLine
 10
660.7465711691677
 20
284.548413238857
 30
0.0
 11
673.3473062758687
 21
278.128018019655
 31
0.0
  0
LINE
  5
405
330
1F
100
AcDbEntity
  8
0
100
AcDbLine
 10
670.2571363321192
 20
287.6385831826065
 30
0.0
 11
663.8367411129171
 21
275.0378480759055
 31
0.0
  0
LINE
  5
406
330
1F
100
AcDbEntity
  8
0
100
AcDbLine
 10
694.9784958821151
 20
211.5540618789942
 30
0.0
 11
688.5581006629129
 21
198.9533267722933
 31
0.0
  0
DIMENSION
  5
408
330
1F
100
AcDbEntity
  8
DIM
100
AcDbDimension
  2
*D3
 10
624.503774234683
 20
581.2639009695178
 30
0.0
 11
546.3140244659379
 21
551.5956544422936
 31
0.0
 70
   160
  1
10-30 mm
 71
     5
 42
8.117128639354632
  3
MK10
100
AcDbAlignedDimension
 13
687.6590580148487
 23
413.1595038527904
 33
0.0
 14
658.884485254089
 24
475.450952668748
 34
0.0
 50
18.00000000000568
100
AcDbRotatedDimension
1001
ACAD
1000
DSTYLE
1002
{
1070
    41
1040
1.0
1070
    73
1070
     0
1070
    74
1070
     0
1070
    77
1070
     1
1070
   140
1040
2.0
1070
   172
1070
     1
1070
   279
1070
     1
1070
   289
1070
     0
1002
}
  0
HATCH
  5
409
330
1F
100
AcDbEntity
  8
0
100
AcDbHatch
 10
0.0
 20
0.0
 30
0.0
210
0.0
220
0.0
230
1.0
  2
GRAVEL
 70
     0
 71
     1
 91
        1
 92
        7
 72
     0
 73
     1
 93
        4
 10
439.631000533641
 20
414.8923121116953
 10
439.7589965213373
 20
427.3095060600857
 10
421.9243470968016
 20
432.7911901365374
 10
416.4609125330006
 20
422.4207300665528
 97
        4
330
39B
330
418
330
3D5
330
41A
 75
     0
 76
     1
 52
0.0
 41
0.75
 77
     0
 78
    42
 53
228.0127999999999
 43
13.716
 44
19.04999999999999
 45
-152.40012949422
 46
-171.4502106713443
 79
     2
 49
2.562907499999999
 49
-253.72875
 53
184.9696999999999
 43
12.0015
 44
17.145
 45
228.6003697963434
 46
19.04986556540593
 79
     2
 49
4.3980375
 49
-435.4049999999999
 53
132.5104
 43
7.62
 44
16.76399999999999
 45
190.4998613874877
 46
-209.550204693453
 79
     2
 49
3.101114999999999
 49
-307.0102499999999
 53
267.2737
 43
0.1905
 44
12.0015
 45
19.04991728121129
 46
380.9998774002482
 79
     2
 49
4.0050375
 49
-396.498
 53
292.8337
 43
0.0
 44
8.000999999999999
 45
-95.25027041626428
 46
228.6001299753833
 79
     2
 49
3.927255
 49
-388.7985
 53
357.2737
 43
1.524
 44
4.3815
 45
-380.9998774002482
 46
19.04991728121131
 79
     2
 49
4.0050375
 49
-396.498
 53
37.6942
 43
5.5245
 44
4.190999999999998
 45
-247.6501564592995
 46
-190.4998301773867
 79
     2
 49
5.296454999999999
 49
-524.3482499999999
 53
72.2553
 43
9.7155
 44
7.4295
 45
133.3502667410039
 46
419.1001215452729
 79
     2
 49
5.000399999999999
 49
-495.03975
 53
121.4296
 43
11.2395
 44
12.192
 45
-152.4000392644836
 46
247.6497086997951
 79
     2
 49
4.0185975
 49
-397.84125
 53
175.2364
 43
9.144
 44
15.621
 45
209.5498353979083
 46
-19.04982122040866
 79
     2
 49
4.5878475
 49
-224.80425
 53
222.3974
 43
4.572
 44
16.002
 45
-228.6000068792978
 46
-209.5497273797772
 79
     2
 49
5.933085
 49
-587.3759999999999
 53
138.8141
 43
19.04999999999999
 44
11.811
 45
-133.3499150566855
 46
114.29982417843
 79
     2
 49
2.025037499999999
 49
-200.4794999999999
 53
171.4692
 43
17.526
 44
13.1445
 45
247.6496219669355
 46
-38.10009600034273
 79
     2
 49
3.852614999999999
 49
-381.4095
 53
225.0
 43
13.716
 44
13.716
 45
-0.0000000000000027
 46
-19.04998701525148
 79
     2
 49
2.6940675
 49
-24.24667499999999
 53
203.1985999999999
 43
12.3825
 44
16.002
 45
95.25032119193125
 46
38.10016705729698
 79
     2
 49
1.450807499999999
 49
-143.6294999999999
 53
291.8013999999999
 43
11.049
 44
15.4305
 45
-19.05001336420881
 46
57.15003681548899
 79
     2
 49
2.051744999999999
 49
-100.536
 53
30.9638
 43
11.811
 44
13.5255
 45
57.14993966106169
 46
38.10002968995414
 79
     2
 49
3.332399999999999
 49
-107.7472499999999
 53
161.5650999999999
 43
14.66849999999999
 44
15.24
 45
38.10001738635735
 46
-19.04997166848807
 79
     2
 49
2.409652499999999
 49
-57.83174999999999
 53
16.3895
 43
0.0
 44
15.4305
 45
190.5001051047701
 46
57.14988112475854
 79
     2
 49
3.37566
 49
-334.191
 53
70.3462
 43
3.2385
 44
16.383
 45
-76.19978766507381
 46
-209.5497036640875
 79
     2
 49
2.8319925
 49
-280.3664999999999
 53
293.1986
 43
14.66849999999999
 44
19.04999999999999
 45
-38.10016705729698
 46
95.25032119193125
 79
     2
 49
2.901599999999999
 49
-142.179
 53
343.6104999999999
 43
15.8115
 44
16.383
 45
-190.5001051047701
 46
57.14988112475858
 79
     2
 49
3.37566
 49
-334.191
 53
339.444
 43
0.0
 44
3.6195
 45
-95.25011823191933
 46
38.09995377037603
 79
     2
 49
3.255262499999999
 49
-159.50775
 53
294.7751
 43
3.048
 44
2.4765
 45
-95.2497780272013
 46
209.549902696175
 79
     2
 49
2.727539999999999
 49
-270.0269999999999
 53
66.8014
 43
14.859
 44
0.0
 45
38.10016705729701
 46
95.25032119193124
 79
     2
 49
2.901599999999999
 49
-142.179
 53
17.354
 43
16.002
 44
2.666999999999999
 45
-247.6500133639496
 46
-76.19988506704224
 79
     2
 49
3.1933725
 49
-316.143
 53
69.444
 43
5.5245
 44
0.0
 45
-38.09995377037608
 46
-95.25011823191929
 79
     2
 49
1.627634999999999
 49
-161.1359999999999
 53
101.3098999999999
 43
13.716
 44
0.0
 45
-19.04990597165511
 46
76.19975595676965
 79
     2
 49
0.9713625
 49
-96.165
 53
165.9637999999999
 43
13.5255
 44
0.9525
 45
57.1500401602288
 46
-19.04996703092731
 79
     2
 49
3.927255
 49
-74.61787499999999
 53
186.009
 43
9.7155
 44
1.905
 45
190.4997190832096
 46
19.04995551410893
 79
     2
 49
3.639502499999999
 49
-360.3104999999999
 53
303.6900999999999
 43
11.811
 44
11.811
 45
-19.05000653480424
 46
38.09996324423879
 79
     2
 49
2.74743
 49
-65.93835
 53
353.1572
 43
13.335
 44
9.524999999999998
 45
323.8501339248256
 46
-38.10017063741129
 79
     2
 49
4.796677499999999
 49
-474.87
 53
60.94540000000001
 43
18.0975
 44
8.953499999999998
 45
-76.19982274371817
 46
-133.3496820812559
 79
     2
 49
1.961309999999999
 49
-194.1704999999999
 53
90.0
 43
19.04999999999999
 44
10.66799999999999
 45
-19.04999999999999
 46
19.04999999999999
 79
     2
 49
1.143
 49
-17.90699999999999
 53
120.2563999999999
 43
9.3345
 44
2.4765
 45
76.19983850127083
 46
-133.3499327435817
 79
     2
 49
2.646502499999999
 49
-262.00425
 53
48.0128
 43
8.000999999999999
 44
4.762499999999999
 45
152.40012949422
 46
171.4502106713443
 79
     2
 49
5.125822499999999
 49
-251.166
 53
0.0
 43
11.43
 44
8.572499999999999
 45
19.04999999999999
 46
19.04999999999999
 79
     2
 49
4.953
 49
-14.09699999999999
 53
325.3048
 43
16.383
 44
8.572499999999999
 45
-190.4996699321526
 46
133.3500126786357
 79
     2
 49
3.012074999999999
 49
-298.19475
 53
254.0545999999999
 43
18.8595
 44
6.858
 45
-19.05004859776105
 46
-76.20018152402721
 79
     2
 49
2.7737175
 49
-135.91275
 53
207.6459999999999
 43
18.0975
 44
4.190999999999998
 45
-361.9498728676703
 46
-190.5001198104254
 79
     2
 49
4.516087499999999
 49
-447.0937499999999
 53
175.4260999999999
 43
14.09699999999999
 44
2.095499999999999
 45
-247.6500570356063
 46
19.04990783414596
 79
     2
 49
4.777717499999999
 49
-472.9935
 53
175.4260999999999
 43
14.09699999999999
 44
2.095499999999999
 45
-247.6500570356063
 46
19.04990783414596
 79
     2
 49
4.777717499999999
 49
-472.9935
 47
0.2232566699257212
 98
        1
 10
429.9090878770287
 20
422.8900669922055
  0
LINE
  5
40A
330
1F
100
AcDbEntity
  8
0
  6
DASHED
100
AcDbLine
 10
416.4609125330006
 20
422.4207300665531
 30
0.0
 11
440.1725483948915
 21
467.4291528870634
 31
0.0
  0
LINE
  5
40B
330
1F
100
AcDbEntity
  8
0
 62
     0
100
AcDbLine
 10
435.1468787928068
 20
428.3921769011548
 30
0.0
 11
423.2537982568126
 21
450.8989455578135
 31
0.0
  0
LINE
  5
40C
330
1F
100
AcDbEntity
  8
0
100
AcDbLine
 10
375.4822097522207
 20
381.0594820657125
 30
0.0
 11
438.4858852857258
 21
413.1614581617228
 31
0.0
  0
LWPOLYLINE
  5
40D
330
1F
100
AcDbEntity
  8
0
100
AcDbPolyline
 90
        4
 70
     1
 43
0.0
 10
423.0350355669783
 20
365.6086323469652
 10
438.4858852857258
 20
413.1614581617228
 10
390.9330594709679
 20
428.6123078804702
 10
375.4822097522207
 20
381.0594820657125
  0
LINE
  5
40E
330
1F
100
AcDbEntity
  8
0
100
AcDbLine
 10
351.0892903245114
 20
365.8530531031557
 30
0.0
 11
344.2909164482625
 21
344.9298097446622
 31
0.0
  0
LINE
  5
40F
330
1F
100
AcDbEntity
  8
0
100
AcDbLine
 10
344.2909164482625
 20
344.9298097446622
 30
0.0
 11
351.0892903245114
 21
365.8530531031557
 31
0.0
  0
LINE
  5
410
330
1F
100
AcDbEntity
  8
0
 62
     0
100
AcDbLine
 10
357.9170147237626
 20
452.2205863293342
 30
0.0
 11
346.0239341877684
 21
474.7273549859929
 31
0.0
  0
LINE
  5
411
330
1F
100
AcDbEntity
  8
0
 62
     0
100
AcDbLine
 10
370.7886587352697
 20
448.2491847579709
 30
0.0
 11
358.8955781992756
 21
470.7559534146297
 31
0.0
  0
LINE
  5
412
330
1F
100
AcDbEntity
  8
0
 62
     0
100
AcDbLine
 10
383.6603027467772
 20
444.2777831866077
 30
0.0
 11
371.767222210783
 21
466.7845518432665
 31
0.0
  0
LINE
  5
413
330
1F
100
AcDbEntity
  8
0
100
AcDbLine
 10
423.0350355669782
 20
365.6086323469652
 30
0.0
 11
390.9330594709681
 21
428.6123078804702
 31
0.0
  0
LINE
  5
414
330
1F
100
AcDbEntity
  8
0
100
AcDbLine
 10
416.2366616907295
 20
344.6853889884717
 30
0.0
 11
423.0350355669782
 21
365.6086323469652
 31
0.0
  0
LINE
  5
415
330
1F
100
AcDbEntity
  8
0
 62
     0
100
AcDbLine
 10
409.4035907697921
 20
436.3349800438812
 30
0.0
 11
397.5105102337977
 21
458.84174870054
 31
0.0
  0
LINE
  5
416
330
1F
100
AcDbEntity
  8
0
 62
     0
100
AcDbLine
 10
396.5319467582846
 20
440.3063816152445
 30
0.0
 11
384.6388662222905
 21
462.8131502719033
 31
0.0
  0
LINE
  5
417
330
1F
100
AcDbEntity
  8
0
 62
     0
100
AcDbLine
 10
422.0735001465227
 20
432.7453462358163
 30
0.0
 11
410.3821542453052
 21
454.8703471291767
 31
0.0
  0
LINE
  5
418
102
{ACAD_REACTORS
330
409
102
}
330
1F
100
AcDbEntity
  8
0
100
AcDbLine
 10
416.4609125330006
 20
422.4207300665531
 30
0.0
 11
421.9243470968015
 21
432.7911901365372
 31
0.0
  0
LINE
  5
41A
102
{ACAD_REACTORS
330
409
102
}
330
1F
100
AcDbEntity
  8
0
100
AcDbLine
 10
439.6310005336409
 20
414.8923121116953
 30
0.0
 11
439.7589965213371
 21
427.3095060600854
 31
0.0
  0
LINE
  5
41B
330
1F
100
AcDbEntity
  8
0
  6
DASHED
100
AcDbLine
 10
439.6310005336409
 20
414.8923121116953
 30
0.0
 11
440.1725483948915
 21
467.4291528870634
 31
0.0
  0
LINE
  5
41C
330
1F
100
AcDbEntity
  8
0
 62
     0
100
AcDbLine
 10
447.8263487536058
 20
424.7844504001835
 30
0.0
 11
435.9332682176117
 21
447.2912190568423
 31
0.0
  0
LINE
  5
41D
330
1F
100
AcDbEntity
  8
0
 62
     0
100
AcDbLine
 10
458.2879105069577
 20
425.3739499060189
 30
0.0
 11
448.8049122291191
 21
443.3198174854791
 31
0.0
  0
LINE
  5
420
330
1F
100
AcDbEntity
  8
0
 62
     0
100
AcDbLine
 10
684.7967452463969
 20
424.7844504001835
 30
0.0
 11
696.689825782391
 21
447.2912190568423
 31
0.0
  0
LINE
  5
421
330
1F
100
AcDbEntity
  8
0
 62
     0
100
AcDbLine
 10
674.335183493045
 20
425.3739499060189
 30
0.0
 11
683.8181817708836
 21
443.3198174854791
 31
0.0
  0
LINE
  5
422
330
1F
100
AcDbEntity
  8
0
100
AcDbLine
 10
692.9920934663619
 20
414.8923121116953
 30
0.0
 11
692.8640974786656
 21
427.3095060600854
 31
0.0
  0
HATCH
  5
423
330
1F
100
AcDbEntity
  8
0
100
AcDbHatch
 10
0.0
 20
0.0
 30
0.0
210
0.0
220
0.0
230
1.0
  2
GRAVEL
 70
     0
 71
     0
 91
        1
 92
        7
 72
     0
 73
     1
 93
        4
 10
692.9920934663617
 20
414.8923121116953
 10
692.8640974786654
 20
427.3095060600857
 10
710.6987469032012
 20
432.7911901365374
 10
716.1621814670022
 20
422.4207300665528
 97
        0
 75
     0
 76
     1
 52
0.0
 41
0.75
 77
     0
 78
    42
 53
228.0127999999999
 43
13.716
 44
19.04999999999999
 45
-152.40012949422
 46
-171.4502106713443
 79
     2
 49
2.562907499999999
 49
-253.72875
 53
184.9696999999999
 43
12.0015
 44
17.145
 45
228.6003697963434
 46
19.04986556540593
 79
     2
 49
4.3980375
 49
-435.4049999999999
 53
132.5104
 43
7.62
 44
16.76399999999999
 45
190.4998613874877
 46
-209.550204693453
 79
     2
 49
3.101114999999999
 49
-307.0102499999999
 53
267.2737
 43
0.1905
 44
12.0015
 45
19.04991728121129
 46
380.9998774002482
 79
     2
 49
4.0050375
 49
-396.498
 53
292.8337
 43
0.0
 44
8.000999999999999
 45
-95.25027041626428
 46
228.6001299753833
 79
     2
 49
3.927255
 49
-388.7985
 53
357.2737
 43
1.524
 44
4.3815
 45
-380.9998774002482
 46
19.04991728121131
 79
     2
 49
4.0050375
 49
-396.498
 53
37.6942
 43
5.5245
 44
4.190999999999998
 45
-247.6501564592995
 46
-190.4998301773867
 79
     2
 49
5.296454999999999
 49
-524.3482499999999
 53
72.2553
 43
9.7155
 44
7.4295
 45
133.3502667410039
 46
419.1001215452729
 79
     2
 49
5.000399999999999
 49
-495.03975
 53
121.4296
 43
11.2395
 44
12.192
 45
-152.4000392644836
 46
247.6497086997951
 79
     2
 49
4.0185975
 49
-397.84125
 53
175.2364
 43
9.144
 44
15.621
 45
209.5498353979083
 46
-19.04982122040866
 79
     2
 49
4.5878475
 49
-224.80425
 53
222.3974
 43
4.572
 44
16.002
 45
-228.6000068792978
 46
-209.5497273797772
 79
     2
 49
5.933085
 49
-587.3759999999999
 53
138.8141
 43
19.04999999999999
 44
11.811
 45
-133.3499150566855
 46
114.29982417843
 79
     2
 49
2.025037499999999
 49
-200.4794999999999
 53
171.4692
 43
17.526
 44
13.1445
 45
247.6496219669355
 46
-38.10009600034273
 79
     2
 49
3.852614999999999
 49
-381.4095
 53
225.0
 43
13.716
 44
13.716
 45
-0.0000000000000027
 46
-19.04998701525148
 79
     2
 49
2.6940675
 49
-24.24667499999999
 53
203.1985999999999
 43
12.3825
 44
16.002
 45
95.25032119193125
 46
38.10016705729698
 79
     2
 49
1.450807499999999
 49
-143.6294999999999
 53
291.8013999999999
 43
11.049
 44
15.4305
 45
-19.05001336420881
 46
57.15003681548899
 79
     2
 49
2.051744999999999
 49
-100.536
 53
30.9638
 43
11.811
 44
13.5255
 45
57.14993966106169
 46
38.10002968995414
 79
     2
 49
3.332399999999999
 49
-107.7472499999999
 53
161.5650999999999
 43
14.66849999999999
 44
15.24
 45
38.10001738635735
 46
-19.04997166848807
 79
     2
 49
2.409652499999999
 49
-57.83174999999999
 53
16.3895
 43
0.0
 44
15.4305
 45
190.5001051047701
 46
57.14988112475854
 79
     2
 49
3.37566
 49
-334.191
 53
70.3462
 43
3.2385
 44
16.383
 45
-76.19978766507381
 46
-209.5497036640875
 79
     2
 49
2.8319925
 49
-280.3664999999999
 53
293.1986
 43
14.66849999999999
 44
19.04999999999999
 45
-38.10016705729698
 46
95.25032119193125
 79
     2
 49
2.901599999999999
 49
-142.179
 53
343.6104999999999
 43
15.8115
 44
16.383
 45
-190.5001051047701
 46
57.14988112475858
 79
     2
 49
3.37566
 49
-334.191
 53
339.444
 43
0.0
 44
3.6195
 45
-95.25011823191933
 46
38.09995377037603
 79
     2
 49
3.255262499999999
 49
-159.50775
 53
294.7751
 43
3.048
 44
2.4765
 45
-95.2497780272013
 46
209.549902696175
 79
     2
 49
2.727539999999999
 49
-270.0269999999999
 53
66.8014
 43
14.859
 44
0.0
 45
38.10016705729701
 46
95.25032119193124
 79
     2
 49
2.901599999999999
 49
-142.179
 53
17.354
 43
16.002
 44
2.666999999999999
 45
-247.6500133639496
 46
-76.19988506704224
 79
     2
 49
3.1933725
 49
-316.143
 53
69.444
 43
5.5245
 44
0.0
 45
-38.09995377037608
 46
-95.25011823191929
 79
     2
 49
1.627634999999999
 49
-161.1359999999999
 53
101.3098999999999
 43
13.716
 44
0.0
 45
-19.04990597165511
 46
76.19975595676965
 79
     2
 49
0.9713625
 49
-96.165
 53
165.9637999999999
 43
13.5255
 44
0.9525
 45
57.1500401602288
 46
-19.04996703092731
 79
     2
 49
3.927255
 49
-74.61787499999999
 53
186.009
 43
9.7155
 44
1.905
 45
190.4997190832096
 46
19.04995551410893
 79
     2
 49
3.639502499999999
 49
-360.3104999999999
 53
303.6900999999999
 43
11.811
 44
11.811
 45
-19.05000653480424
 46
38.09996324423879
 79
     2
 49
2.74743
 49
-65.93835
 53
353.1572
 43
13.335
 44
9.524999999999998
 45
323.8501339248256
 46
-38.10017063741129
 79
     2
 49
4.796677499999999
 49
-474.87
 53
60.94540000000001
 43
18.0975
 44
8.953499999999998
 45
-76.19982274371817
 46
-133.3496820812559
 79
     2
 49
1.961309999999999
 49
-194.1704999999999
 53
90.0
 43
19.04999999999999
 44
10.66799999999999
 45
-19.04999999999999
 46
19.04999999999999
 79
     2
 49
1.143
 49
-17.90699999999999
 53
120.2563999999999
 43
9.3345
 44
2.4765
 45
76.19983850127083
 46
-133.3499327435817
 79
     2
 49
2.646502499999999
 49
-262.00425
 53
48.0128
 43
8.000999999999999
 44
4.762499999999999
 45
152.40012949422
 46
171.4502106713443
 79
     2
 49
5.125822499999999
 49
-251.166
 53
0.0
 43
11.43
 44
8.572499999999999
 45
19.04999999999999
 46
19.04999999999999
 79
     2
 49
4.953
 49
-14.09699999999999
 53
325.3048
 43
16.383
 44
8.572499999999999
 45
-190.4996699321526
 46
133.3500126786357
 79
     2
 49
3.012074999999999
 49
-298.19475
 53
254.0545999999999
 43
18.8595
 44
6.858
 45
-19.05004859776105
 46
-76.20018152402721
 79
     2
 49
2.7737175
 49
-135.91275
 53
207.6459999999999
 43
18.0975
 44
4.190999999999998
 45
-361.9498728676703
 46
-190.5001198104254
 79
     2
 49
4.516087499999999
 49
-447.0937499999999
 53
175.4260999999999
 43
14.09699999999999
 44
2.095499999999999
 45
-247.6500570356063
 46
19.04990783414596
 79
     2
 49
4.777717499999999
 49
-472.9935
 53
175.4260999999999
 43
14.09699999999999
 44
2.095499999999999
 45
-247.6500570356063
 46
19.04990783414596
 79
     2
 49
4.777717499999999
 49
-472.9935
 47
0.2232566699257212
 98
        1
 10
702.714006122974
 20
422.8900669922055
  0
LINE
  5
424
330
1F
100
AcDbEntity
  8
0
  6
DASHED
100
AcDbLine
 10
692.9920934663619
 20
414.8923121116953
 30
0.0
 11
692.4505456051112
 21
467.4291528870634
 31
0.0
  0
LINE
  5
425
330
1F
100
AcDbEntity
  8
0
100
AcDbLine
 10
716.3864323092732
 20
344.6853889884717
 30
0.0
 11
709.5880584330245
 21
365.6086323469652
 31
0.0
  0
LINE
  5
426
330
1F
100
AcDbEntity
  8
0
100
AcDbLine
 10
716.1621814670022
 20
422.4207300665531
 30
0.0
 11
710.6987469032012
 21
432.7911901365372
 31
0.0
  0
LINE
  5
427
330
1F
100
AcDbEntity
  8
0
  6
DASHED
100
AcDbLine
 10
716.1621814670022
 20
422.4207300665531
 30
0.0
 11
692.4505456051112
 21
467.4291528870634
 31
0.0
  0
LINE
  5
428
330
1F
100
AcDbEntity
  8
0
 62
     0
100
AcDbLine
 10
710.54959385348
 20
432.7453462358163
 30
0.0
 11
722.2409397546975
 21
454.8703471291767
 31
0.0
  0
LINE
  5
429
330
1F
100
AcDbEntity
  8
0
 62
     0
100
AcDbLine
 10
697.476215207196
 20
428.3921769011548
 30
0.0
 11
709.3692957431901
 21
450.8989455578135
 31
0.0
  0
LINE
  5
42A
330
1F
100
AcDbEntity
  8
0
 62
     0
100
AcDbLine
 10
723.2195032302106
 20
436.3349800438812
 30
0.0
 11
735.112583766205
 21
458.84174870054
 31
0.0
  0
LINE
  5
42C
330
1F
100
AcDbEntity
  8
DIM
  6
DASHDOT
100
AcDbLine
 10
977.6750495727027
 20
119.3911767838932
 30
0.0
 11
977.6750495727027
 21
721.3911767838932
 31
0.0
  0
LINE
  5
42D
330
1F
100
AcDbEntity
  8
0
100
AcDbLine
 10
833.8388571348858
 20
340.7895062150974
 30
0.0
 11
846.4395922415867
 21
334.3691109958955
 31
0.0
  0
LINE
  5
42E
330
1F
100
AcDbEntity
  8
0
100
AcDbLine
 10
843.3494222978373
 20
343.879676158847
 30
0.0
 11
836.9290270786352
 21
331.278941052146
 31
0.0
  0
LINE
  5
42F
330
1F
100
AcDbEntity
  8
0
100
AcDbLine
 10
907.2142420886343
 20
383.556934041531
 30
0.0
 11
946.7684173686278
 21
261.8216999557511
 31
0.0
  0
LINE
  5
431
330
1F
100
AcDbEntity
  8
0
100
AcDbLine
 10
893.7523627246411
 20
318.1980952820387
 30
0.0
 11
887.3319675054393
 21
305.5973601753377
 31
0.0
  0
LINE
  5
432
330
1F
100
AcDbEntity
  8
0
100
AcDbLine
 10
884.2417975616896
 20
315.1079253382892
 30
0.0
 11
896.8425326683908
 21
308.6875301190872
 31
0.0
  0
LINE
  5
433
330
1F
100
AcDbEntity
  8
0
100
AcDbLine
 10
868.0707818478332
 20
267.7951548552347
 30
0.0
 11
861.650386628631
 21
255.1944197485337
 31
0.0
  0
LINE
  5
434
330
1F
100
AcDbEntity
  8
0
100
AcDbLine
 10
858.5602166848817
 20
264.7049849114852
 30
0.0
 11
871.1609517915826
 21
258.2845896922832
 31
0.0
  0
LINE
  5
435
330
1F
100
AcDbEntity
  8
0
100
AcDbLine
 10
855.7101020728353
 20
305.8374155070406
 30
0.0
 11
849.2897068536331
 21
293.2366804003396
 31
0.0
  0
LINE
  5
436
330
1F
100
AcDbEntity
  8
0
100
AcDbLine
 10
846.1995369098836
 20
302.7472455632911
 30
0.0
 11
858.8002720165848
 21
296.3268503440891
 31
0.0
  0
LINE
  5
437
330
1F
100
AcDbEntity
  8
0
100
AcDbLine
 10
896.6024773366878
 20
277.0656646864828
 30
0.0
 11
909.2032124433888
 21
270.6452694672808
 31
0.0
  0
LINE
  5
438
330
1F
100
AcDbEntity
  8
0
100
AcDbLine
 10
906.1130424996392
 20
280.1558346302323
 30
0.0
 11
899.6926472804371
 21
267.5550995235313
 31
0.0
  0
LINE
  5
439
330
1F
100
AcDbEntity
  8
0
100
AcDbLine
 10
977.6750495727027
 20
452.7153760720633
 30
0.0
 11
757.1408842477819
 21
381.0594820657125
 31
0.0
  0
LINE
  5
43A
330
1F
100
AcDbEntity
  8
0
 62
     0
100
AcDbLine
 10
839.0642993337772
 20
472.0775941861503
 30
0.0
 11
850.9573798697713
 21
494.5843628428091
 31
0.0
  0
LINE
  5
43C
330
1F
100
AcDbEntity
  8
0
100
AcDbLine
 10
788.3321775517401
 20
344.9298097446622
 30
0.0
 11
876.6394553050066
 21
396.7547525406504
 31
0.0
  0
LINE
  5
43D
330
1F
100
AcDbEntity
  8
0
100
AcDbLine
 10
883.4378291812557
 20
375.8315091821572
 30
0.0
 11
781.5338036754913
 21
365.8530531031557
 31
0.0
  0
LINE
  5
43E
330
1F
100
AcDbEntity
  8
0
100
AcDbLine
 10
788.3321775517401
 20
344.9298097446622
 30
0.0
 11
883.4378291812557
 21
375.8315091821572
 31
0.0
  0
LINE
  5
43F
330
1F
100
AcDbEntity
  8
0
100
AcDbLine
 10
876.6394553050066
 20
396.7547525406504
 30
0.0
 11
781.5338036754913
 21
365.8530531031557
 31
0.0
  0
LINE
  5
443
330
1F
100
AcDbEntity
  8
0
 62
     0
100
AcDbLine
 10
787.5777232877476
 20
456.1919879006974
 30
0.0
 11
799.4708038237417
 21
478.6987565573562
 31
0.0
  0
LINE
  5
444
330
1F
100
AcDbEntity
  8
0
100
AcDbLine
 10
788.3321775517401
 20
344.9298097446622
 30
0.0
 11
781.5338036754913
 21
365.8530531031557
 31
0.0
  0
LINE
  5
445
330
1F
100
AcDbEntity
  8
0
100
AcDbLine
 10
781.5338036754913
 20
365.8530531031557
 30
0.0
 11
788.3321775517401
 21
344.9298097446622
 31
0.0
  0
LINE
  5
446
330
1F
100
AcDbEntity
  8
0
 62
     0
100
AcDbLine
 10
761.8344352647329
 20
448.2491847579709
 30
0.0
 11
773.7275158007271
 21
470.7559534146297
 31
0.0
  0
LINE
  5
447
330
1F
100
AcDbEntity
  8
0
 62
     0
100
AcDbLine
 10
748.9627912532255
 20
444.2777831866077
 30
0.0
 11
760.8558717892196
 21
466.7845518432665
 31
0.0
  0
LINE
  5
448
330
1F
100
AcDbEntity
  8
0
 62
     0
100
AcDbLine
 10
774.7060792762401
 20
452.2205863293342
 30
0.0
 11
786.5991598122343
 21
474.7273549859929
 31
0.0
  0
LINE
  5
449
330
1F
100
AcDbEntity
  8
0
 62
     0
100
AcDbLine
 10
813.3210113107622
 20
464.1347910434238
 30
0.0
 11
825.2140918467564
 21
486.6415597000826
 31
0.0
  0
LINE
  5
44A
330
1F
100
AcDbEntity
  8
0
 62
     0
100
AcDbLine
 10
800.449367299255
 20
460.1633894720606
 30
0.0
 11
812.3424478352491
 21
482.6701581287194
 31
0.0
  0
LINE
  5
44B
330
1F
100
AcDbEntity
  8
0
 62
     0
100
AcDbLine
 10
826.1926553222696
 20
468.106192614787
 30
0.0
 11
838.0857358582639
 21
490.6129612714458
 31
0.0
  0
LINE
  5
44E
330
1F
100
AcDbEntity
  8
0
 62
     0
100
AcDbLine
 10
851.9359433452844
 20
476.0489957575136
 30
0.0
 11
863.8290238812786
 21
498.5557644141723
 31
0.0
  0
LINE
  5
44F
330
1F
100
AcDbEntity
  8
0
 62
     0
100
AcDbLine
 10
890.5508753798065
 20
487.9632004716032
 30
0.0
 11
902.4439559158009
 21
510.4699691282617
 31
0.0
  0
LINE
  5
450
330
1F
100
AcDbEntity
  8
0
 62
     0
100
AcDbLine
 10
864.8075873567918
 20
480.0203973288768
 30
0.0
 11
876.700667892786
 21
502.5271659855353
 31
0.0
  0
LINE
  5
451
330
1F
100
AcDbEntity
  8
0
 62
     0
100
AcDbLine
 10
877.6792313682992
 20
483.9917989002398
 30
0.0
 11
889.5723119042934
 21
506.4985675568988
 31
0.0
  0
LINE
  5
452
330
1F
100
AcDbEntity
  8
0
 62
     0
100
AcDbLine
 10
916.2941634028213
 20
495.9060036143297
 30
0.0
 11
928.1872439388155
 21
518.4127722709883
 31
0.0
  0
LINE
  5
453
330
1F
100
AcDbEntity
  8
0
 62
     0
100
AcDbLine
 10
903.4225193913139
 20
491.9346020429663
 30
0.0
 11
915.315599927308
 21
514.4413706996252
 31
0.0
  0
LINE
  5
454
330
1F
100
AcDbEntity
  8
0
100
AcDbLine
 10
907.2142420886345
 20
383.5569340415307
 30
0.0
 11
883.4378291812553
 21
375.8315091821569
 31
0.0
  0
LINE
  5
455
330
1F
100
AcDbEntity
  8
0
100
AcDbLine
 10
883.4378291812557
 20
375.8315091821572
 30
0.0
 11
876.6394553050066
 21
396.7547525406504
 31
0.0
  0
LINE
  5
456
330
1F
100
AcDbEntity
  8
0
100
AcDbLine
 10
871.8811177866916
 20
353.1501859900951
 30
0.0
 11
884.4818528933929
 21
346.7297907708931
 31
0.0
  0
LINE
  5
457
330
1F
100
AcDbEntity
  8
0
100
AcDbLine
 10
881.3916829496436
 20
356.2403559338446
 30
0.0
 11
874.9712877304412
 21
343.6396208271436
 31
0.0
  0
LINE
  5
458
330
1F
100
AcDbEntity
  8
0
 62
     0
100
AcDbLine
 10
929.1658074143288
 20
499.8774051856927
 30
0.0
 11
941.0588879503229
 21
522.3841738423517
 31
0.0
  0
LINE
  5
45A
330
1F
100
AcDbEntity
  8
0
 62
     0
100
AcDbLine
 10
954.9090954373435
 20
507.8202083284192
 30
0.0
 11
966.8021759733376
 21
530.3269769850782
 31
0.0
  0
LINE
  5
45B
330
1F
100
AcDbEntity
  8
0
 62
     0
100
AcDbLine
 10
942.0374514258362
 20
503.8488067570561
 30
0.0
 11
953.9305319618303
 21
526.3555754137147
 31
0.0
  0
LINE
  5
45C
330
1F
100
AcDbEntity
  8
0
 62
     0
100
AcDbLine
 10
967.7807394488507
 20
511.7916098997824
 30
0.0
 11
977.6750495727027
 21
530.5158544973706
 31
0.0
  0
LINE
  5
49D
330
1F
100
AcDbEntity
  8
0
100
AcDbLine
 10
150.6750495727026
 20
506.6768674741372
 30
0.0
 11
390.9330594709679
 21
428.6123078804702
 31
0.0
  0
LINE
  5
49E
330
1F
100
AcDbEntity
  8
0
100
AcDbLine
 10
977.6750495727027
 20
505.2884872839766
 30
0.0
 11
741.6900345290348
 21
428.6123078804702
 31
0.0
  0
LINE
  5
4C6
330
1F
100
AcDbEntity
  8
0
100
AcDbLine
 10
541.3225004164606
 20
146.3911767838932
 30
0.0
 11
541.3225004164606
 21
304.0496542281663
 31
0.0
  0
LINE
  5
4C8
330
1F
100
AcDbEntity
  8
0
100
AcDbLine
 10
591.3225004164606
 20
304.0496542281663
 30
0.0
 11
591.3225004164606
 21
146.3303205924263
 31
0.0
  0
LINE
  5
4C9
330
1F
100
AcDbEntity
  8
0
100
AcDbLine
 10
591.3225004164606
 20
146.3303205924263
 30
0.0
 11
541.3225004164606
 21
146.3911767838932
 31
0.0
  0
LINE
  5
4F2
330
1F
100
AcDbEntity
  8
0
100
AcDbLine
 10
591.3225004164606
 20
296.3304316966663
 30
0.0
 11
541.3005935835421
 21
296.3913145514615
 31
0.0
  0
LWPOLYLINE
  5
4F9
330
1F
100
AcDbEntity
  8
hüdroiso
 48
0.25
100
AcDbPolyline
 90
        4
 70
     0
 43
0.0
 10
150.6750495727023
 20
433.0745117774585
 10
556.4093929472647
 20
301.2434321769379
 10
576.2137010527383
 20
301.2434321769379
 10
977.6750495727027
 20
431.686131587298
  0
VIEWPORT
  5
2E
330
1B
100
AcDbEntity
 67
     1
  8
0
100
AcDbViewport
 10
154.0217815491207
 20
107.9793134322255
 30
0.0
 40
547.8270550152143
 41
354.7633218864429
 68
     1
 69
     1
 12
154.0217815491207
 22
107.9793134322255
 13
0.0
 23
0.0
 14
10.0
 24
10.0
 15
10.0
 25
10.0
 16
0.0
 26
0.0
 36
1.0
 17
0.0
 27
0.0
 37
0.0
 42
50.0
 43
0.0
 44
0.0
 45
354.7633218864429
 50
0.0
 51
0.0
 72
   100
 90
    32800
  1

281
     0
 71
     1
 74
     0
110
0.0
120
0.0
130
0.0
111
1.0
121
0.0
131
0.0
112
0.0
122
1.0
132
0.0
 79
     0
146
0.0
  0
VIEWPORT
  5
30
330
1B
100
AcDbEntity
 67
     1
  8
vaateväli
100
AcDbViewport
 10
174.2560872137363
 20
102.8235298121199
 30
0.0
 40
220.3358810327824
 41
152.1884183300002
 68
     2
 69
     2
 12
569.6088404337697
 22
385.6330620413717
 13
0.0
 23
0.0
 14
10.0
 24
10.0
 15
10.0
 25
10.0
 16
0.0
 26
0.0
 36
1.0
 17
0.0
 27
0.0
 37
0.0
 42
50.0
 43
0.0
 44
0.0
 45
608.7536733200009
 50
0.0
 51
0.0
 72
   100
 90
    32864
  1

281
     0
 71
     1
 74
     0
110
0.0
120
0.0
130
0.0
111
1.0
121
0.0
131
0.0
112
0.0
122
1.0
132
0.0
 79
     0
146
0.0
  0
LWPOLYLINE
  5
293
330
1B
100
AcDbEntity
 67
     1
  8
kiri
100
AcDbPolyline
 90
        4
 70
     1
 43
0.0
 10
286.82393845623
 20
199.9462529041929
 10
286.82393845623
 20
3.946252904193045
 10
3.823938456229996
 20
3.946252904193045
 10
3.823938456230052
 20
199.946252904193
  0
MTEXT
  5
2A8
330
1B
100
AcDbEntity
 67
     1
  8
kiri
100
AcDbMText
 10
257.5237025989285
 20
7.119832102774516
 30
0.0
 40
2.0
 41
29.0
 71
     1
 72
     5
  1
{\fArial|b0|i0|c186|p34;Aasta 2004}
 73
     1
 44
1.0
  0
MTEXT
  5
2A9
330
1B
100
AcDbEntity
 67
     1
  8
kiri
100
AcDbMText
 10
257.83605332724
 20
11.82767661835594
 30
0.0
 40
2.0
 41
29.0
 71
     1
 72
     5
  1
{\fArial|b0|i0|c186|p34;Mõõtkava 1:4}
 73
     1
 44
1.0
  0
LINE
  5
2AA
330
1B
100
AcDbEntity
 67
     1
  8
kiri
100
AcDbLine
 10
286.82393845623
 20
13.29528120857144
 30
0.0
 11
254.009591859205
 21
13.29528120857144
 31
0.0
  0
LINE
  5
2AB
330
1B
100
AcDbEntity
 67
     1
  8
kiri
100
AcDbLine
 10
286.82393845623
 20
8.496249963749441
 30
0.0
 11
254.009591859205
 21
8.496249963749441
 31
0.0
  0
LINE
  5
2AC
330
1B
100
AcDbEntity
 67
     1
  8
kiri
100
AcDbLine
 10
286.82393845623
 20
18.94625290419303
 30
0.0
 11
219.2718335535844
 21
18.94625290419303
 31
0.0
  0
MTEXT
  5
2AE
330
1B
100
AcDbEntity
 67
     1
  8
kiri
100
AcDbMText
 10
220.2337560783905
 20
18.05011317072233
 30
0.0
 40
2.0
 41
30.0
 71
     1
 72
     5
  1
{\fArial|b0|i0|c186|p34;Lafarge Tekkin OÜ\PRävala pst 8C \PTallinn\PEesti}
 73
     1
 44
1.0
  0
LINE
  5
2AF
330
1B
100
AcDbEntity
 67
     1
  8
kiri
 48
10.0
100
AcDbLine
 10
219.2718335535844
 20
23.94625290419303
 30
0.0
 11
219.2718335535844
 21
3.946252904193038
 31
0.0
  0
LINE
  5
2B0
330
1B
100
AcDbEntity
 67
     1
  8
kiri
100
AcDbLine
 10
254.009591859205
 20
18.94625290419303
 30
0.0
 11
254.009591859205
 21
3.946252904193038
 31
0.0
  0
MTEXT
  5
2B1
330
1B
100
AcDbEntity
 67
     1
  8
kiri
100
AcDbMText
 10
235.4985622117283
 20
22.37937270215871
 30
0.0
 40
2.0
 41
67.0
 71
     1
 72
     5
  1
{\fArial|b0|i0|c186|p34;Neelusõlm aluslaudisega}
 73
     1
 44
1.0
  0
LWPOLYLINE
  5
2B5
330
1B
100
AcDbEntity
 67
     1
  8
kiri
100
AcDbPolyline
 90
        5
 70
     1
 43
0.0
 10
162.3462397190849
 20
23.94625290419303
 10
219.2718335535844
 20
23.94625290419303
 10
286.82393845623
 20
23.94625290419303
 10
286.82393845623
 20
3.946252904193045
 10
162.3462397190849
 20
3.946252904193038
  0
OLE2FRAME
  5
2B6
330
1B
100
AcDbEntity
 67
     1
  8
kiri
100
AcDbOle2Frame
 70
     2
  3
Bitmap Image
 10
162.9238279445574
 20
23.55555615481955
 30
0.0
 11
218.6783505801561
 21
4.182826457330747
 31
0.0
 71
     2
 72
     1
 73
     1
 90
    24192
310
815528209FFF8F5D6440A00A9CED388E37400000000000000000C89F460CB555
310
6B40A00A9CED388E37400000000000000000C89F460CB5556B400051DCDB36BB
310
1040000000000000000028209FFF8F5D64400051DCDB36BB1040000000000000
310
00004818AE0800000000000100000100000001000000000001000000005E0000
310
D0CF11E0A1B11AE1000000000000000000000000000000003E000300FEFF0900
310
0600000000000000000000000100000001000000000000000010000002000000
310
01000000FEFFFFFF0000000000000000FFFFFFFFFFFFFFFFFFFFFFFFFFFFFFFF
310
FFFFFFFFFFFFFFFFFFFFFFFFFFFFFFFFFFFFFFFFFFFFFFFFFFFFFFFFFFFFFFFF
310
FFFFFFFFFFFFFFFFFFFFFFFFFFFFFFFFFFFFFFFFFFFFFFFFFFFFFFFFFFFFFFFF
310
FFFFFFFFFFFFFFFFFFFFFFFFFFFFFFFFFFFFFFFFFFFFFFFFFFFFFFFFFFFFFFFF
310
FFFFFFFFFFFFFFFFFFFFFFFFFFFFFFFFFFFFFFFFFFFFFFFFFFFFFFFFFFFFFFFF
310
FFFFFFFFFFFFFFFFFFFFFFFFFFFFFFFFFFFFFFFFFFFFFFFFFFFFFFFFFFFFFFFF
310
FFFFFFFFFFFFFFFFFFFFFFFFFFFFFFFFFFFFFFFFFFFFFFFFFFFFFFFFFFFFFFFF
310
FFFFFFFFFFFFFFFFFFFFFFFFFFFFFFFFFFFFFFFFFFFFFFFFFFFFFFFFFFFFFFFF
310
FFFFFFFFFFFFFFFFFFFFFFFFFFFFFFFFFFFFFFFFFFFFFFFFFFFFFFFFFFFFFFFF
310
FFFFFFFFFFFFFFFFFFFFFFFFFFFFFFFFFFFFFFFFFFFFFFFFFFFFFFFFFFFFFFFF
310
FFFFFFFFFFFFFFFFFFFFFFFFFFFFFFFFFFFFFFFFFFFFFFFFFFFFFFFFFFFFFFFF
310
FFFFFFFFFFFFFFFFFFFFFFFFFFFFFFFFFFFFFFFFFFFFFFFFFFFFFFFFFFFFFFFF
310
FFFFFFFFFFFFFFFFFFFFFFFFFFFFFFFFFFFFFFFFFFFFFFFFFFFFFFFFFFFFFFFF
310
FFFFFFFFFFFFFFFFFFFFFFFFFFFFFFFFFFFFFFFFFFFFFFFFFFFFFFFFFFFFFFFF
310
FDFFFFFF2D000000FEFFFFFFFEFFFFFF05000000060000000700000008000000
310
090000000A0000000B0000000C0000000D0000000E0000000F00000010000000
310
1100000012000000130000001400000015000000160000001700000018000000
310
190000001A0000001B0000001C0000001D0000001E0000001F00000020000000
310
2100000022000000230000002400000025000000260000002700000028000000
310
290000002A0000002B0000002C000000FEFFFFFFFEFFFFFFFFFFFFFFFFFFFFFF
310
FFFFFFFFFFFFFFFFFFFFFFFFFFFFFFFFFFFFFFFFFFFFFFFFFFFFFFFFFFFFFFFF
310
FFFFFFFFFFFFFFFFFFFFFFFFFFFFFFFFFFFFFFFFFFFFFFFFFFFFFFFFFFFFFFFF
310
FFFFFFFFFFFFFFFFFFFFFFFFFFFFFFFFFFFFFFFFFFFFFFFFFFFFFFFFFFFFFFFF
310
FFFFFFFFFFFFFFFFFFFFFFFFFFFFFFFFFFFFFFFFFFFFFFFFFFFFFFFFFFFFFFFF
310
FFFFFFFFFFFFFFFFFFFFFFFFFFFFFFFFFFFFFFFFFFFFFFFFFFFFFFFFFFFFFFFF
310
FFFFFFFFFFFFFFFFFFFFFFFFFFFFFFFFFFFFFFFFFFFFFFFFFFFFFFFFFFFFFFFF
310
FFFFFFFFFFFFFFFFFFFFFFFFFFFFFFFFFFFFFFFFFFFFFFFFFFFFFFFFFFFFFFFF
310
FFFFFFFFFFFFFFFFFFFFFFFFFFFFFFFFFFFFFFFFFFFFFFFFFFFFFFFFFFFFFFFF
310
FFFFFFFFFFFFFFFFFFFFFFFFFFFFFFFFFFFFFFFFFFFFFFFFFFFFFFFFFFFFFFFF
310
FFFFFFFFFFFFFFFFFFFFFFFFFFFFFFFFFFFFFFFFFFFFFFFFFFFFFFFFFFFFFFFF
310
52006F006F007400200045006E00740072007900000000000000000000000000
310
0000000000000000000000000000000000000000000000000000000000000000
310
16000500FFFFFFFFFFFFFFFF020000000A00030000000000C000000000000046
310
000000000000000000000000806FA91815D2C401030000000001000000000000
310
01004F006C006500000000000000000000000000000000000000000000000000
310
0000000000000000000000000000000000000000000000000000000000000000
310
0A000201FFFFFFFFFFFFFFFFFFFFFFFF00000000000000000000000000000000
310
0000000000000000000000000000000000000000000000001400000000000000
310
010043006F006D0070004F0062006A0000000000000000000000000000000000
310
0000000000000000000000000000000000000000000000000000000000000000
310
120002010100000003000000FFFFFFFF00000000000000000000000000000000
310
0000000000000000000000000000000000000000010000004D00000000000000
310
01004F006C006500310030004E00610074006900760065000000000000000000
310
0000000000000000000000000000000000000000000000000000000000000000
310
1A000201FFFFFFFF04000000FFFFFFFF00000000000000000000000000000000
310
000000000000000000000000000000000000000004000000C451000000000000
310
FEFFFFFF02000000FEFFFFFFFEFFFFFFFFFFFFFFFFFFFFFFFFFFFFFFFFFFFFFF
310
FFFFFFFFFFFFFFFFFFFFFFFFFFFFFFFFFFFFFFFFFFFFFFFFFFFFFFFFFFFFFFFF
310
FFFFFFFFFFFFFFFFFFFFFFFFFFFFFFFFFFFFFFFFFFFFFFFFFFFFFFFFFFFFFFFF
310
FFFFFFFFFFFFFFFFFFFFFFFFFFFFFFFFFFFFFFFFFFFFFFFFFFFFFFFFFFFFFFFF
310
FFFFFFFFFFFFFFFFFFFFFFFFFFFFFFFFFFFFFFFFFFFFFFFFFFFFFFFFFFFFFFFF
310
FFFFFFFFFFFFFFFFFFFFFFFFFFFFFFFFFFFFFFFFFFFFFFFFFFFFFFFFFFFFFFFF
310
FFFFFFFFFFFFFFFFFFFFFFFFFFFFFFFFFFFFFFFFFFFFFFFFFFFFFFFFFFFFFFFF
310
FFFFFFFFFFFFFFFFFFFFFFFFFFFFFFFFFFFFFFFFFFFFFFFFFFFFFFFFFFFFFFFF
310
FFFFFFFFFFFFFFFFFFFFFFFFFFFFFFFFFFFFFFFFFFFFFFFFFFFFFFFFFFFFFFFF
310
FFFFFFFFFFFFFFFFFFFFFFFFFFFFFFFFFFFFFFFFFFFFFFFFFFFFFFFFFFFFFFFF
310
FFFFFFFFFFFFFFFFFFFFFFFFFFFFFFFFFFFFFFFFFFFFFFFFFFFFFFFFFFFFFFFF
310
FFFFFFFFFFFFFFFFFFFFFFFFFFFFFFFFFFFFFFFFFFFFFFFFFFFFFFFFFFFFFFFF
310
FFFFFFFFFFFFFFFFFFFFFFFFFFFFFFFFFFFFFFFFFFFFFFFFFFFFFFFFFFFFFFFF
310
FFFFFFFFFFFFFFFFFFFFFFFFFFFFFFFFFFFFFFFFFFFFFFFFFFFFFFFFFFFFFFFF
310
FFFFFFFFFFFFFFFFFFFFFFFFFFFFFFFFFFFFFFFFFFFFFFFFFFFFFFFFFFFFFFFF
310
FFFFFFFFFFFFFFFFFFFFFFFFFFFFFFFFFFFFFFFFFFFFFFFFFFFFFFFFFFFFFFFF
310
0100000200000000000000000000000000000000400514000000000000000000
310
0000000000000000000000000000000000000000000000000000000000000000
310
0100FEFF030A0000FFFFFFFF0A00030000000000C00000000000004607000000
310
5042727573680007000000504272757368000700000050427275736800F439B2
310
7100000000000000000000000000000000000000000000000000000000000000
310
0000000000000000000000000000000000000000000000000000000000000000
310
010000000C000000000000000000000000000000000000000000000000000000
310
0000000000000000000000000000000000000000000000000000000000000000
310
0000000000000000000000000000000000000000000000000000000000000000
310
0000000000000000000000000000000000000000000000000000000000000000
310
0000000000000000000000000000000000000000000000000000000000000000
310
0000000000000000000000000000000000000000000000000000000000000000
310
0000000000000000000000000000000000000000000000000100000000000000
310
0000000000000000030000000000000000000000000000000000000000000000
310
00000000000000000000000000000000FFFFFFFF000000000000000000000000
310
0000000000000000000000000000000000000000000000000000000000000000
310
C0510000424DA6510000000000003604000028000000EB000000540000000100
310
080000000000704D0000C40E0000C40E00000000000000000000FFFFFF00CCFF
310
FF0099FFFF0066FFFF0033FFFF0000FFFF00FFCCFF00CCCCFF0099CCFF0066CC
310
FF0033CCFF0000CCFF00FF99FF00CC99FF009999FF006699FF003399FF000099
310
FF00FF66FF00CC66FF009966FF006666FF003366FF000066FF00FF33FF00CC33
310
FF009933FF006633FF003333FF000033FF00FF00FF00CC00FF009900FF006600
310
FF003300FF000000FF00FFFFCC00CCFFCC0099FFCC0066FFCC0033FFCC0000FF
310
CC00FFCCCC00CCCCCC0099CCCC0066CCCC0033CCCC0000CCCC00FF99CC00CC99
310
CC009999CC006699CC003399CC000099CC00FF66CC00CC66CC009966CC006666
310
CC003366CC000066CC00FF33CC00CC33CC009933CC006633CC003333CC000033
310
CC00FF00CC00CC00CC009900CC006600CC003300CC000000CC00FFFF9900CCFF
310
990099FF990066FF990033FF990000FF9900FFCC9900CCCC990099CC990066CC
310
990033CC990000CC9900FF999900CC9999009999990066999900339999000099
310
9900FF669900CC66990099669900666699003366990000669900FF339900CC33
310
990099339900663399003333990000339900FF009900CC009900990099006600
310
99003300990000009900FFFF6600CCFF660099FF660066FF660033FF660000FF
310
6600FFCC6600CCCC660099CC660066CC660033CC660000CC6600FF996600CC99
310
660099996600669966003399660000996600FF666600CC666600996666006666
310
66003366660000666600FF336600CC3366009933660066336600333366000033
310
6600FF006600CC00660099006600660066003300660000006600FFFF3300CCFF
310
330099FF330066FF330033FF330000FF3300FFCC3300CCCC330099CC330066CC
310
330033CC330000CC3300FF993300CC9933009999330066993300339933000099
310
3300FF663300CC66330099663300666633003366330000663300FF333300CC33
310
330099333300663333003333330000333300FF003300CC003300990033006600
310
33003300330000003300FFFF0000CCFF000099FF000066FF000033FF000000FF
310
0000FFCC0000CCCC000099CC000066CC000033CC000000CC0000FF990000CC99
310
000099990000669900003399000000990000FF660000CC660000996600006666
310
00003366000000660000FF330000CC3300009933000066330000333300000033
310
0000FF000000CC00000099000000660000003300000000000000201F23002120
310
24002120230044850000438500004384000020202300FFFFFF00000000000000
310
0000000000000000000000000000000000000000000000000000000000000000
310
0000000000000000000000000000000000000000000000000000000000000000
310
0000000000000000000000000000000000000000000000000000000000000000
310
0000000000000000000000000000000000000000000000000000000000000000
310
0000000000000000000000000000000000000000000000000000000000000000
310
0000000000000000000000000000000000000000000000000000000000000000
310
0000000000000000000000000000000000000000000000000000000000000000
310
0000000000000000000000000000000000000000000000000000000000000000
310
0000000000000000000000000000000000000000000000000000000000000000
310
0000000000000000000000000000000000000000000000000000000000000000
310
0000000000000000000000000000000000000000000000000000000000000000
310
0000000000000000000000000000000000000000000000000000000000000000
310
0000000000000000000000000000000000000000000000000000000000000000
310
0000000000000000000000000000000000000000000000000000000000000000
310
0000000000000000000000000000000000000000000000000000000000000000
310
0000000000000000000000000000000000000000000000000000000000000000
310
0000000000000000000000000000000000000000000000000000000000000000
310
0000000000000000000000000000000000000000000000000000000000000000
310
0000000000000000000000000000000000000000000000000000000000000000
310
0000000000000000000000000000000000000000000000000000000000000000
310
0000000000000000000000000000000000000000000000000000000000000000
310
0000000000000000000000000000000000000000000000000000000000000000
310
0000000000000000000000000000000000000000000000000000000000000000
310
0000000000000000000000000000000000000000000000000000000000000000
310
0000000000000000000000000000000000000000000000000000000000000000
310
0000000000000000000000000000000000000000000000000000000000000000
310
0000000000000000000000000000000000000000000000000000000000000000
310
0000000000000000000000000000000000000000000000000000000000000000
310
0000000000000000000000000000000000000000000000000000000000000000
310
0000000000000000000000000000000000000000000000000000000000000000
310
0000000000000000000000000000000000000000000000000000000000000000
310
0000000000000000000000000000000000000000000000000000000000000000
310
0000000000000000000000000000000000000000000000000000000000000000
310
0000000000000000000000000000000000000000000000000000000000000000
310
0000000000000000000000000000000000000000000000000000000000000000
310
0000000000000000000000000000000000000000000000000000000000000000
310
0000000000000000000000000000000000000000000000000000000000000000
310
0000000000000000000000000000000000000000000000000000000000000000
310
0000000000000000000000000000000000000000000000000000000000000000
310
0000000000000000000000000000000000000000000000000000000000000000
310
0000000000000000000000000000000000000000000000000000000000000000
310
0000000000000000000000000000000000000000000000000000000000000000
310
0000000000000000000000000000000000000000000000000000000000000000
310
0000000000000000000000000000000000000000000000000000000000000000
310
0000000000000000000000000000000000000000000000000000000000000000
310
0000000000000000000000000000000000000000000000000000000000000000
310
0000000000000000000000000000000000000000000000000000000000000000
310
0000000000000000000000000000000000000000000000000000000000000000
310
0000000000000000000000000000000000000000000000000000000000000000
310
0000000000000000000000000000000000000000000000000000000000000000
310
0000000000000000000000000000000000000000000000000000000000000000
310
0000000000000000000000000000000000000000000000000000000000000000
310
0000000000000000000000000000000000000000000000000000000000000000
310
0000000000000000000000000000000000000000000000000000000000000000
310
0000000000000000000000000000000000000000000000000000000000000000
310
0000000000000000000000000000000000000000000000000000000000000000
310
0000000000000000000000000000000000000000000000000000000000000000
310
0000000000000000000000000000000000000000000000000000000000000000
310
0000000000000000000000000000000000000000000000000000000000000000
310
0000000000000000000000000000000000000000000000000000000000000000
310
0000000000000000000000000000000000000000000000000000000000000000
310
0000000000000000000000000000000000000000000000000000000000000000
310
0000000000000000000000000000000000000000000000000000000000000000
310
000000DBDBDCDBDCDCDBDCDBDBDBDCDCDBDCDBDBDBDBDBDCDBDBDBDBDCDBDBDD
310
DBDCDBDBDBDBDCDBDCDCDCDBDBDCDBDBDCDC0000000000000000000000000000
310
00000000000000000000000000000000000000000000000000000000DADAD8D8
310
D8000000000000DAD8D8D8D8DADED8DEDA000000DADEDAD8000000D8D8D8DAD8
310
000000DEDADAD8000000D8D8D8D8D8000000D8D8D8D8D800000000D8D8D80000
310
0000DAD8DADED800000000000000000000000000000000000000000000000000
310
0000000000000000000000000000000000000000000000000000000000000000
310
000000000000000000000000000000DBDCDBDBDBDBDCDDDBDBDBDDDCDBDCDCDC
310
DCDDDDDCDDDDDBDCDCDBDCDBDBDBDBDDDBDBDDDBDBDBDBDDDCDCDBDBDBDCDB00
310
0000000000000000000000000000000000000000000000000000000000000000
310
0000000000000000D8D8DAD8DA000000000000D8D8D8D8D8DAD9DED8DE000000
310
DED8DED8000000D8D8D8D8DA000000D8D8D8D8000000DADAD8DED8000000D8D8
310
D8D8D800000000D9DADE000000D8D8D8D8D9D800000000000000000000000000
310
0000000000000000000000000000000000000000000000000000000000000000
310
00000000000000000000000000000000000000000000000000000000DCDBDDDB
310
DCDCDBDBDCDBDCDBDBDBDBDBDBDBDCDBDBDCDBDBDCDDDBDCDBDBDBDBDBDCDBDC
310
DCDCDDDCDBDCDCDCDBDCDB000000000000000000000000000000000000000000
310
0000000000000000000000000000000000000000D8D8DED8D8000000000000D9
310
DED8D8000000000000000000D8D8D8DA0000D8DAD8D8D800000000DAD8DAD800
310
00D8D8D8D8DE00000000D8DED8D8DA00000000DADAD8000000D8D8DAD8DADA00
310
0000000000000000000000000000000000000000000000000000000000000000
310
0000000000000000000000000000000000000000000000000000000000000000
310
0000000000000000DCDBDBDBDBDBDBDBDCDCDCDBDBDBDCDDDBDCDBDBDBDBDCDB
310
DBDCDBDDDCDBDCDBDBDCDCDCDCDDDCDCDCDCDDDCDBDCDBDB0000000000000000
310
0000000000000000000000000000000000000000000000000000000000000000
310
D8D8DED8D8000000000000D8D8D8D8000000000000000000DED8D8D800DEDED8
310
D8D80000000000D8DAD8D900DAD8DEDED80000000000D8D8DED8D800000000D8
310
D8D80000D8D8D8D8D8DAD9000000000000000000000000000000000000000000
310
0000000000000000000000000000000000000000000000000000000000000000
310
000000000000000000000000000000000000000000DCDCDBDBDCDBDCDBDCDBDC
310
DCDBDCDCDBDCDBDDDDDBDDDCDBDBDBDCDCDCDBDDDCDBDBDBDBDBDDDBDBDBDCDC
310
DBDBDBDB00000000000000000000000000000000000000000000000000000000
310
000000000000000000000000DAD8D8D8D8000000000000D8DED9D90000000000
310
00000000D8D8D8DAD8D8D8DED8000000000000D8DED8D8D8D8D8D8D800000000
310
0000D8D8DEDAD800000000D8DEDA0000D8DED8DED8D8D8000000000000000000
310
0000000000000000000000000000000000000000000000000000000000000000
310
0000000000000000000000000000000000000000000000000000000000000000
310
00DBDCDBDBDBDBDBDBDBDBDBDBDCDCDCDBDBDBDCDCDCDBDBDBDCDCDCDBDBDBDB
310
DCDCDCDBDBDCDCDCDCDDDCDBDBDBDBDB00000000000000000000000000000000
310
000000000000000000000000000000000000000000000000D8DAD8D8D8000000
310
000000D8DEDED9D8D8D8D8DE00000000D8D8D8DED8D8D8D800000000000000D8
310
DED8D8DAD9DAD900000000000000D8D8D8D8DE00000000DED8DE00D8D8D8D800
310
DED8DA0000000000000000000000000000000000000000000000000000000000
310
0000000000000000000000000000000000000000000000000000000000000000
310
00000000000000000000000000DDDBDCDBDBDBDBDBDDDBDCDBDBDCDCDCDDDBDB
310
DBDBDCDBDBDCDBDBDCDCDCDBDCDDDCDBDBDBDBDBDCDBDBDCDCDCDBDBDC000000
310
0000000000000000000000000000000000000000000000000000000000000000
310
00000000D8D8D8D8D8000000000000DAD8D8DEDADADEDEDA00000000D8DAD8DE
310
D8DED8D800000000000000D8D8D8D8D8D8D8DA00000000000000D8D8DAD8D800
310
000000D8D8D800DAD8D8DE00DADAD80000000000000000000000000000000000
310
0000000000000000000000000000000000000000000000000000000000000000
310
0000000000000000000000000000000000000000000000000000DCDCDCDCDDDC
310
DCDBDBDDDCDCDBDCDCDBDBDBDCDCDCDCDBDBDCDBDBDCDBDBDCDBDCDCDBDCDBDC
310
DCDBDBDBDBDDDCDCDC0000000000000000000000000000000000000000000000
310
00000000000000000000000000000000D8D9D8DAD8000000000000D8DED8D800
310
0000000000000000DEDAD8DEDED8DADAD8000000000000D8D9DED8DAD8D8D8D8
310
000000000000DED8D8D8D800000000DAD8D8DED8D8D80000D8D8D80000000000
310
0000000000000000000000000000000000000000000000000000000000000000
310
0000000000000000000000000000000000000000000000000000000000000000
310
000000000000DCDDDBDCDDDBDBDBDCDCDDDCDBDCDCDCDCDBDBDCDDDBDCDBDBDB
310
DBDCDCDCDCDBDDDCDBDCDBDDDBDCDDDBDBDBDCDCDCDB00000000000000000000
310
00000000000000000000000000000000000000000000000000000000D8D8D8DA
310
DE000000000000DADAD8D8000000000000000000DED8DAD800D8D8DEDA000000
310
000000D8D8D8D800D8D8D8DA000000000000DEDED8D8D800000000D8D8D8D8D8
310
DE000000DED8DE00000000000000000000000000000000000000000000000000
310
0000000000000000000000000000000000000000000000000000000000000000
310
00000000000000000000000000000000000000DCDCDCDCDCDBDCDBDCDCDCDCDB
310
DBDBDBDBDBDCDBDBDDDCDBDBDBDBDBDDDBDCDCDBDBDDDBDCDCDBDCDBDBDDDBDC
310
DBDC000000000000000000000000000000000000000000000000000000000000
310
000000000000DED8DEDAD8D8D8D8D800000000D8D8D8D8D8DED8DAD800000000
310
DED8DAD80000D8DED8D80000000000D8D8D8D80000D9D8D8D80000000000D8DA
310
D8D8D800000000D8DEDAD8DEDA000000DEDADA00000000000000000000000000
310
0000000000000000000000000000000000000000000000000000000000000000
310
00000000000000000000000000000000000000000000000000000000000000DB
310
DCDCDBDCDCDBDDDCDBDBDBDDDBDBDCDBDBDCDCDBDBDBDCDBDBDBDBDDDBDCDCDB
310
DCDDDBDBDDDBDBDBDCDBDBDBDBDB000000000000000000000000000000000000
310
0000000000000000000000000000000000D8D8D8D8D8D8D8D8D8D8DA000000DA
310
DADAD8D8DED8DED8D9000000D8D8D8D8000000D8D9DEDA00000000DED8DED800
310
0000DADAD8DE00000000D8DEDAD8D800000000DED8D8D8D800000000DAD8DE00
310
0000000000000000000000000000000000000000000000000000000000000000
310
0000000000000000000000000000000000000000000000000000000000000000
310
000000000000000000000000DBDCDBDBDCDBDDDBDBDBDBDBDCDBDBDBDBDBDCDB
310
DBDDDCDBDBDBDCDB000000000000000000000000000000000000000000000000
310
0000000000000000000000000000000000000000000000000000000000D8D8D8
310
D8D8D8D8DAD8D8D8000000D8DAD8DED8DEDADAD8D8000000DED8D8D9000000D8
310
D8D8DED8000000D8D8D9D8000000DED8D8D8D8000000D8DADAD9D800000000D8
310
D8D8D8D800000000DED8D8000000000000000000000000000000000000000000
310
0000000000000000000000000000000000000000000000000000000000000000
310
000000000000000000000000000000000000000000000000DBDBDBDCDCDCDCDB
310
DDDCDCDCDCDBDBDBDBDBDBDBDBDBDCDBDCDBDDDC000000000000000000000000
310
0000000000000000000000000000000000000000000000000000000000000000
310
0000000000000000000000000000000000000000000000000000000000000000
310
0000000000000000000000000000000000000000000000000000000000000000
310
0000000000000000000000000000000000000000000000000000000000000000
310
0000000000000000000000000000000000000000000000000000000000000000
310
0000000000000000000000000000000000000000000000000000000000000000
310
0000000000DBDCDCDBDBDBDBDBDCDCDBDCDBDBDCDCDDDBDBDCDBDBDBDCDCDBDC
310
DB00000000000000000000000000000000000000000000000000000000000000
310
0000000000000000000000000000000000000000000000000000000000000000
310
0000000000000000000000000000000000000000000000000000000000000000
310
0000000000000000000000000000000000000000000000000000000000000000
310
0000000000000000000000000000000000000000000000000000000000000000
310
0000000000000000000000000000000000000000000000000000000000000000
310
0000000000000000000000000000000000DCDDDBDBDCDBDCDBDBDDDBDBDBDDDC
310
DCDBDBDBDCDBDCDCDBDCDCDBDC00000000000000000000000000000000000000
310
0000000000000000000000000000000000000000000000000000000000000000
310
0000000000000000000000000000000000000000000000000000000000000000
310
0000000000000000000000000000000000000000000000000000000000000000
310
0000000000000000000000000000000000000000000000000000000000000000
310
0000000000000000000000000000000000000000000000000000000000000000
310
0000000000000000000000000000000000000000000000000000000000DCDBDC
310
DCDBDCDBDBDBDCDBDCDBDDDBDCDBDBDBDCDBDBDCDCDBDCDCDCDB000000000000
310
0000000000000000000000000000000000000000000000000000000000000000
310
0000000000000000000000000000000000000000000000000000000000000000
310
0000000000000000000000000000000000000000000000000000000000000000
310
0000000000000000000000000000000000000000000000000000000000000000
310
0000000000000000000000000000000000000000000000000000000000000000
310
0000000000000000000000000000000000000000000000000000000000000000
310
00000000000000000000DCDBDCDCDBDDDCDBDBDCDBDCDBDBDCDCDCDCDBDBDBDB
310
DDDBDCDCDBDB0000000000000000000000000000000000000000000000000000
310
0000000000000000000000000000000000000000000000000000000000000000
310
0000000000000000000000000000000000000000000000000000000000000000
310
0000000000000000000000000000000000000000000000000000000000000000
310
0000000000000000000000000000000000000000000000000000000000000000
310
0000000000000000000000000000000000000000000000000000000000000000
310
00000000000000000000000000000000000000000000DBDCDBDCDCDBDBDBDCDC
310
DBDBDCDCDBDBDCDBDBDBDBDBDCDCDCDBDBDB0000000000000000000000000000
310
0000000000000000000000000000000000000000000000000000000000000000
310
0000000000000000000000000000000000000000000000000000000000000000
310
0000000000000000000000000000000000000000000000000000000000000000
310
0000000000000000000000000000000000000000000000000000000000000000
310
0000000000000000000000000000000000000000000000000000000000000000
310
0000000000000000000000000000000000000000000000000000000000000000
310
000000DBDBDBDBDBDCDBDBDCDBDBDCDBDBDCDBDCDBDBDBDCDCDCDBDCDCDBDD00
310
000000D7D7D7D7D7D7D7D7D7D7D7D7D7D7D7D7D7D7D7D7D7D7D7D7D7D7D7D7D7
310
D7D7D7D7D7D7D7D7D7D7D7D7D7D7D7D7D7D7D7D7D7D7D7D7D7D7D7D7D7D7D7D7
310
D7D7D7D7D7D7D7D7D7D7D7D7D7D7D7D7D7D7D7D7D7D7D7D7D7D7D7D7D7D7D7D7
310
D7D7D7D7D7D7D7D7D7D7D7D7D7D7D7D7D7D7D7D7D7D7D7D7D7D7D7D7D7D7D7D7
310
D7D7D7D7D7D7D7D7D7D7D7D7D7D7D7D7D7D7D7D7D7D7D7D7D7D7D7D7D7D7D7D7
310
D7D7D7D7D7D7D7D7D7D7D7D7D7D7000000000000000000000000000000000000
310
000000000000000000000000000000DCDBDCDBDCDBDDDCDBDBDBDCDBDBDDDBDB
310
DDDCDCDBDDDBDCDBDDDCDB00000000D7D7D7D7D7D7D7D7D7D7D7D7D7D7D7D7D7
310
D7D7D7D7D7D7D7D7D7D7D7D7D7D7D7D7D7D7D7D7D7D7D7D7D7D7D7D7D7D7D7D7
310
D7D7D7D7D7D7D7D7D7D7D7D7D7D7D7D7D7D7D7D7D7D7D7D7D7D7D7D7D7D7D7D7
310
D7D7D7D7D7D7D7D7D7D7D7D7D7D7D7D7D7D7D7D7D7D7D7D7D7D7D7D7D7D7D7D7
310
D7D7D7D7D7D7D7D7D7D7D7D7D7D7D7D7D7D7D7D7D7D7D7D7D7D7D7D7D7D7D7D7
310
D7D7D7D7D7D7D7D7D7D7D7D7D7D7D7D7D7D7D7D7D7D7D7D7D7D7000000000000
310
00000000000000000000000000000000000000000000000000000000DBDBDBDD
310
DCDBDBDDDBDBDBDBDCDCDBDBDCDCDBDBDCDCDBDBDBDCDBDB0000000000000000
310
0000000000000000000000000000000000000000000000000000000000000000
310
0000000000000000000000000000000000000000000000000000000000000000
310
0000000000000000000000000000000000000000000000000000000000000000
310
0000000000000000000000000000000000000000000000000000000000000000
310
0000000000000000000000000000000000000000000000000000000000000000
310
0000000000000000000000000000000000000000000000000000000000000000
310
0000000000000000DCDCDBDCDCDBDDDBDCDBDBDBDCDBDCDCDBDBDBDCDCDBDBDB
310
DCDCDBDC00000000000000000000000000000000000000000000000000000000
310
0000000000000000000000000000000000000000000000000000000000000000
310
0000000000000000000000000000000000000000000000000000000000000000
310
0000000000000000000000000000000000000000000000000000000000000000
310
0000000000000000000000000000000000000000000000000000000000000000
310
0000000000000000000000000000000000000000000000000000000000000000
310
0000000000000000000000000000000000000000DBDBDBDBDBDCDDDCDBDBDBDB
310
DCDCDBDCDBDBDCDCDBDCDBDCDBDCDCDBDC000000000000000000000000000000
310
0000000000000000000000000000000000000000000000000000000000000000
310
0000000000000000000000000000000000000000000000000000000000000000
310
0000000000000000000000000000000000000000000000000000000000000000
310
0000000000000000000000000000000000000000000000000000000000000000
310
0000000000000000000000000000000000000000000000000000000000000000
310
0000000000000000000000000000000000000000000000000000000000000000
310
00DCDBDBDBDCDCDBDCDCDBDCDCDBDCDCDCDCDCDBDBDCDBDDDCDBDBDCDC000000
310
0000000000000000000000000000000000000000000000000000000000000000
310
0000000000000000000000000000000000000000000000000000000000000000
310
0000000000000000000000000000000000000000000000000000000000000000
310
0000000000000000000000000000000000000000000000000000000000000000
310
0000000000000000000000000000000000000000000000000000000000000000
310
0000000000000000000000000000000000000000000000000000000000000000
310
00000000000000000000000000DCDBDBDBDDDBDCDCDCDBDCDBDBDBDBDBDBDBDB
310
DBDCDCDBDBDDDBDBDC0000000000000000000000000000000000000000000000
310
0000000000000000000000000000000000000000000000000000000000000000
310
0000000000000000000000000000000000000000000000000000000000000000
310
0000000000000000000000000000000000000000000000000000000000000000
310
0000000000000000000000000000000000000000000000000000000000000000
310
0000000000000000000000000000000000000000000000000000000000000000
310
0000000000000000000000000000000000000000000000000000DCDCDCDCDCDC
310
DBDBDBDBDBDBDBDBDBDBDCDBDBDCDCDDDBDCDCDCDB0000000000000000000000
310
0000000000000000000000000000000000000000000000000000000000000000
310
0000000000000000000000000000000000000000000000000000000000000000
310
0000000000000000000000000000000000000000000000000000000000000000
310
000000000000000000000000000000000000000000000000000000000000D8DE
310
D8D8D8DE00000000000000000000000000000000000000000000000000000000
310
0000000000000000000000000000000000000000000000000000000000000000
310
000000000000DBDCDBDBDBDBDBDBDBDBDBDCDDDCDCDBDBDBDBDBDBDBDCDBDBDC
310
DC00D8D8D8D8DEDEDED8D8D8DAD8D8DADAD8D8D8D8D8DAD8D8D8DAD8D9D80000
310
0000000000000000D8D8D8DAD8D8DAD8D80000DED9D8D8DED8D8D8DE00000000
310
000000000000DAD8DED8DED8D8D8D800000000000000000000D8DADAD8D8DED8
310
D8D80000D8D8DADEDEDED8D8D8D80000000000DAD8D8D8D8DAD8D8D800000000
310
0000000000D8D8D8D8DED8D8D8D8DED8D8D9DADED80000000000DAD8D8D8D8D8
310
DAD8DADED8D8D8D8DAD8D8D8D8D8D80000000000000000000000000000000000
310
00000000000000000000000000000000000000DBDBDBDCDCDBDCDBDBDBDCDBDC
310
DCDCDBDBDBDBDBDCDBDCDBDCDB00D8D9DADED8DEDAD8D8D8D8D8DAD8D8D8DEDE
310
DEDEDED8D8DAD8D8DADE000000000000000000D8D8DED8DED8D8D8D8DE0000D8
310
D8D8D8DED8D8D8D800000000000000000000DEDED8D8DADAD8DADA0000000000
310
00000000D8D8DEDADED8D8DEDADE0000D8DADAD9D8D9D8D8D8D800000000D8D8
310
D8DAD8D8D8D8D8D800000000000000DAD8DAD8D8D8DADAD8D8D8DED8D8DEDEDE
310
D8D800000000DED8DEDED8DAD8D8D8D8D8D8D8D8D8DED8D8D9DEDE0000000000
310
00000000000000000000000000000000000000000000000000000000000000DB
310
DBDBDBDBDCDBDCDBDBDCDCDCDBDCDDDDDCDBDCDBDCDCDCDDDB00D8D8DED8D8D8
310
DADEDED8D8DED8D8D8D8D8DAD800D8DED8D8DED8D8DED80000000000000000D8
310
D8D8DEDED8D8DED8000000D8D8D8D8D8DED8D8D80000000000000000000000D8
310
DEDADED8D8D8DED80000000000000000D8D8D8DAD8D8D8D8DA000000D8D8DEDA
310
DED8DED8DADE00000000DEDADED8D8DED8D8DE00000000000000D8DED8D8DEDE
310
D8D8D8D8D8D8DADAD8D8D8D8D8D800000000D8DED8D8D8D8D8DED8DAD9D8DEDA
310
D8D8D8DED8D8D800000000000000000000000000000000000000000000000000
310
000000000000000000000000DBDCDBDCDCDBDBDBDCDBDBDBDBDBDCDCDCDCDCDB
310
DCDCDCDBDB00D8D8DEDED8DAD8D8D8D9D8D8D8D8D8D8D8DED800D8D8DEDED8D8
310
D8D8D800000000000000DAD8D8D8DEDED8DEDED8000000DAD8DED8D8D8D8D8D8
310
0000000000000000000000D8D8DED8DED8D8D8D800000000000000D8D8D8D8D8
310
D9D8D9DAD8000000D8D8D8D8DAD8DED8D8D800000000D8D8DAD8DAD8D8DAD800
310
0000000000D8D8DED8D8DED8DAD8D8DEDED8DAD8D8D8D8D8DADE00000000D8D8
310
D8D8DEDEDED8D8D8D8D8D8DED8D8D8D8D8D8DA00000000000000000000000000
310
000000000000000000000000000000000000000000000000DBDCDCDBDBDBDCDC
310
DBDDDCDBDCDBDCDBDDDBDCDBDBDCDCDBDD00DAD8D8DED8D8D8D9D8D8D8D8D8DE
310
DAD8D8D8D80000D8D8D8D9D8D8D8D8D8DADAD8D8D8D8DED8D8D8D8D8D8DEDA00
310
000000D8DAD8D8D8D8D8D8DE000000000000000000000000D8D8DEDADADAD8D8
310
DADEDAD8D8D8DED8D8D8D8DAD8DED8D800000000D9D8D8D8D8D8D8D8D8D80000
310
0000D9D8D8D8DADED8D8DE0000000000DEDAD8D8D8D8D8D8D8D9DED8D8D8D8D9
310
DADAD8D8D9DE00000000DEDED8D8DED8D8D8D8D9D8D8D8D8DEDED8DEDED80000
310
0000000000000000000000000000000000000000000000000000000000000000
310
00000000DBDCDCDBDCDBDBDDDBDCDCDCDCDBDBDBDCDCDBDCDBDBDBDBDB00D8D8
310
D8DEDED8D8D8D8D8D8D8DED8D8D8DED8D80000D8D8D8D8D8D8DEDED8D8D8D8DA
310
D8D8DAD8D8D8DADAD8DAD800000000DADAD8D8DED8D8DADA0000000000000000
310
00000000D8D8D8D8D8D8D8DAD8DADEDADEDED8D8D8D8D8D8D8D8DED800000000
310
D8D8DADEDED8DED8D8D8000000DAD8D8D8DED8D8D8D8D800000000D8D8D8D8DE
310
DED8DAD8DA0000000000DADADEDEDAD8D8D800000000D8D8D8DED9DAD8D8D900
310
0000000000000000000000000000000000000000000000000000000000000000
310
0000000000000000000000000000000000DCDCDBDBDBDBDBDBDBDBDCDBDCDBDC
310
DBDBDCDCDBDBDCDCDC00DEDADAD9D8DADAD8D8DA000000000000000000000000
310
DED8DEDEDED8D8DADED8DED8D8DED8DAD8D8D8DED8DE0000000000D8DEDED8D9
310
D8D8DEDED8DAD8D8D8D8DEDED8D8000000DADEDED8D9DED8D8D8D8DAD8D8D8D8
310
D8DED8D8D8D8DA0000000000D8D8DAD8D8D8D8D9DADAD8D8D8D8D8D8DADED8D8
310
D8D80000000000DAD8DEDED8DED8D8D8000000000000DAD8DED8D8DED8DA0000
310
0000D9DED8DEDAD8D8D8D8000000000000000000000000000000000000000000
310
0000000000000000000000000000000000000000000000000000000000DDDBDB
310
DCDBDCDBDBDCDBDBDCDBDBDCDBDCDBDCDBDCDDDBDB00D8D8DED8D9DEDADED8D8
310
000000000000000000000000D8D8D8D8D8D8D8DEDAD8D8D8D8D8D8D8D8D8D8D8
310
DED80000000000D8D8D8DED8D8D9DED8D8D8D8DAD8DED8DEDADED80000D8D8D8
310
DEDED8DAD8DEDEDED8DAD8D8D8D8D8D8D8D8DA0000000000D8D8D8D8DED9D8D8
310
DED8D8D8DEDAD8D8D8D8D9DED8000000000000D8DAD8D8D8D8DEDED800000000
310
D8D8DED8D8D8D8D8D8D800000000DED8D9D8DAD8DADEDED8D9D8DADEDAD8D8D8
310
DEDA000000000000000000000000000000000000000000000000000000000000
310
00000000000000000000DBDBDBDBDBDBDCDCDBDBDBDBDCDCDDDBDCDCDBDDDBDC
310
DB00D9D8D8D8D8D8D8D8D8D8000000000000000000000000D8D8D8D8D8D8D8D8
310
DAD8D8DED8D8D8D8D8D8D8D8DED80000000000DED8D8D8D8D8D9DADEDEDED8DE
310
DED8D8D8D8DED80000D9D9D8DEDED8D8D8D8D8D8D8D8DED9DADED8D8D8D8D800
310
00000000D8D8DED8DADED8D9DADAD8D8DED8D8D8DAD8DED8000000000000D8DA
310
DED8D8D8D8D8D8D800000000D8D8D8D8D8DEDED8D9D800000000DEDED8DED8D8
310
D9D8D8DEDADED8D8D8D8D8D8D8D8000000000000000000000000000000000000
310
00000000000000000000000000000000000000000000DCDBDBDBDBDBDBDCDBDD
310
DCDCDBDCDBDDDBDCDCDCDCDCDB00D8D8D8D8D8D8D8D8D8DA0000000000000000
310
0000000000DED8DAD8D8D8D8D800000000D8D8DED8D8D8D8D9000000000000D8
310
D8DED8DEDED8D8D8DED8D8DED8D8D8DED8DED8000000DED8D9D8D8DED8D90000
310
0000D8D8D8D8D8DEDED8000000000000DEDADED8D8D8DED8D8DEDED8DED8D8DE
310
D8D8D8D8D80000000000D8D8DEDAD8DAD8D8DED800000000DEDAD8D8DAD8DED8
310
DED800000000D8D8D8D8DAD8DED8D8D8D8D8DED8D8D8D8DEDADA000000000000
310
0000000000000000000000000000000000000000000000000000000000000000
310
000000DBDBDBDBDCDBDBDCDBDBDBDCDBDBDCDDDBDCDBDBDBDB00D8D8D8D8DADE
310
D8DEDAD800000000000000000000000000D8D8D8DED8D8D9DE000000DAD8D8D8
310
D8DED8D9D8000000000000D8DAD8D8D8D8DEDED8D8D8DED9D8D8D8D9D8DED800
310
0000D9D8D8DAD8DAD8DE000000D8D8D8D8D8D8D8D8DA000000000000DED8DAD8
310
D8D8D8D8D8D8DED8D8D8D8D8D8D8D8DAD8D800000000D8D8D8D8D8DEDAD8DED8
310
00000000D8D8D8D8D8DAD8D8D80000000000D8DED8DAD8D8DAD8D8D8DADAD8D8
310
D8D8D8D8D8D80000000000000000000000000000000000000000000000000000
310
000000000000000000000000000000DCDCDBDCDBDBDBDBDCDCDBDBDBDBDCDBDC
310
DDDCDBDBDB00D8D8DED8D8D8D8D8D8D80000000000000000000000000000D8D8
310
DED8DEDEDED80000DED8DED8D8D8DEDE00000000000000D8DED8D8DADADEDEDA
310
000000000000000000000000000000D8D9D8D8D8DADAD80000D9D9D8D8D8DED8
310
D800000000000000D8D8DED8D8D8D8D8DE0000000000DAD8D8DAD8DED8D8D800
310
0000D8D8D8DADAD8D8DAD8D8000000000000000000000000000000000000D8D8
310
D8D8D8D8D8D8D8D9DAD8D8D8DEDED8D8D8D80000000000000000000000000000
310
00000000000000000000000000000000000000000000000000000000DDDCDCDB
310
DBDBDDDCDCDCDBDCDBDBDCDBDCDDDBDBDB00D8D8D8DED8DEDEDAD8DA00000000
310
00000000000000000000D8DED9D8D8D8D8D90000DAD9DEDEDAD8D8D800000000
310
000000D8DED9D8DAD8DADADA000000000000000000000000000000D8D8D8D8D8
310
D8D8DE0000D8DED8D8D8D8D8D800000000000000D8D8D8D8D8D8DAD9D8000000
310
0000D9DADED8D8DED8DEDE00000000DAD8DAD8D8D8D9DAD9D800000000000000
310
00000000000000000000D8DEDAD8DED8D8DED800000000000000000000000000
310
0000000000000000000000000000000000000000000000000000000000000000
310
0000000000000000DCDCDCDDDBDBDBDCDCDBDBDBDDDBDCDCDBDDDBDDDD00D8D8
310
DEDAD9D8DEDEDEDA0000000000000000000000000000D8D8D8DEDADED8D800DA
310
D8D8D8D8D8D8D80000000000000000D8D8DAD8D8D8D8DAD80000000000000000
310
00000000000000D9D8D8DEDAD9DED8DAD8D8D8D8DADED9D80000000000000000
310
D8D8D8D8D8DED8D8D80000000000D8D9D8D8D8D8DED8DED8000000DED8DED8D8
310
D8D8D8D8D8D800000000000000000000D80000000000D8DAD8D8D8D9DAD8D800
310
0000000000000000000000000000000000000000000000000000000000000000
310
0000000000000000000000000000000000000000DBDCDCDBDBDCDBDCDBDCDDDC
310
DBDCDCDBDDDBDBDBDB00DEDAD8DED8D8DED8D8D8000000000000000000000000
310
000000DAD8DED8D8D8DEDEDAD8DAD8D8D8D9DE0000000000000000D8DADADEDA
310
DED8D8D9D8D8D8DAD8DADAD8D8DED80000000000D8DED8D8DAD8DADAD8D8DAD8
310
D8D8D8DE0000000000000000D8DADEDED8D8D8D8DED8DED8D8D8D8D8D8D8D9DA
310
DAD8D8DE00000000D8D8D8D8D8D8DED8D8DAD8D8DED8D8D8D8DED8D8D8000000
310
0000D8D8D8D8D9DADAD8DAD8D8D8D8DEDAD8D9D8D8D800000000000000000000
310
0000000000000000000000000000000000000000000000000000000000000000
310
00DBDBDDDBDCDBDBDCDBDDDBDBDBDBDBDDDBDCDCDB00D8D8DAD8DED8DED8D9DE
310
000000000000000000000000000000D8D8D8D8D8DAD8D8D8D8D8D8D8D8D8DE00
310
00000000000000D8DED8DEDAD8D9D8D8D8DEDED8D8D8D8DADED8D80000000000
310
D8D8D8D8D8D8D8D8DAD8D8DADED8D8DE0000000000000000D8D8D8DED8D8D8DE
310
D8D8D8D8D8D8D8D8DAD8D8D8DED8D8000000000000D8D8D8D8D8DED8D8D8D9D8
310
D8D8D8DAD8D8D9D8DE0000000000DED8DED8D8D8D8D8D8D8D8D8D8D8DED8D8D8
310
D8D8000000000000000000000000000000000000000000000000000000000000
310
00000000000000000000000000DBDBDBDBDCDBDBDBDBDBDBDBDCDBDDDBDCDBDB
310
DC00D8D8D8D8D8D8DED8D8D800000000000000000000000000000000D8DAD8DA
310
DAD8D8D8D8D8D8D8D8D8000000000000000000DED8D8D8D8DAD8D8D8DED8D8D8
310
DED8D8D8D8D8D8000000000000DEDED8D8D8DADAD9DEDEDED8D8DE0000000000
310
00000000D8D8D8D8D8DAD9D8DED8DAD9D8D8D8D8D8D8D8DED8D8D80000000000
310
0000D8D8D8DEDED8D8DED8D8D8D8D8D8DAD8D8D8D80000000000D8D9DADED8D8
310
D8D8DAD8D8D8D8D8DEDAD8D8D8D8000000000000000000000000000000000000
310
0000000000000000000000000000000000000000000000000000DCDCDCDBDBDC
310
DBDBDBDBDCDBDBDCDBDCDBDBDB00DED8D8D8D8D8D8D8D8D80000000000000000
310
0000000000000000D8D8D8D9D8D9DADEDAD8D8D8D8D8000000000000000000D8
310
DEDADAD8D8D9D8D8D9D8D8D8D8D8D8DEDAD8DA000000000000DAD9D8D8D8D8D8
310
D8DAD8DAD8DED8000000000000000000D8D8DED8D8D8DED8DED8D8DADADEDAD8
310
DAD8D8D8D8D8000000000000000000DAD8D8D8D8D8DED8D8D8D8D8DADEDADAD8
310
DA0000000000D8D8D8D8D9D9D8D8D8DED8D8DEDED8D8D8DED8D8000000000000
310
0000000000000000000000000000000000000000000000000000000000000000
310
000000000000DCDCDBDBDCDDDBDBDBDCDBDBDCDBDBDBDCDDDB00D8DED8D8D8D8
310
D8D8D8D80000000000000000000000000000000000D8D8D8D9DED8D8D8DAD8D8
310
DA00000000000000000000D8D8D8D8D8DED8DEDADADAD8DED8D8DED8DED8D800
310
000000000000D8D8D8DED8D8D8D8D8D8D8D800000000000000000000DED8D8DA
310
D9D8DED8D8D8D8D8D8DED8D8D8D8D8000000000000000000000000000000D8D8
310
D8DAD8D8D8D8DEDAD8D8D8DED80000000000D8D8D8D8DEDED8D8D8DEDAD8D8D8
310
DED8DED8D8D80000000000000000000000000000000000000000000000000000
310
00000000000000000000000000000000000000DDDBDBDCDBDBDCDBDBDBDDDCDB
310
DBDBDDDCDB000000000000000000000000000000000000000000000000000000
310
0000000000000000000000000000000000000000000000000000000000000000
310
0000000000000000000000000000000000000000000000000000000000000000
310
0000000000000000000000000000000000000000000000000000000000000000
310
0000000000000000000000000000000000000000000000000000000000000000
310
0000000000000000000000000000000000000000000000000000000000000000
310
00000000000000000000000000000000000000000000000000000000000000DC
310
DCDBDBDBDDDCDCDCDBDCDBDCDBDCDCDCDBDCDBDBDBDBDBDBDBDBDD0000000000
310
0000000000000000000000000000000000000000000000000000000000000000
310
0000000000000000000000000000000000000000000000000000000000000000
310
0000000000000000000000000000000000000000000000000000000000000000
310
0000000000000000000000000000000000000000000000000000000000000000
310
0000000000000000000000000000000000000000000000000000000000000000
310
0000000000000000000000000000000000000000000000000000000000000000
310
0000000000000000000000DBDBDBDBDBDBDBDDDBDCDBDCDCDCDCDBDCDCDBDBDB
310
DBDCDCDBDBDBDCDB000000000000000000000000000000000000000000000000
310
0000000000000000000000000000000000000000000000000000000000000000
310
0000000000000000000000000000000000000000000000000000000000000000
310
0000000000000000000000000000000000000000000000000000000000000000
310
0000000000000000000000000000000000000000000000000000000000000000
310
0000000000000000000000000000000000000000000000000000000000000000
310
000000000000000000000000000000000000000000000000DCDCDDDCDBDCDBDB
310
DCDBDBDBDBDCDBDBDBDCDCDCDBDCDBDCDBDDDBDC000000000000000000000000
310
0000000000000000000000000000000000000000000000000000000000000000
310
0000000000000000000000000000000000000000000000000000000000000000
310
0000000000000000000000000000000000000000000000000000000000000000
310
0000000000000000000000000000000000000000000000000000000000000000
310
0000000000000000000000000000000000000000000000000000000000000000
310
0000000000000000000000000000000000000000000000000000000000000000
310
00000000DCDBDDDBDCDCDCDDDBDCDBDCDBDBDBDBDBDCDCDBDCDBDCDBDBDBDCDC
310
DB00000000000000000000000000000000000000000000000000000000000000
310
0000000000000000000000000000000000000000000000000000000000000000
310
0000000000000000000000000000000000000000000000000000000000000000
310
0000000000000000000000000000000000000000000000000000000000000000
310
0000000000000000000000000000000000000000000000000000000000000000
310
0000000000000000000000000000000000000000000000000000000000000000
310
0000000000000000000000000000000000DCDBDBDCDBDCDBDBDCDBDBDDDCDCDB
310
DBDCDBDBDBDCDCDBDCDBDCDCDB00000000000000000000000000000000000000
310
0000000000000000000000000000000000000000000000000000000000000000
310
0000000000000000000000000000000000000000000000000000000000000000
310
0000000000000000000000000000000000000000000000000000000000000000
310
0000000000000000000000000000000000000000000000000000000000000000
310
0000000000000000000000000000000000000000000000000000000000000000
310
0000000000000000000000000000000000000000000000000000000000DCDDDB
310
DCDCDBDBDBDCDBDCDCDBDDDCDCDBDBDBDBDBDCDCDCDBDBDBDB00000000000000
310
0000000000000000000000000000000000000000000000000000000000000000
310
0000000000000000000000000000000000000000000000000000000000000000
310
0000000000000000000000000000000000000000000000000000000000000000
310
0000000000000000000000000000000000000000000000000000000000000000
310
0000000000000000000000000000000000000000000000000000000000000000
310
0000000000000000000000000000000000000000000000000000000000000000
310
00000000000000000000DBDBDCDBDBDBDCDBDBDBDCDBDCDDDCDCDBDCDDDDDBDC
310
DBDBDCDCDBDC0000000000000000000000000000000000000000000000000000
310
0000000000000000000000000000000000000000000000000000000000000000
310
0000000000000000000000000000000000000000000000000000000000000000
310
0000000000000000000000000000000000000000000000000000000000000000
310
0000000000000000000000000000000000000000000000000000000000000000
310
0000000000000000000000000000000000000000000000000000000000000000
310
00000000000000000000000000000000000000000000DBDBDBDCDBDDDCDBDCDB
310
DBDCDBDCDBDCDBDCDBDCDBDBDBDBDCDBDBDB0000000000000000000000000000
310
0000000000000000000000000000000000000000000000000000000000000000
310
0000000000000000000000000000000000000000000000000000000000000000
310
0000000000000000000000000000000000000000000000000000000000000000
310
0000000000000000000000000000000000000000000000000000000000000000
310
0000000000000000000000000000000000000000000000000000000000000000
310
0000000000000000000000000000000000000000000000000000000000000000
310
000000DCDCDBDBDCDBDCDDDCDCDBDCDBDCDBDBDBDCDCDCDCDBDDDBDDDCDCDC00
310
0000000000000000000000000000000000000000000000000000000000000000
310
0000000000000000000000000000000000000000000000000000000000000000
310
0000000000000000000000000000000000000000000000000000000000000000
310
0000000000000000000000000000000000000000000000000000000000000000
310
0000000000000000000000000000000000000000000000000000000000000000
310
0000000000000000000000000000000000000000000000000000000000000000
310
000000000000000000000000000000DCDCDBDDDCDBDCDBDCDDDBDBDCDCDBDBDB
310
DBDCDBDBDBDCDCDBDCDCDB000000000000000000000000000000000000000000
310
0000000000000000000000000000000000000000000000000000000000000000
310
0000000000000000000000000000000000000000000000000000000000000000
310
0000000000000000000000000000000000000000000000000000000000000000
310
0000000000000000000000000000000000000000000000000000000000000000
310
0000000000000000000000000000000000000000000000000000000000000000
310
000000000000000000000000000000000000000000000000000000DCDBDBDCDB
310
DCDDDBDCDDDDDCDBDBDBDBDBDCDBDCDCDBDCDCDBDCDCDBDC0000000000000000
310
0000000000000000000000000000000000000000000000000000000000000000
310
0000000000000000000000000000000000000000000000000000000000000000
310
0000000000000000000000000000000000000000000000000000000000000000
310
0000000000000000000000000000000000000000000000000000000000000000
310
0000000000000000000000000000000000000000000000000000000000000000
310
0000000000000000000000000000000000000000000000000000000000000000
310
0000000000000000DCDBDBDCDCDBDBDCDBDBDBDCDCDDDDDBDDDCDDDCDBDBDCDB
310
DBDBDDDB00000000000000000000000000000000000000000000000000000000
310
0000000000000000000000000000000000000000000000000000000000000000
310
0000000000000000000000000000000000000000000000000000000000000000
310
0000000000000000000000000000000000000000000000000000000000000000
310
0000000000000000000000000000000000000000000000000000000000000000
310
0000000000000000000000000000000000000000000000000000000000000000
310
0000000000000000000000000000000000000000DBDBDCDBDBDDDCDBDCDCDBDC
310
DCDCDCDBDBDDDCDCDCDCDBDCDBDBDBDB00000000000000000000000000000000
310
0000000000000000000000000000000000000000000000000000000000000000
310
0000000000000000000000000000000000000000000000000000000000000000
310
0000000000000000000000000000000000000000000000000000000000000000
310
0000000000000000000000000000000000000000000000000000000000000000
310
0000000000000000000000000000000000000000000000000000000000000000
310
0000000000000000000000000000000000000000000000000000000000000000
310
00DCDCDBDDDCDBDCDBDCDCDCDBDBDCDBDDDCDCDCDCDCDDDCDCDCDBDCDC000000
310
0000000000000000000000000000000000000000000000000000000000000000
310
0000000000000000000000000000000000000000000000000000000000000000
310
0000000000000000000000000000000000000000000000000000000000000000
310
0000000000000000000000000000000000000000000000000000000000000000
310
0000000000000000000000000000000000000000000000000000000000000000
310
0000000000000000000000000000000000000000000000000000000000000000
310
00000000000000000000000000DBDCDBDBDBDBDCDCDCDCDCDDDCDBDBDBDBDCDC
310
DCDCDBDBDBDBDCDCDC0000000000000000000000000000000000000000000000
310
0000000000000000000000000000000000000000000000000000000000000000
310
0000000000000000000000000000000000000000000000000000000000000000
310
0000000000000000000000000000000000000000000000000000000000000000
310
0000000000000000000000000000000000000000000000000000000000000000
310
0000000000000000000000000000000000000000000000000000000000000000
310
0000000000000000000000000000000000000000000000000000DCDCDCDDDBDD
310
DCDBDBDBDCDCDCDBDCDBDBDBDBDDDBDCDCDCDBDCDBDB00000000000000000000
310
0000000000000000000000000000000000000000000000000000000000000000
310
0000000000000000000000000000000000000000000000000000000000000000
310
0000000000000000000000000000000000000000000000000000000000000000
310
0000000000000000000000000000000000000000000000000000000000000000
310
0000000000000000000000000000000000000000000000000000000000000000
310
0000000000000000000000000000000000000000000000000000000000000000
310
000000000000DBDCDCDCDCDCDCDBDBDCDDDBDCDDDCDBDCDBDCDBDBDBDCDBDBDB
310
DDDB000000000000000000000000000000000000000000000000000000000000
310
0000000000000000000000000000000000000000000000000000000000000000
310
0000000000000000000000000000000000000000000000000000000000000000
310
0000000000000000000000000000000000000000000000000000000000000000
310
0000000000000000000000000000000000000000000000000000000000000000
310
0000000000000000000000000000000000000000000000000000000000000000
310
00000000000000000000000000000000000000DCDBDBDCDBDDDCDBDCDCDBDBDB
310
DBDCDBDBDCDCDBDBDCDBDBDCDCDCDC0000000000000000000000000000000000
310
0000000000000000000000000000000000000000000000000000000000000000
310
0000000000000000000000000000000000000000000000000000000000000000
310
0000000000000000000000000000000000000000000000000000000000000000
310
0000000000000000000000000000000000000000000000000000000000000000
310
0000000000000000000000000000000000000000000000000000000000000000
310
00000000000000000000000000000000000000000000000000000000000000DC
310
DBDBDBDBDBDBDCDBDCDDDBDBDBDCDCDBDCDBDBDCDBDBDBDCDBDDDC0000000000
310
0000000000000000000000000000000000000000000000000000000000000000
310
0000000000000000000000000000000000000000000000000000000000000000
310
0000000000000000000000000000000000000000000000000000000000000000
310
0000000000000000000000000000000000000000000000000000000000000000
310
0000000000000000000000000000000000000000000000000000000000000000
310
0000000000000000000000000000000000000000000000000000000000000000
310
0000000000000000000000DBDBDCDCDCDBDBDCDBDCDCDBDCDCDBDBDBDCDBDCDB
310
DBDBDBDCDBDBDCDB000000000000000000000000000000000000000000000000
310
0000000000000000000000000000000000000000000000000000000000000000
310
0000000000000000000000000000000000000000000000000000000000000000
310
0000000000000000000000000000000000000000000000000000000000000000
310
0000000000000000000000000000000000000000000000000000000000000000
310
0000000000000000000000000000000000000000000000000000000000000000
310
000000000000000000000000000000000000000000000000DBDCDCDBDBDBDCDB
310
DCDBDBDCDDDBDBDCDBDBDBDCDCDBDCDBDBDBDBDC000000000000000000000000
310
0000000000000000000000000000000000000000000000000000000000000000
310
0000000000000000000000000000000000000000000000000000000000000000
310
0000000000000000000000000000000000000000000000000000000000000000
310
0000000000000000000000000000000000000000000000000000000000000000
310
0000000000000000000000000000000000000000000000000000000000000000
310
0000000000000000000000000000000000000000000000000000000000000000
310
00000000DBDCDBDCDCDBDCDBDBDBDCDCDBDCDBDCDBDBDBDCDCDBDCDBDBDCDBDB
310
0000000000000000000000000000000000000000000000000000000000000000
310
0000000000000000000000000000000000000000000000000000000000000000
310
0000000000000000000000000000000000000000000000000000000000000000
310
0000000000000000000000000000000000000000000000000000000000000000
310
0000000000000000000000000000000000000000000000000000000000000000
310
0000000000000000000000000000000000000000000000000000000000000000
310
0000000000000000000000000000000000DDDBDCDBDBDCDCDDDCDBDBDBDBDCDD
310
DDDBDBDDDCDCDCDCDBDBDDDBDD00000000000000000000000000000000000000
310
0000000000000000000000000000000000000000000000000000000000000000
310
0000000000000000000000000000000000000000000000000000000000000000
310
0000000000000000000000000000000000000000000000000000000000000000
310
0000000000000000000000000000000000000000000000000000000000000000
310
0000000000000000000000000000000000000000000000000000000000000000
310
0000000000000000000000000000000000000000000000000000000000DCDBDB
310
DCDDDDDCDDDBDCDBDCDBDBDBDCDBDBDBDBDCDCDCDBDCDCDCDB00000000000000
310
0000000000000000000000000000000000000000000000000000000000000000
310
0000000000000000000000000000000000000000000000000000000000000000
310
0000000000000000000000000000000000000000000000000000000000000000
310
0000000000000000000000000000000000000000000000000000000000000000
310
0000000000000000000000000000000000000000000000000000000000000000
310
0000000000000000000000000000000000000000000000000000000000000000
310
00000000000000000000DCDBDBDDDBDBDBDBDCDDDBDCDCDCDCDDDBDCDBDBDBDC
310
DBDCDBDBDCDB0000000000000000000000000000000000000000000000000000
310
0000000000000000000000000000000000000000000000000000000000000000
310
0000000000000000000000000000000000000000000000000000000000000000
310
0000000000000000000000000000000000000000000000000000000000000000
310
0000000000000000000000000000000000000000000000000000000000000000
310
0000000000000000000000000000000000000000000000000000000000000000
310
0000000000000000000000000000000000000000000000000000000000000000
310
0000000000000000000000000000000000000000000000000000000000000000
310
0000000000000000000000000000000000000000000000000000000000000000
310
0000000000000000000000000000000000000000000000000000000000000000
310
0000000000000000000000000000000000000000000000000000000000000000
310
0000000000000000000000000000000000000000000000000000000000000000
310
0000000000000000000000000000000000000000000000000000000000000000
310
0000000000000000000000000000000000000000000000000000000000000000
310
0000000000000000000000000000000000000000000000000000000000000000
310
0000000000000000000000000000000000000000000000000000000000000000
310
0000000000000000000000000000000000000000000000000000000000000000
310
0000000000000000000000000000000000000000000000000000000000000000
310
0000000000000000000000000000000000000000000000000000000000000000
310
0000000000000000000000000000000000000000000000000000000000000000
310
0000000000000000000000000000000000000000000000000000000000000000
310
0000000000000000000000000000000000000000000000000000000000000000
310
0000000000000000000000000000000000000000000000000000000000000000
310
0000000000000000000000000000000000000000000000000000000000000000
310
0000000000000000000000000000000000000000000000000000000000000000
310
0000000000000000000000000000000000000000000000000000000000000000
310
0000000000000000000000000000000000000000000000000000000000000000
310
0000000000000000000000000000000000000000000000000000000000000000
310
0000000000000000000000000000000000000000000000000000000000000000
310
0000000000000000000000000000000000000000000000000000000000000000
310
0000000000000000000000000000000000000000000000000000000000000000
310
0000000000000000000000000000000000000000000000000000000000000000
310
0000000000000000000000000000000000000000000000000000000000000000
310
0000000000000000000000000000000000000000000000000000000000000000
310
0000000000000000000000000000000000000000000000000000000000000000
310
0000000000000000000000000000000000000000000000000000000000000000
310
0000000000000000000000000000000000000000000000000000000000000000
310
0000000000000000000000000000000000000000000000000000000000000000
310
0000000000000000000000000000000000000000000000000000000000000000
310
0000000000000000000000000000000000000000000000000000000000000000
310
0000000000000000000000000000000000000000000000000000000000000000
310
0000000000000000000000000000000000000000000000000000000000000000
310
0000000000000000000000000000000000000000000000000000000000000000
310
0000000000000000000000000000000000000000000000000000000000000000
310
0000000000000000000000000000000000000000000000000000000000000000
310
01004F006C006500310030004900740065006D004E0061006D00650000000000
310
0000000000000000000000000000000000000000000000000000000000000000
310
1E000200FFFFFFFFFFFFFFFFFFFFFFFF00000000000000000000000000000000
310
0000000000000000000000000000000000000000030000000500000000000000
310
0000000000000000000000000000000000000000000000000000000000000000
310
0000000000000000000000000000000000000000000000000000000000000000
310
00000000FFFFFFFFFFFFFFFFFFFFFFFF00000000000000000000000000000000
310
0000000000000000000000000000000000000000000000000000000000000000
310
0000000000000000000000000000000000000000000000000000000000000000
310
0000000000000000000000000000000000000000000000000000000000000000
310
00000000FFFFFFFFFFFFFFFFFFFFFFFF00000000000000000000000000000000
310
0000000000000000000000000000000000000000000000000000000000000000
310
0000000000000000000000000000000000000000000000000000000000000000
310
0000000000000000000000000000000000000000000000000000000000000000
310
00000000FFFFFFFFFFFFFFFFFFFFFFFF00000000000000000000000000000000
310
0000000000000000000000000000000000000000000000000000000000000000
  1
OLE
  0
MTEXT
  5
49C
330
1B
100
AcDbEntity
 67
     1
  8
kiri
100
AcDbMText
 10
6.349122173525188
 20
29.31784238035345
 30
0.0
 40
3.0
 41
235.0999999999999
 71
     1
 72
     5
  1
{\fArial|b0|i0|c186|p34;NB!!! Antud sõlmed on soovituslikud \Pning tuleks viia kooskõlla vastavalt ülejäänud projekti konstruktiivsete lahendustega.}
  7
ARIAL
 73
     1
 44
1.0
  0
IMAGE
  5
4B4
330
1B
100
AcDbEntity
 67
     1
  8
kiri
 92
      140
310
8C0000000100000084000000060000000500000000BC01FDDB591C40E811CB4696915C40000000000000000006BC01FDDB591C40F48865238B6A68400000000000000000C01BD0BF9DC55A40F48865238B6A68400000000000000000C01BD0BF9DC55A40E811CB4696915C40000000000000000000BC01FDDB591C40E811CB
310
4696915C400000000000000000
100
AcDbRasterImage
 90
        0
 10
7.087753251295907
 20
114.2747971518616
 30
0.0
 11
0.0244140625
 21
0.0
 31
0.0
 12
0.0
 22
0.0244140625
 32
0.0
 13
4096.0
 23
3320.0
340
4B2
 70
     7
280
     0
281
    50
282
    50
283
     0
360
4B3
 71
     1
 91
        2
 14
-0.5
 24
-0.5
 14
4095.5
 24
3319.5
  0
LINE
  5
4D1
330
1B
100
AcDbEntity
 67
     1
  8
kiri
100
AcDbLine
 10
116.5008720364426
 20
131.8199666759276
 30
0.0
 11
127.4256201227448
 21
159.8909629321106
 31
0.0
  0
LINE
  5
4D2
330
1B
100
AcDbEntity
 67
     1
  8
kiri
100
AcDbLine
 10
127.4256201227448
 20
159.8909629321106
 30
0.0
 11
172.0767184457666
 21
159.8909629321106
 31
0.0
  0
LINE
  5
4D3
330
1B
100
AcDbEntity
 67
     1
  8
kiri
100
AcDbLine
 10
207.8350865942329
 20
112.3647191221612
 30
0.0
 11
207.8350865942329
 21
145.9517679659555
 31
0.0
  0
LINE
  5
4D4
330
1B
100
AcDbEntity
 67
     1
  8
kiri
100
AcDbLine
 10
207.8350865942329
 20
145.9517679659555
 30
0.0
 11
250.0186913432212
 21
145.9517679659555
 31
0.0
  0
LINE
  5
4D5
330
1B
100
AcDbEntity
 67
     1
  8
kiri
100
AcDbLine
 10
151.1917220699712
 20
93.97620956337936
 30
0.0
 11
158.7754960571443
 21
105.7305382073085
 31
0.0
  0
LINE
  5
4D6
330
1B
100
AcDbEntity
 67
     1
  8
kiri
100
AcDbLine
 10
158.7754960571443
 20
105.7305382073085
 30
0.0
 11
184.4674663655601
 21
105.7305382073085
 31
0.0
  0
LINE
  5
4D8
330
1B
100
AcDbEntity
 67
     1
  8
kiri
100
AcDbLine
 10
75.24747170759042
 20
84.92911215779271
 30
0.0
 11
75.24747170759042
 21
46.68563447483603
 31
0.0
  0
LINE
  5
4D9
330
1B
100
AcDbEntity
 67
     1
  8
kiri
100
AcDbLine
 10
75.24747170759042
 20
46.68563447483603
 30
0.0
 11
98.97314161202167
 21
46.68563447483603
 31
0.0
  0
LINE
  5
4DA
330
1B
100
AcDbEntity
 67
     1
  8
kiri
100
AcDbLine
 10
115.5053337053789
 20
73.18967657194878
 30
0.0
 11
115.5053337053789
 21
39.76426233259559
 31
0.0
  0
LINE
  5
4DB
330
1B
100
AcDbEntity
 67
     1
  8
kiri
100
AcDbLine
 10
115.5053337053789
 20
39.76426233259559
 30
0.0
 11
162.5197481617251
 21
39.76426233259559
 31
0.0
  0
LINE
  5
4DC
330
1B
100
AcDbEntity
 67
     1
  8
kiri
100
AcDbLine
 10
176.2560499492171
 20
49.59357176171142
 30
0.0
 11
190.5576363145445
 21
36.63864729689169
 31
0.0
  0
LINE
  5
4DD
330
1B
100
AcDbEntity
 67
     1
  8
kiri
100
AcDbLine
 10
190.5576363145445
 20
36.63864729689169
 30
0.0
 11
226.7976655623527
 21
36.63864729689169
 31
0.0
  0
LINE
  5
4DF
330
1B
100
AcDbEntity
 67
     1
  8
kiri
100
AcDbLine
 10
192.7118632972552
 20
82.58753730129399
 30
0.0
 11
207.2437217293388
 21
43.02474011053965
 31
0.0
  0
LINE
  5
4E0
330
1B
100
AcDbEntity
 67
     1
  8
kiri
100
AcDbLine
 10
207.2437217293388
 20
43.02474011053965
 30
0.0
 11
246.3444429531857
 21
43.02474011053965
 31
0.0
  0
LINE
  5
4E1
330
1B
100
AcDbEntity
 67
     1
  8
kiri
100
AcDbLine
 10
270.4995480853345
 20
122.4360544823201
 30
0.0
 11
256.493385787217
 21
160.7647629313285
 31
0.0
  0
LINE
  5
4E2
330
1B
100
AcDbEntity
 67
     1
  8
kiri
100
AcDbLine
 10
256.493385787217
 20
160.7647629313285
 30
0.0
 11
228.5859173460994
 21
160.7647629313285
 31
0.0
  0
LINE
  5
4E3
330
1B
100
AcDbEntity
 67
     1
  8
kiri
100
AcDbLine
 10
207.6683677484168
 20
92.03659876538086
 30
0.0
 11
225.5266489180924
 21
53.71104466458985
 31
0.0
  0
LINE
  5
4E4
330
1B
100
AcDbEntity
 67
     1
  8
kiri
100
AcDbLine
 10
225.5266489180924
 20
53.71104466458985
 30
0.0
 11
281.1006377970463
 21
53.71104466458985
 31
0.0
  0
LINE
  5
4E5
330
1B
100
AcDbEntity
 67
     1
  8
kiri
100
AcDbLine
 10
94.67318188986689
 20
109.4315445743835
 30
0.0
 11
68.06948539089034
 21
100.5136863398272
 31
0.0
  0
LINE
  5
4E6
330
1B
100
AcDbEntity
 67
     1
  8
kiri
100
AcDbLine
 10
68.06948539089034
 20
100.5136863398272
 30
0.0
 11
30.0735686275417
 21
100.5136863398272
 31
0.0
  0
TEXT
  5
4E7
330
1B
100
AcDbEntity
 67
     1
  8
kiri
100
AcDbText
 10
127.4256201227448
 20
159.8909629321106
 30
0.0
 40
3.0
  1
Betoonkatusekivi
100
AcDbText
  0
TEXT
  5
4E8
330
1B
100
AcDbEntity
 67
     1
  8
kiri
100
AcDbText
 10
231.7814379538955
 20
160.7647629313285
 30
0.0
 40
3.0
  1
Pikiroov
100
AcDbText
  0
TEXT
  5
4E9
330
1B
100
AcDbEntity
 67
     1
  8
kiri
100
AcDbText
 10
207.8350865942329
 20
145.9517679659555
 30
0.0
 40
3.0
  1
Neeluplekitihend
100
AcDbText
  0
TEXT
  5
4EA
330
1B
100
AcDbEntity
 67
     1
  8
kiri
100
AcDbText
 10
158.7754960571443
 20
105.7305382073085
 30
0.0
 40
3.0
  1
Neeluplekk
100
AcDbText
  0
TEXT
  5
4EB
330
1B
100
AcDbEntity
 67
     1
  8
kiri
100
AcDbText
 10
225.5266489180924
 20
53.71104466458985
 30
0.0
 40
3.0
  1
Mittehingav aluskate
100
AcDbText
  0
TEXT
  5
4EC
330
1B
100
AcDbEntity
 67
     1
  8
kiri
100
AcDbText
 10
228.9944660808078
 20
49.65092129733324
 30
0.0
 40
3.0
  1
Spanflex Fleece
100
AcDbText
  0
TEXT
  5
4ED
330
1B
100
AcDbEntity
 67
     1
  8
kiri
100
AcDbText
 10
211.1840488732475
 20
43.02474011053965
 30
0.0
 40
3.0
  1
Aluslaudis
100
AcDbText
  0
TEXT
  5
4EE
330
1B
100
AcDbEntity
 67
     1
  8
kiri
100
AcDbText
 10
193.569342497154
 20
36.63864729689169
 30
0.0
 40
3.0
  1
Neelusarikas
100
AcDbText
  0
TEXT
  5
4EF
330
1B
100
AcDbEntity
 67
     1
  8
kiri
100
AcDbText
 10
116.9446573135594
 20
39.76426233259559
 30
0.0
 40
3.0
  1
Laudise alusklots
100
AcDbText
  0
TEXT
  5
4F0
330
1B
100
AcDbEntity
 67
     1
  8
kiri
100
AcDbText
 10
77.60000493227858
 20
46.68563447483603
 30
0.0
 40
3.0
  1
Sarikas
100
AcDbText
  0
TEXT
  5
4F1
330
1B
100
AcDbEntity
 67
     1
  8
kiri
100
AcDbText
 10
30.0735686275417
 20
100.5136863398272
 30
0.0
 40
3.0
  1
Tuulutusliist
100
AcDbText
  0
LINE
  5
4FC
330
1B
100
AcDbEntity
 67
     1
  8
kiri
100
AcDbLine
 10
225.5266489180924
 20
49.13700144354215
 30
0.0
 11
281.1006377970463
 21
49.13700144354215
 31
0.0
  0
MTEXT
  5
504
330
1B
100
AcDbEntity
 67
     1
  8
kiri
100
AcDbMText
 10
257.83605332724
 20
17.04331322125886
 30
0.0
 40
2.0
 41
29.0
 71
     1
 72
     5
  1
{\fArial|b0|i0|c186|p34;A4 paber}
 73
     1
 44
1.0
  0
ENDSEC
  0
SECTION
  2
OBJECTS
  0
DICTIONARY
  5
C
330
0
100
AcDbDictionary
281
     1
  3
ACAD_GROUP
350
D
  3
ACAD_IMAGE_DICT
350
31
  3
ACAD_IMAGE_VARS
350
33
  3
ACAD_LAYOUT
350
1A
  3
ACAD_MLINESTYLE
350
17
  3
ACAD_PLOTSETTINGS
350
19
  3
ACAD_PLOTSTYLENAME
350
E
  3
AcDbVariableDictionary
350
36
  0
DICTIONARY
  5
39
330
2
100
AcDbDictionary
280
     1
281
     1
  3
ACAD_LAYERFILTERS
360
3A
  3
ACAD_LAYERSTATES
360
28B
  0
IMAGEDEF_REACTOR
  5
4B3
330
4B4
100
AcDbRasterImageDefReactor
 90
        2
330
4B4
  0
DICTIONARY
  5
D
102
{ACAD_REACTORS
330
C
102
}
330
C
100
AcDbDictionary
281
     1
  0
DICTIONARY
  5
31
102
{ACAD_REACTORS
330
C
102
}
330
C
100
AcDbDictionary
281
     1
  3
5
350
4B2
  0
RASTERVARIABLES
  5
33
102
{ACAD_REACTORS
330
C
102
}
330
C
100
AcDbRasterVariables
 90
        0
 70
     1
 71
     1
 72
     1
  0
DICTIONARY
  5
1A
102
{ACAD_REACTORS
330
C
102
}
330
C
100
AcDbDictionary
281
     1
  3
A4
350
1E
  3
Model
350
22
  0
DICTIONARY
  5
17
102
{ACAD_REACTORS
330
C
102
}
330
C
100
AcDbDictionary
281
     1
  3
Standard
350
18
  0
DICTIONARY
  5
19
102
{ACAD_REACTORS
330
C
102
}
330
C
100
AcDbDictionary
281
     1
  0
ACDBDICTIONARYWDFLT
  5
E
102
{ACAD_REACTORS
330
C
102
}
330
C
100
AcDbDictionary
281
     1
  3
Normal
350
F
100
AcDbDictionaryWithDefault
340
F
  0
DICTIONARY
  5
36
102
{ACAD_REACTORS
330
C
102
}
330
C
100
AcDbDictionary
281
     1
  3
DIMASSOC
350
38
  3
HIDETEXT
350
37
  0
DICTIONARY
  5
3A
102
{ACAD_REACTORS
330
39
102
}
330
39
100
AcDbDictionary
280
     1
281
     1
  3
# Arhitektuur
360
3B
  3
# Asend
360
3C
  3
# Asendiplaan
360
3D
  3
# Elekter
360
3E
  3
# Kõik kihid
360
3F
  3
# Küte-vent
360
40
  3
# Planeering
360
41
  3
# Sisekujundus
360
42
  3
# Soojus
360
43
  3
# Tehnoloogia
360
44
  3
# Topo
360
45
  3
# Topo-geodeesia
360
46
  3
# Tugiplaan
360
47
  3
# Vertikaal-teed
360
48
  3
# Vesi-kanal
360
49
  3
$$$
360
4A
  3
$F-
360
4B
  3
-
360
4C
  3
-------
360
4D
  3
-50
360
4E
  3
-_
360
4F
  3
-p
360
50
  3
0
360
51
  3
000
360
52
  3
009
360
53
  3
00_
360
54
  3
01
360
55
  3
013
360
56
  3
018
360
57
  3
02
360
58
  3
025
360
59
  3
030
360
5A
  3
032
360
5B
  3
032G
360
5C
  3
035
360
5D
  3
050
360
5E
  3
070
360
5F
  3
0_
360
60
  3
0aikstas
360
61
  3
0k
360
62
  3
0korrus
360
63
  3
1
360
64
  3
1 GA
360
65
  3
1 korrus
360
66
  3
1-
360
67
  3
100
360
68
  3
120
360
69
  3
121
360
6A
  3
1343
360
6B
  3
1784
360
6C
  3
1784frst
360
6D
  3
1784frst$0$
360
6E
  3
1784sec5
360
6F
  3
1947
360
70
  3
1aukstas
360
71
  3
1GRID
360
72
  3
1k
360
73
  3
1korrus
360
74
  3
1puse
360
75
  3
1V
360
76
  3
2
360
77
  3
2 KORRUS
360
78
  3
2 SPACE PLAN
360
79
  3
200
360
7A
  3
218
360
7B
  3
220g
360
7C
  3
250
360
7D
  3
2AUKSTAS
360
7E
  3
2d
360
7F
  3
2DPLAN
360
80
  3
2k
360
81
  3
2puse
360
82
  3
3 CEILING
360
83
  3
300
360
84
  3
300-1
360
85
  3
3845-000
360
86
  3
4
360
87
  3
4 ELECTRIC
360
88
  3
4021
360
89
  3
5 DEMO
360
8A
  3
6 LAYER 1
360
8B
  3
7 LAYER 2
360
8C
  3
720
360
8D
  3
720g
360
8E
  3
8
360
8F
  3
9
360
90
  3
96
360
91
  3
_4021
360
92
  3
__E1
360
93
  3
__E2
360
94
  3
__E3
360
95
  3
__E6
360
96
  3
_all
360
97
  3
_arch
360
98
  3
_AXIS
360
99
  3
_BORT
360
9A
  3
_BR
360
9B
  3
_Building 3
360
9C
  3
_color6
360
9D
  3
_DIM
360
9E
  3
_External Works
360
9F
  3
_first
360
A0
  3
_First Floor
360
A1
  3
_ground
360
A2
  3
_Ground Floor
360
A3
  3
_h
360
A4
  3
_Hatching
360
A5
  3
_KOORD
360
A6
  3
_New
360
A7
  3
_OP
360
A8
  3
_OP14
360
A9
  3
_OP15
360
AA
  3
_OP6
360
AB
  3
_PARK
360
AC
  3
_PARK4
360
AD
  3
_PIKET
360
AE
  3
_PS
360
AF
  3
_Removed
360
B0
  3
_roof
360
B1
  3
_SECTION
360
B2
  3
_SOL
360
B3
  3
_SUP
360
B4
  3
_Text
360
B5
  3
_WIN
360
B6
  3
_Without text
360
B7
  3
A
360
B8
  3
A layers
360
B9
  3
a-
360
BA
  3
A-12101
360
BB
  3
A0-FRAME
360
BC
  3
A000D
360
BD
  3
A032G
360
BE
  3
a2
360
BF
  3
a210h
360
C0
  3
a210h-50
360
C1
  3
a3
360
C2
  3
a9
360
C3
  3
AA
360
C4
  3
aadressid
360
C5
  3
adler
360
C6
  3
AJUTINE
360
C7
  3
ALEV07
360
C8
  3
ALL
360
C9
  3
all on
360
CA
  3
alles met_
360
CB
  3
ALLTEXT
360
CC
  3
ANGARS
360
CD
  3
Antras
360
CE
  3
AR
360
CF
  3
ar_bwl
360
D0
  3
ar_grd
360
D1
  3
AR_GRID
360
D2
  3
arch
360
D3
  3
Architecture
360
D4
  3
AREA
360
D5
  3
Arhitecture
360
D6
  3
ARM
360
D7
  3
as
360
D8
  3
Asend
360
D9
  3
asendiplaan
360
DA
  3
AUDITORIA
360
DB
  3
ax
360
DC
  3
B
360
DD
  3
BACK BAR
360
DE
  3
BACKBAR
360
DF
  3
BANQ'S
360
E0
  3
BAR
360
E1
  3
bar-top
360
E2
  3
bb
360
E3
  3
BDPF5R
360
E4
  3
BENCH
360
E5
  3
BHWB
360
E6
  3
blue
360
E7
  3
BOUNARY
360
E8
  3
BOUNDARY
360
E9
  3
boundry-of
360
EA
  3
BUILDERS WORK
360
EB
  3
BUILDERS-WORK
360
EC
  3
BULKHEAD
360
ED
  3
BV-LEASE
360
EE
  3
bw
360
EF
  3
bzik
360
F0
  3
c
360
F1
  3
C-
360
F2
  3
C1
360
F3
  3
CANOPY
360
F4
  3
CART
360
F5
  3
CC
360
F6
  3
Ceiling
360
F7
  3
CEILING LAYOUT
360
F8
  3
CEILING PLAN
360
F9
  3
cfp layers
360
FA
  3
CLAD
360
FB
  3
coloour
360
FC
  3
colour
360
FD
  3
COLOURS
360
FE
  3
CONC
360
FF
  3
CONCR
360
100
  3
CONSERVITORY
360
101
  3
CORIAN
360
102
  3
cu dem
360
103
  3
cu s2
360
104
  3
cub
360
105
  3
CURRENT
360
106
  3
CURVED GLASS
360
107
  3
curved walkway
360
108
  3
CYAN
360
109
  3
D
360
10A
  3
D1
360
10B
  3
D_
360
10C
  3
dalaje
360
10D
  3
das
360
10E
  3
DAVE
360
10F
  3
demolition
360
110
  3
demolition work
360
111
  3
dfd
360
112
  3
dim
360
113
  3
dim11
360
114
  3
dim12
360
115
  3
Dimensions
360
116
  3
dims
360
117
  3
DN
360
118
  3
DOM
360
119
  3
Don't plot
360
11A
  3
DOOR
360
11B
  3
Drain
360
11C
  3
drains
360
11D
  3
DSD
360
11E
  3
Ductwork
360
11F
  3
E - LAYERS
360
120
  3
E1
360
121
  3
E2
360
122
  3
E3
360
123
  3
E4
360
124
  3
EDDIE
360
125
  3
EI PLOTI
360
126
  3
eiplo
360
127
  3
EIplot
360
128
  3
EKSEN
360
129
  3
ELEC
360
12A
  3
ELEVATION
360
12B
  3
elevations
360
12C
  3
endview
360
12D
  3
entrance
360
12E
  3
esam
360
12F
  3
et trykkida välja
360
130
  3
exg imported
360
131
  3
EXISTING
360
132
  3
F
360
133
  3
FEATURE
360
134
  3
FENCE
360
135
  3
FINISH
360
136
  3
finishes
360
137
  3
FINISHES PLAN
360
138
  3
FINISHES PLANS
360
139
  3
FIRE
360
13A
  3
FIRE PLAN
360
13B
  3
Fire strategy
360
13C
  3
FIRST FLOOR
360
13D
  3
First to Roof
360
13E
  3
FLAT GLASS
360
13F
  3
FLOOR
360
140
  3
FLOOR PLAN
360
141
  3
FR
360
142
  3
Fragment 2
360
143
  3
freeze
360
144
  3
FROS CUR VPORT
360
145
  3
FROZ
360
146
  3
FROZ CUR VPORT
360
147
  3
FROZ IN CURENT
360
148
  3
frozen
360
149
  3
frozen Layers
360
14A
  3
FRZ
360
14B
  3
Furniture
360
14C
  3
furntext
360
14D
  3
furntext1
360
14E
  3
furntext2
360
14F
  3
furntext3
360
150
  3
FY
360
151
  3
g
360
152
  3
GA
360
153
  3
ga plan
360
154
  3
GAMCO
360
155
  3
General
360
156
  3
geo
360
157
  3
geodeesia
360
158
  3
git
360
159
  3
GLASS
360
15A
  3
GLASS RACK
360
15B
  3
gondola
360
15C
  3
gp
360
15D
  3
gp- ära
360
15E
  3
GREEN
360
15F
  3
GREET
360
160
  3
grey
360
161
  3
grid
360
162
  3
GRID 0FF
360
163
  3
grids
360
164
  3
gridtext102
360
165
  3
grnd
360
166
  3
GROUND FLOOR
360
167
  3
Ground to First
360
168
  3
Ground to Roof
360
169
  3
HAIRDRESSER
360
16A
  3
haljastus
360
16B
  3
hand
360
16C
  3
HARDWARE
360
16D
  3
HAT
360
16E
  3
hatch
360
16F
  3
hatch-off
360
170
  3
hoonestuskava
360
171
  3
HVAC
360
172
  3
iden
360
173
  3
INDICATE THICK LINE OF BULKHEAD
360
174
  3
insulation
360
175
  3
jack
360
176
  3
JBHGVHG
360
177
  3
JETO
360
178
  3
jhd
360
179
  3
John-Harrison
360
17A
  3
JOINERE SETTING OUT
360
17B
  3
KASUTUSEL
360
17C
  3
katus
360
17D
  3
KATUSEPLAAN
360
17E
  3
KAYDIRAKLAR
360
17F
  3
kaylar
360
180
  3
KENARLAR
360
181
  3
kiitoks
360
182
  3
KINNI
360
183
  3
KIRJANURK
360
184
  3
kitas
360
185
  3
KITCHEN
360
186
  3
KITCHEN PLAN
360
187
  3
KITCHEN SETTING OUT
360
188
  3
KONSOLLAR
360
189
  3
Koondvõrk
360
18A
  3
koord
360
18B
  3
kr
360
18C
  3
L
360
18D
  3
LABIEKARTOJUMS
360
18E
  3
LAHTI
360
18F
  3
Layer off
360
190
  3
LIBRARY
360
191
  3
licencing
360
192
  3
lift
360
193
  3
LIGHT
360
194
  3
Lighting
360
195
  3
liik
360
196
  3
LINII
360
197
  3
lk
360
198
  3
LOBBY
360
199
  3
LOBBY AND OFFICE
360
19A
  3
LOCK
360
19B
  3
locked
360
19C
  3
LUKKU
360
19D
  3
LÕIGE
360
19E
  3
M1
360
19F
  3
magenta
360
1A0
  3
Magna2000
360
1A1
  3
MDM1
360
1A2
  3
mech
360
1A3
  3
MECHANICAL
360
1A4
  3
MEMBRANE
360
1A5
  3
moje
360
1A6
  3
N
360
1A7
  3
N_
360
1A8
  3
ncw
360
1A9
  3
NERO
360
1AA
  3
No Nums
360
1AB
  3
nofurn
360
1AC
  3
nofurn1
360
1AD
  3
nofurn2
360
1AE
  3
NON XREF DEPENDANTS
360
1AF
  3
Nosuc
360
1B0
  3
npl
360
1B1
  3
nurgapu
360
1B2
  3
nõrkvool
360
1B3
  3
off
360
1B4
  3
OFFICE
360
1B5
  3
OFFICE FIRST FLOOR
360
1B6
  3
on
360
1B7
  3
on and thawed
360
1B8
  3
onlayers
360
1B9
  3
OP1
360
1BA
  3
OP2
360
1BB
  3
option 1
360
1BC
  3
option 2
360
1BD
  3
Option1
360
1BE
  3
option4
360
1BF
  3
Option5
360
1C0
  3
ORIGINAL
360
1C1
  3
out
360
1C2
  3
Outer
360
1C3
  3
outline
360
1C4
  3
P
360
1C5
  3
P - LAYERS
360
1C6
  3
P _
360
1C7
  3
P-LAYERS
360
1C8
  3
PH
360
1C9
  3
phase 1
360
1CA
  3
PHEALTH
360
1CB
  3
PHIL
360
1CC
  3
Piepl
360
1CD
  3
PIPE
360
1CE
  3
pipes
360
1CF
  3
Pipes1
360
1D0
  3
Pipework
360
1D1
  3
pirmas
360
1D2
  3
PIZZA
360
1D3
  3
pk 2d-plan
360
1D4
  3
pl
360
1D5
  3
PL1
360
1D6
  3
PLAKALAR
360
1D7
  3
planas
360
1D8
  3
PLINTH
360
1D9
  3
PLINTHS
360
1DA
  3
PLO
360
1DB
  3
plot
360
1DC
  3
plumbing
360
1DD
  3
PN
360
1DE
  3
PN_N
360
1DF
  3
PN_P
360
1E0
  3
porch
360
1E1
  3
Power
360
1E2
  3
PR
360
1E3
  3
PR-TRASSID
360
1E4
  3
prep
360
1E5
  3
primary
360
1E6
  3
proj
360
1E7
  3
proj-trassid
360
1E8
  3
PROP
360
1E9
  3
prop builders work
360
1EA
  3
proposed
360
1EB
  3
ps
360
1EC
  3
PU
360
1ED
  3
qq
360
1EE
  3
r
360
1EF
  3
R0
360
1F0
  3
R1
360
1F1
  3
R2
360
1F2
  3
R3
360
1F3
  3
rack
360
1F4
  3
RCP
360
1F5
  3
RED
360
1F6
  3
reds
360
1F7
  3
ref ceiling
360
1F8
  3
ref ceiling 1
360
1F9
  3
REFLECTED CEILING PLAN
360
1FA
  3
REI ainult
360
1FB
  3
RELECTED CEILING PLAN 012
360
1FC
  3
REST
360
1FD
  3
restaurant
360
1FE
  3
rev
360
1FF
  3
Revs
360
200
  3
ROHELINE
360
201
  3
ROOFLIGHT
360
202
  3
rsfl
360
203
  3
s
360
204
  3
S - LAYERS
360
205
  3
s 1
360
206
  3
saldymas
360
207
  3
san
360
208
  3
SANDSTONE
360
209
  3
sanitary
360
20A
  3
SCALE 100 TEXT
360
20B
  3
SCALE 200 TEXT
360
20C
  3
SCALE 50 TEXT
360
20D
  3
screed plan
360
20E
  3
SEC
360
20F
  3
secondary
360
210
  3
section
360
211
  3
SELF SERVICE
360
212
  3
servery
360
213
  3
SERVICES
360
214
  3
SF
360
215
  3
shadow
360
216
  3
shadow-off
360
217
  3
SHELF
360
218
  3
SHELVES
360
219
  3
shema
360
21A
  3
sienos
360
21B
  3
SIGNAGE
360
21C
  3
SINBLU
360
21D
  3
Sinergy
360
21E
  3
SININE
360
21F
  3
SININE1
360
220
  3
SIT
360
221
  3
SITE
360
222
  3
siyah
360
223
  3
skersinis
360
224
  3
solid
360
225
  3
solid fills
360
226
  3
SPIRAL
360
227
  3
SPOTLIGHTS
360
228
  3
stairs
360
229
  3
standard
360
22A
  3
stoły
360
22B
  3
Stru
360
22C
  3
Structure
360
22D
  3
STRUT
360
22E
  3
STUBS
360
22F
  3
SUFLATORI
360
230
  3
surv
360
231
  3
SURVEY
360
232
  3
Susanne
360
233
  3
SWEET
360
234
  3
SYNERGY
360
235
  3
T1
360
236
  3
TABLE
360
237
  3
tags
360
238
  3
TEACH
360
239
  3
test
360
23A
  3
TEXT
360
23B
  3
TH
360
23C
  3
thaw
360
23D
  3
thawed
360
23E
  3
THP
360
23F
  3
tjp
360
240
  3
tone
360
241
  3
TOP
360
242
  3
Topo
360
243
  3
tr
360
244
  3
trassid
360
245
  3
trassid-txt
360
246
  3
tree
360
247
  3
tu_
360
248
  3
Tugiplaan
360
249
  3
txt
360
24A
  3
UFR
360
24B
  3
UNITA
360
24C
  3
UNITB
360
24D
  3
UNITC
360
24E
  3
UP
360
24F
  3
UPLO
360
250
  3
upper
360
251
  3
uus
360
252
  3
v31
360
253
  3
VAADE
360
254
  3
Valgus
360
255
  3
varem-proj-trassid
360
256
  3
Vertikaal
360
257
  3
vertikalinis
360
258
  3
viewports
360
259
  3
VK
360
25A
  3
vor
360
25B
  3
vormistus
360
25C
  3
vpl
360
25D
  3
VS_01
360
25E
  3
VS_02
360
25F
  3
VS_03
360
260
  3
VS_04
360
261
  3
VS_05
360
262
  3
VS_06
360
263
  3
VS_07
360
264
  3
VS_08
360
265
  3
VS_09
360
266
  3
VS_10
360
267
  3
VS_11
360
268
  3
VS_12
360
269
  3
VS_13
360
26A
  3
VS_14
360
26B
  3
VS_15
360
26C
  3
VS_16
360
26D
  3
VS_17
360
26E
  3
VS_18
360
26F
  3
VS_19
360
270
  3
VS_20
360
271
  3
W
360
272
  3
W.M.T.
360
273
  3
WADE
360
274
  3
waiter
360
275
  3
WALL
360
276
  3
Walls
360
277
  3
white
360
278
  3
white color
360
279
  3
whs-zebra-issue
360
27A
  3
window
360
27B
  3
WINEBIN
360
27C
  3
winebins
360
27D
  3
WORK
360
27E
  3
X
360
27F
  3
xerf
360
280
  3
XREF
360
281
  3
xref-of
360
282
  3
XREFID
360
283
  3
YARDIMLAR
360
284
  3
YUZEYLER
360
285
  0
DICTIONARY
  5
28B
102
{ACAD_REACTORS
330
39
102
}
330
39
100
AcDbDictionary
281
     1
  0
IMAGEDEF
  5
4B2
102
{ACAD_REACTORS
330
31
330
4B3
102
}
330
31
100
AcDbRasterImageDef
 90
        0
  1
E:\est\PILDID\5.JPG
 10
4096.0
 20
3320.0
 11
0.000244140625
 21
0.000244140625
280
     1
281
     0
  0
LAYOUT
  5
1E
102
{ACAD_REACTORS
330
1A
102
}
330
1A
100
AcDbPlotSettings
  1

  2
CutePDF Writer
  4
A4
  6

 40
3.174999952316284
 41
3.174999952316284
 42
3.175003051757812
 43
3.17498779296875
 44
209.8886566162109
 45
297.0530090332031
 46
0.0
 47
0.0
 48
0.0
 49
0.0
140
0.0
141
0.0
142
1.0
143
1.0
 70
   688
 72
     1
 73
     1
 74
     5
  7
monochrome.ctb
 75
    16
147
1.0
148
0.0
149
0.0
100
AcDbLayout
  1
A4
 70
     1
 71
     1
 10
-3.17498779296875
 20
-3.174999952316284
 11
293.8780212402343
 21
206.7136566638946
 12
0.0
 22
0.0
 32
0.0
 14
3.818921490455977
 24
3.944484243049316
 34
-0.0015258207003583
 15
286.8387866479656
 25
199.9464645874804
 35
0.0000000349246037
146
0.0
 13
0.0
 23
0.0
 33
0.0
 16
1.0
 26
0.0
 36
0.0
 17
0.0
 27
1.0
 37
0.0
 76
     0
330
1B
331
2E
  0
LAYOUT
  5
22
102
{ACAD_REACTORS
330
1A
102
}
330
1A
100
AcDbPlotSettings
  1

  2
CutePDF Writer
  4
Letter
  6

 40
3.174999952316284
 41
3.174999952316284
 42
3.175003051757812
 43
3.17498779296875
 44
215.8999938964843
 45
279.3999938964843
 46
0.0
 47
0.0
 48
0.0
 49
0.0
140
0.0
141
0.0
142
1.0
143
1.0
 70
 11952
 72
     1
 73
     1
 74
     0
  7
monochrome.ctb
 75
     0
147
1.0
148
-346.9289663840376
149
-109.4985056557439
100
AcDbLayout
  1
Model
 70
     1
 71
     0
 10
0.0
 20
0.0
 11
12.0
 21
9.0
 12
0.0
 22
0.0
 32
0.0
 14
0.0
 24
0.0
 34
0.0
 15
0.0
 25
0.0
 35
0.0
146
0.0
 13
0.0
 23
0.0
 33
0.0
 16
1.0
 26
0.0
 36
0.0
 17
0.0
 27
1.0
 37
0.0
 76
     0
330
1F
  0
MLINESTYLE
  5
18
102
{ACAD_REACTORS
330
17
102
}
330
17
100
AcDbMlineStyle
  2
STANDARD
 70
     0
  3

 62
   256
 51
90.0
 52
90.0
 71
     2
 49
0.5
 62
   256
  6
BYLAYER
 49
-0.5
 62
   256
  6
BYLAYER
  0
ACDBPLACEHOLDER
  5
F
102
{ACAD_REACTORS
330
E
102
}
330
E
  0
DICTIONARYVAR
  5
38
102
{ACAD_REACTORS
330
36
102
}
330
36
100
DictionaryVariables
280
     0
  1
2
  0
DICTIONARYVAR
  5
37
102
{ACAD_REACTORS
330
36
102
}
330
36
100
DictionaryVariables
280
     0
  1
1
  0
XRECORD
  5
3B
102
{ACAD_REACTORS
330
3A
102
}
330
3A
100
AcDbXrecord
280
     1
  1
# Arhitektuur
  1
Ar*
  1
*
  1
*
 70
     0
  1
*
  1
*
  0
XRECORD
  5
3C
102
{ACAD_REACTORS
330
3A
102
}
330
3A
100
AcDbXrecord
280
     1
  1
# Asend
  1
GP*
  1
*
  1
*
 70
     0
  1
*
  1
*
  0
XRECORD
  5
3D
102
{ACAD_REACTORS
330
3A
102
}
330
3A
100
AcDbXrecord
280
     1
  1
# Asendiplaan
  1
GP*
  1
*
  1
*
 70
     0
  1
*
  1
*
  0
XRECORD
  5
3E
102
{ACAD_REACTORS
330
3A
102
}
330
3A
100
AcDbXrecord
280
     1
  1
# Elekter
  1
El*
  1
*
  1
*
 70
     0
  1
*
  1
*
  0
XRECORD
  5
3F
102
{ACAD_REACTORS
330
3A
102
}
330
3A
100
AcDbXrecord
280
     1
  1
# Kõik kihid
  1
*
  1
*
  1
*
 70
     0
  1
*
  1
*
  0
XRECORD
  5
40
102
{ACAD_REACTORS
330
3A
102
}
330
3A
100
AcDbXrecord
280
     1
  1
# Küte-vent
  1
KV*
  1
*
  1
*
 70
     0
  1
*
  1
*
  0
XRECORD
  5
41
102
{ACAD_REACTORS
330
3A
102
}
330
3A
100
AcDbXrecord
280
     1
  1
# Planeering
  1
*
  1
*
  1
*
 70
     0
  1
*
  1
*
  0
XRECORD
  5
42
102
{ACAD_REACTORS
330
3A
102
}
330
3A
100
AcDbXrecord
280
     1
  1
# Sisekujundus
  1
As*
  1
*
  1
*
 70
     1
  1
*
  1
*
  0
XRECORD
  5
43
102
{ACAD_REACTORS
330
3A
102
}
330
3A
100
AcDbXrecord
280
     1
  1
# Soojus
  1
SV*
  1
*
  1
*
 70
     0
  1
*
  1
*
  0
XRECORD
  5
44
102
{ACAD_REACTORS
330
3A
102
}
330
3A
100
AcDbXrecord
280
     1
  1
# Tehnoloogia
  1
Th*
  1
*
  1
*
 70
     1
  1
*
  1
*
  0
XRECORD
  5
45
102
{ACAD_REACTORS
330
3A
102
}
330
3A
100
AcDbXrecord
280
     1
  1
# Topo
  1
TG*
  1
*
  1
*
 70
     0
  1
*
  1
*
  0
XRECORD
  5
46
102
{ACAD_REACTORS
330
3A
102
}
330
3A
100
AcDbXrecord
280
     1
  1
# Topo-geodeesia
  1
Tg-*
  1
*
  1
*
 70
     1
  1
*
  1
*
  0
XRECORD
  5
47
102
{ACAD_REACTORS
330
3A
102
}
330
3A
100
AcDbXrecord
280
     1
  1
# Tugiplaan
  1
*
  1
*
  1
*
 70
     0
  1
*
  1
*
  0
XRECORD
  5
48
102
{ACAD_REACTORS
330
3A
102
}
330
3A
100
AcDbXrecord
280
     1
  1
# Vertikaal-teed
  1
VP*
  1
*
  1
*
 70
     0
  1
*
  1
*
  0
XRECORD
  5
49
102
{ACAD_REACTORS
330
3A
102
}
330
3A
100
AcDbXrecord
280
     1
  1
# Vesi-kanal
  1
VK*
  1
*
  1
*
 70
     1
  1
*
  1
*
  0
XRECORD
  5
4A
102
{ACAD_REACTORS
330
3A
102
}
330
3A
100
AcDbXrecord
280
     1
  1
$$$
  1
###
  1
*
  1
*
 70
     0
  1
*
  1
*
  0
XRECORD
  5
4B
102
{ACAD_REACTORS
330
3A
102
}
330
3A
100
AcDbXrecord
280
     1
  1
$F-
  1
option4*
  1
*
  1
*
 70
     0
  1
*
  1
*
  0
XRECORD
  5
4C
102
{ACAD_REACTORS
330
3A
102
}
330
3A
100
AcDbXrecord
280
     1
  1
-
  1
-*
  1
*
  1
*
 70
     0
  1
*
  1
*
  0
XRECORD
  5
4D
102
{ACAD_REACTORS
330
3A
102
}
330
3A
100
AcDbXrecord
280
     1
  1
-------
  1
-*
  1
*
  1
*
 70
     0
  1
*
  1
*
  0
XRECORD
  5
4E
102
{ACAD_REACTORS
330
3A
102
}
330
3A
100
AcDbXrecord
280
     1
  1
-50
  1
*-50
  1
*
  1
*
 70
     0
  1
*
  1
*
  0
XRECORD
  5
4F
102
{ACAD_REACTORS
330
3A
102
}
330
3A
100
AcDbXrecord
280
     1
  1
-_
  1
-_*
  1
*
  1
*
 70
     0
  1
*
  1
*
  0
XRECORD
  5
50
102
{ACAD_REACTORS
330
3A
102
}
330
3A
100
AcDbXrecord
280
     1
  1
-p
  1
*-p*
  1
*
  1
*
 70
     0
  1
*
  1
*
  0
XRECORD
  5
51
102
{ACAD_REACTORS
330
3A
102
}
330
3A
100
AcDbXrecord
280
     1
  1
0
  1
0*
  1
*
  1
*
 70
     0
  1
*
  1
*
  0
XRECORD
  5
52
102
{ACAD_REACTORS
330
3A
102
}
330
3A
100
AcDbXrecord
280
     1
  1
000
  1
*000
  1
*
  1
*
 70
     0
  1
*
  1
*
  0
XRECORD
  5
53
102
{ACAD_REACTORS
330
3A
102
}
330
3A
100
AcDbXrecord
280
     1
  1
009
  1
*009
  1
*
  1
*
 70
     0
  1
*
  1
*
  0
XRECORD
  5
54
102
{ACAD_REACTORS
330
3A
102
}
330
3A
100
AcDbXrecord
280
     1
  1
00_
  1
00_*
  1
*
  1
*
 70
     0
  1
*
  1
*
  0
XRECORD
  5
55
102
{ACAD_REACTORS
330
3A
102
}
330
3A
100
AcDbXrecord
280
     1
  1
01
  1
*01*
  1
*
  1
*
 70
     0
  1
*
  1
*
  0
XRECORD
  5
56
102
{ACAD_REACTORS
330
3A
102
}
330
3A
100
AcDbXrecord
280
     1
  1
013
  1
*013
  1
*
  1
*
 70
     0
  1
*
  1
*
  0
XRECORD
  5
57
102
{ACAD_REACTORS
330
3A
102
}
330
3A
100
AcDbXrecord
280
     1
  1
018
  1
*018
  1
*
  1
*
 70
     0
  1
*
  1
*
  0
XRECORD
  5
58
102
{ACAD_REACTORS
330
3A
102
}
330
3A
100
AcDbXrecord
280
     1
  1
02
  1
*02*
  1
*
  1
*
 70
     0
  1
*
  1
*
  0
XRECORD
  5
59
102
{ACAD_REACTORS
330
3A
102
}
330
3A
100
AcDbXrecord
280
     1
  1
025
  1
*025
  1
*
  1
*
 70
     0
  1
*
  1
*
  0
XRECORD
  5
5A
102
{ACAD_REACTORS
330
3A
102
}
330
3A
100
AcDbXrecord
280
     1
  1
030
  1
a03*
  1
*
  1
*
 70
     0
  1
*
  1
*
  0
XRECORD
  5
5B
102
{ACAD_REACTORS
330
3A
102
}
330
3A
100
AcDbXrecord
280
     1
  1
032
  1
*032*
  1
*
  1
*
 70
     0
  1
*
  1
*
  0
XRECORD
  5
5C
102
{ACAD_REACTORS
330
3A
102
}
330
3A
100
AcDbXrecord
280
     1
  1
032G
  1
*032G*
  1
*
  1
*
 70
     0
  1
*
  1
*
  0
XRECORD
  5
5D
102
{ACAD_REACTORS
330
3A
102
}
330
3A
100
AcDbXrecord
280
     1
  1
035
  1
*035
  1
*
  1
*
 70
     0
  1
*
  1
*
  0
XRECORD
  5
5E
102
{ACAD_REACTORS
330
3A
102
}
330
3A
100
AcDbXrecord
280
     1
  1
050
  1
*050
  1
*
  1
*
 70
     0
  1
*
  1
*
  0
XRECORD
  5
5F
102
{ACAD_REACTORS
330
3A
102
}
330
3A
100
AcDbXrecord
280
     1
  1
070
  1
*070
  1
*
  1
*
 70
     0
  1
*
  1
*
  0
XRECORD
  5
60
102
{ACAD_REACTORS
330
3A
102
}
330
3A
100
AcDbXrecord
280
     1
  1
0_
  1
0_*
  1
*
  1
*
 70
     0
  1
*
  1
*
  0
XRECORD
  5
61
102
{ACAD_REACTORS
330
3A
102
}
330
3A
100
AcDbXrecord
280
     1
  1
0aikstas
  1
*0a*,ASYS,*Tar*
  1
*
  1
*
 70
     0
  1
*
  1
*
  0
XRECORD
  5
62
102
{ACAD_REACTORS
330
3A
102
}
330
3A
100
AcDbXrecord
280
     1
  1
0k
  1
0k*
  1
*
  1
*
 70
     0
  1
*
  1
*
  0
XRECORD
  5
63
102
{ACAD_REACTORS
330
3A
102
}
330
3A
100
AcDbXrecord
280
     1
  1
0korrus
  1
0k *
  1
*
  1
*
 70
     0
  1
*
  1
*
  0
XRECORD
  5
64
102
{ACAD_REACTORS
330
3A
102
}
330
3A
100
AcDbXrecord
280
     1
  1
1
  1
1aPlonos,1aSiena
  1
*
  1
*
 70
     0
  1
*
  1
*
  0
XRECORD
  5
65
102
{ACAD_REACTORS
330
3A
102
}
330
3A
100
AcDbXrecord
280
     1
  1
1 GA
  1
??????_G??????
  1
*
  1
*
 70
     0
  1
*
  1
*
  0
XRECORD
  5
66
102
{ACAD_REACTORS
330
3A
102
}
330
3A
100
AcDbXrecord
280
     1
  1
1 korrus
  1
0k *
  1
*
  1
*
 70
  3415
  1
*
  1
*
  0
XRECORD
  5
67
102
{ACAD_REACTORS
330
3A
102
}
330
3A
100
AcDbXrecord
280
     1
  1
1-
  1
elec
  1
*
  1
*
 70
     0
  1
*
  1
*
  0
XRECORD
  5
68
102
{ACAD_REACTORS
330
3A
102
}
330
3A
100
AcDbXrecord
280
     1
  1
100
  1
*
  1
*
  1
*
 70
     0
  1
*
  1
*
  0
XRECORD
  5
69
102
{ACAD_REACTORS
330
3A
102
}
330
3A
100
AcDbXrecord
280
     1
  1
120
  1
*|*
  1
*
  1
*
 70
     0
  1
*
  1
*
  0
XRECORD
  5
6A
102
{ACAD_REACTORS
330
3A
102
}
330
3A
100
AcDbXrecord
280
     1
  1
121
  1
*
  1
*
  1
*
 70
    16
  1
*
  1
*
  0
XRECORD
  5
6B
102
{ACAD_REACTORS
330
3A
102
}
330
3A
100
AcDbXrecord
280
     1
  1
1343
  1
1343-*
  1
*
  1
*
 70
     0
  1
*
  1
*
  0
XRECORD
  5
6C
102
{ACAD_REACTORS
330
3A
102
}
330
3A
100
AcDbXrecord
280
     1
  1
1784
  1
1784*
  1
*
  1
*
 70
     0
  1
*
  1
*
  0
XRECORD
  5
6D
102
{ACAD_REACTORS
330
3A
102
}
330
3A
100
AcDbXrecord
280
     1
  1
1784frst
  1
*
  1
*
  1
*
 70
     0
  1
*
  1
*
  0
XRECORD
  5
6E
102
{ACAD_REACTORS
330
3A
102
}
330
3A
100
AcDbXrecord
280
     1
  1
1784frst$0$
  1
1784frst$0$*
  1
*
  1
*
 70
     0
  1
*
  1
*
  0
XRECORD
  5
6F
102
{ACAD_REACTORS
330
3A
102
}
330
3A
100
AcDbXrecord
280
     1
  1
1784sec5
  1
1784sec5*
  1
*
  1
*
 70
     0
  1
*
  1
*
  0
XRECORD
  5
70
102
{ACAD_REACTORS
330
3A
102
}
330
3A
100
AcDbXrecord
280
     1
  1
1947
  1
1947*
  1
*
  1
*
 70
     0
  1
*
  1
*
  0
XRECORD
  5
71
102
{ACAD_REACTORS
330
3A
102
}
330
3A
100
AcDbXrecord
280
     1
  1
1aukstas
  1
*1a*,ASYS,*Tar*
  1
*
  1
*
 70
     0
  1
*
  1
*
  0
XRECORD
  5
72
102
{ACAD_REACTORS
330
3A
102
}
330
3A
100
AcDbXrecord
280
     1
  1
1GRID
  1
*
  1
*
  1
*
 70
    16
  1
*
  1
*
  0
XRECORD
  5
73
102
{ACAD_REACTORS
330
3A
102
}
330
3A
100
AcDbXrecord
280
     1
  1
1k
  1
1k*
  1
*
  1
*
 70
     0
  1
*
  1
*
  0
XRECORD
  5
74
102
{ACAD_REACTORS
330
3A
102
}
330
3A
100
AcDbXrecord
280
     1
  1
1korrus
  1
1k*
  1
*
  1
*
 70
     0
  1
*
  1
*
  0
XRECORD
  5
75
102
{ACAD_REACTORS
330
3A
102
}
330
3A
100
AcDbXrecord
280
     1
  1
1puse
  1
1_6*
  1
*
  1
*
 70
     0
  1
*
  1
*
  0
XRECORD
  5
76
102
{ACAD_REACTORS
330
3A
102
}
330
3A
100
AcDbXrecord
280
     1
  1
1V
  1
*
  1
*
  1
*
 70
     4
  1
*
  1
*
  0
XRECORD
  5
77
102
{ACAD_REACTORS
330
3A
102
}
330
3A
100
AcDbXrecord
280
     1
  1
2
  1
2*
  1
*
  1
*
 70
     0
  1
*
  1
*
  0
XRECORD
  5
78
102
{ACAD_REACTORS
330
3A
102
}
330
3A
100
AcDbXrecord
280
     1
  1
2 KORRUS
  1
2K *
  1
*
  1
*
 70
     0
  1
*
  1
*
  0
XRECORD
  5
79
102
{ACAD_REACTORS
330
3A
102
}
330
3A
100
AcDbXrecord
280
     1
  1
2 SPACE PLAN
  1
??????_?S?????
  1
*
  1
*
 70
     0
  1
*
  1
*
  0
XRECORD
  5
7A
102
{ACAD_REACTORS
330
3A
102
}
330
3A
100
AcDbXrecord
280
     1
  1
200
  1
*
  1
*
  1
*
 70
    16
  1
*
  1
*
  0
XRECORD
  5
7B
102
{ACAD_REACTORS
330
3A
102
}
330
3A
100
AcDbXrecord
280
     1
  1
218
  1
*218*
  1
*
  1
*
 70
     0
  1
*
  1
*
  0
XRECORD
  5
7C
102
{ACAD_REACTORS
330
3A
102
}
330
3A
100
AcDbXrecord
280
     1
  1
220g
  1
*220*
  1
*
  1
*
 70
     0
  1
*
  1
*
  0
XRECORD
  5
7D
102
{ACAD_REACTORS
330
3A
102
}
330
3A
100
AcDbXrecord
280
     1
  1
250
  1
*
  1
*
  1
*
 70
    16
  1
*
  1
*
  0
XRECORD
  5
7E
102
{ACAD_REACTORS
330
3A
102
}
330
3A
100
AcDbXrecord
280
     1
  1
2AUKSTAS
  1
*2a*,ASYS,*Tar*
  1
*
  1
*
 70
     0
  1
*
  1
*
  0
XRECORD
  5
7F
102
{ACAD_REACTORS
330
3A
102
}
330
3A
100
AcDbXrecord
280
     1
  1
2d
  1
*
  1
*
  1
*
 70
  3072
  1
*
  1
*
  0
XRECORD
  5
80
102
{ACAD_REACTORS
330
3A
102
}
330
3A
100
AcDbXrecord
280
     1
  1
2DPLAN
  1
2D*
  1
*
  1
*
 70
     0
  1
*
  1
*
  0
XRECORD
  5
81
102
{ACAD_REACTORS
330
3A
102
}
330
3A
100
AcDbXrecord
280
     1
  1
2k
  1
2k*
  1
*
  1
*
 70
     0
  1
*
  1
*
  0
XRECORD
  5
82
102
{ACAD_REACTORS
330
3A
102
}
330
3A
100
AcDbXrecord
280
     1
  1
2puse
  1
11*
  1
*
  1
*
 70
     0
  1
*
  1
*
  0
XRECORD
  5
83
102
{ACAD_REACTORS
330
3A
102
}
330
3A
100
AcDbXrecord
280
     1
  1
3 CEILING
  1
??????_??C????
  1
*
  1
*
 70
     0
  1
*
  1
*
  0
XRECORD
  5
84
102
{ACAD_REACTORS
330
3A
102
}
330
3A
100
AcDbXrecord
280
     1
  1
300
  1
*
  1
*
  1
*
 70
    16
  1
*
  1
*
  0
XRECORD
  5
85
102
{ACAD_REACTORS
330
3A
102
}
330
3A
100
AcDbXrecord
280
     1
  1
300-1
  1
*
  1
*
  1
*
 70
    16
  1
*
  1
*
  0
XRECORD
  5
86
102
{ACAD_REACTORS
330
3A
102
}
330
3A
100
AcDbXrecord
280
     1
  1
3845-000
  1
22-external-walls----------------------------------------
  1
*
  1
*
 70
     1
  1
*
  1
*
  0
XRECORD
  5
87
102
{ACAD_REACTORS
330
3A
102
}
330
3A
100
AcDbXrecord
280
     1
  1
4
  1
*521*
  1
*
  1
*
 70
     0
  1
*
  1
*
  0
XRECORD
  5
88
102
{ACAD_REACTORS
330
3A
102
}
330
3A
100
AcDbXrecord
280
     1
  1
4 ELECTRIC
  1
??????_???E???
  1
*
  1
*
 70
     0
  1
*
  1
*
  0
XRECORD
  5
89
102
{ACAD_REACTORS
330
3A
102
}
330
3A
100
AcDbXrecord
280
     1
  1
4021
  1
4021*
  1
*
  1
*
 70
     0
  1
*
  1
*
  0
XRECORD
  5
8A
102
{ACAD_REACTORS
330
3A
102
}
330
3A
100
AcDbXrecord
280
     1
  1
5 DEMO
  1
??????_????D??
  1
*
  1
*
 70
     0
  1
*
  1
*
  0
XRECORD
  5
8B
102
{ACAD_REACTORS
330
3A
102
}
330
3A
100
AcDbXrecord
280
     1
  1
6 LAYER 1
  1
??????_?????1?
  1
*
  1
*
 70
     0
  1
*
  1
*
  0
XRECORD
  5
8C
102
{ACAD_REACTORS
330
3A
102
}
330
3A
100
AcDbXrecord
280
     1
  1
7 LAYER 2
  1
??????_??????2
  1
*
  1
*
 70
     0
  1
*
  1
*
  0
XRECORD
  5
8D
102
{ACAD_REACTORS
330
3A
102
}
330
3A
100
AcDbXrecord
280
     1
  1
720
  1
*720g*
  1
*
  1
*
 70
     0
  1
*
  1
*
  0
XRECORD
  5
8E
102
{ACAD_REACTORS
330
3A
102
}
330
3A
100
AcDbXrecord
280
     1
  1
720g
  1
*720*
  1
*
  1
*
 70
     0
  1
*
  1
*
  0
XRECORD
  5
8F
102
{ACAD_REACTORS
330
3A
102
}
330
3A
100
AcDbXrecord
280
     1
  1
8
  1
*
  1
8
  1
*
 70
     0
  1
*
  1
*
  0
XRECORD
  5
90
102
{ACAD_REACTORS
330
3A
102
}
330
3A
100
AcDbXrecord
280
     1
  1
9
  1
*
  1
9
  1
*
 70
     0
  1
*
  1
*
  0
XRECORD
  5
91
102
{ACAD_REACTORS
330
3A
102
}
330
3A
100
AcDbXrecord
280
     1
  1
96
  1
*96
  1
*
  1
*
 70
     0
  1
*
  1
*
  0
XRECORD
  5
92
102
{ACAD_REACTORS
330
3A
102
}
330
3A
100
AcDbXrecord
280
     1
  1
_4021
  1
*4021*
  1
*
  1
*
 70
     0
  1
*
  1
*
  0
XRECORD
  5
93
102
{ACAD_REACTORS
330
3A
102
}
330
3A
100
AcDbXrecord
280
     1
  1
__E1
  1
*E1*
  1
*
  1
*
 70
     0
  1
*
  1
*
  0
XRECORD
  5
94
102
{ACAD_REACTORS
330
3A
102
}
330
3A
100
AcDbXrecord
280
     1
  1
__E2
  1
*E2*
  1
*
  1
*
 70
     0
  1
*
  1
*
  0
XRECORD
  5
95
102
{ACAD_REACTORS
330
3A
102
}
330
3A
100
AcDbXrecord
280
     1
  1
__E3
  1
*E3*
  1
*
  1
*
 70
     0
  1
*
  1
*
  0
XRECORD
  5
96
102
{ACAD_REACTORS
330
3A
102
}
330
3A
100
AcDbXrecord
280
     1
  1
__E6
  1
*E6*
  1
*
  1
*
 70
     0
  1
*
  1
*
  0
XRECORD
  5
97
102
{ACAD_REACTORS
330
3A
102
}
330
3A
100
AcDbXrecord
280
     1
  1
_all
  1
*
  1
*
  1
*
 70
     0
  1
*
  1
*
  0
XRECORD
  5
98
102
{ACAD_REACTORS
330
3A
102
}
330
3A
100
AcDbXrecord
280
     1
  1
_arch
  1
A-*
  1
*
  1
*
 70
     0
  1
*
  1
*
  0
XRECORD
  5
99
102
{ACAD_REACTORS
330
3A
102
}
330
3A
100
AcDbXrecord
280
     1
  1
_AXIS
  1
*axis*
  1
*
  1
*
 70
     0
  1
*
  1
*
  0
XRECORD
  5
9A
102
{ACAD_REACTORS
330
3A
102
}
330
3A
100
AcDbXrecord
280
     1
  1
_BORT
  1
BORT*
  1
*
  1
*
 70
     0
  1
*
  1
*
  0
XRECORD
  5
9B
102
{ACAD_REACTORS
330
3A
102
}
330
3A
100
AcDbXrecord
280
     1
  1
_BR
  1
*br*
  1
*
  1
*
 70
     0
  1
*
  1
*
  0
XRECORD
  5
9C
102
{ACAD_REACTORS
330
3A
102
}
330
3A
100
AcDbXrecord
280
     1
  1
_Building 3
  1
*bld3*
  1
*
  1
*
 70
     0
  1
*
  1
*
  0
XRECORD
  5
9D
102
{ACAD_REACTORS
330
3A
102
}
330
3A
100
AcDbXrecord
280
     1
  1
_color6
  1
*
  1
6
  1
*
 70
     0
  1
*
  1
*
  0
XRECORD
  5
9E
102
{ACAD_REACTORS
330
3A
102
}
330
3A
100
AcDbXrecord
280
     1
  1
_DIM
  1
*dim*
  1
*
  1
*
 70
     0
  1
*
  1
*
  0
XRECORD
  5
9F
102
{ACAD_REACTORS
330
3A
102
}
330
3A
100
AcDbXrecord
280
     1
  1
_External Works
  1
*o-*
  1
*
  1
*
 70
     0
  1
*
  1
*
  0
XRECORD
  5
A0
102
{ACAD_REACTORS
330
3A
102
}
330
3A
100
AcDbXrecord
280
     1
  1
_first
  1
*01*
  1
*
  1
*
 70
     0
  1
*
  1
*
  0
XRECORD
  5
A1
102
{ACAD_REACTORS
330
3A
102
}
330
3A
100
AcDbXrecord
280
     1
  1
_First Floor
  1
*01*
  1
*
  1
*
 70
     0
  1
*
  1
*
  0
XRECORD
  5
A2
102
{ACAD_REACTORS
330
3A
102
}
330
3A
100
AcDbXrecord
280
     1
  1
_ground
  1
*00*
  1
*
  1
*
 70
     0
  1
*
  1
*
  0
XRECORD
  5
A3
102
{ACAD_REACTORS
330
3A
102
}
330
3A
100
AcDbXrecord
280
     1
  1
_Ground Floor
  1
*-00*
  1
*
  1
*
 70
     0
  1
*
  1
*
  0
XRECORD
  5
A4
102
{ACAD_REACTORS
330
3A
102
}
330
3A
100
AcDbXrecord
280
     1
  1
_h
  1
*_H
  1
*
  1
*
 70
     0
  1
*
  1
*
  0
XRECORD
  5
A5
102
{ACAD_REACTORS
330
3A
102
}
330
3A
100
AcDbXrecord
280
     1
  1
_Hatching
  1
*hat*
  1
*
  1
*
 70
     0
  1
*
  1
*
  0
XRECORD
  5
A6
102
{ACAD_REACTORS
330
3A
102
}
330
3A
100
AcDbXrecord
280
     1
  1
_KOORD
  1
*koord*
  1
*
  1
*
 70
     0
  1
*
  1
*
  0
XRECORD
  5
A7
102
{ACAD_REACTORS
330
3A
102
}
330
3A
100
AcDbXrecord
280
     1
  1
_New
  1
*-N
  1
*
  1
*
 70
     0
  1
*
  1
*
  0
XRECORD
  5
A8
102
{ACAD_REACTORS
330
3A
102
}
330
3A
100
AcDbXrecord
280
     1
  1
_OP
  1
*op*
  1
*
  1
*
 70
     0
  1
*
  1
*
  0
XRECORD
  5
A9
102
{ACAD_REACTORS
330
3A
102
}
330
3A
100
AcDbXrecord
280
     1
  1
_OP14
  1
*op14*
  1
*
  1
*
 70
     0
  1
*
  1
*
  0
XRECORD
  5
AA
102
{ACAD_REACTORS
330
3A
102
}
330
3A
100
AcDbXrecord
280
     1
  1
_OP15
  1
*op15*
  1
*
  1
*
 70
     0
  1
*
  1
*
  0
XRECORD
  5
AB
102
{ACAD_REACTORS
330
3A
102
}
330
3A
100
AcDbXrecord
280
     1
  1
_OP6
  1
*op6*
  1
*
  1
*
 70
     0
  1
*
  1
*
  0
XRECORD
  5
AC
102
{ACAD_REACTORS
330
3A
102
}
330
3A
100
AcDbXrecord
280
     1
  1
_PARK
  1
*PARK*
  1
*
  1
*
 70
     0
  1
*
  1
*
  0
XRECORD
  5
AD
102
{ACAD_REACTORS
330
3A
102
}
330
3A
100
AcDbXrecord
280
     1
  1
_PARK4
  1
*PARK4*
  1
*
  1
*
 70
     0
  1
*
  1
*
  0
XRECORD
  5
AE
102
{ACAD_REACTORS
330
3A
102
}
330
3A
100
AcDbXrecord
280
     1
  1
_PIKET
  1
*piket*
  1
*
  1
*
 70
     0
  1
*
  1
*
  0
XRECORD
  5
AF
102
{ACAD_REACTORS
330
3A
102
}
330
3A
100
AcDbXrecord
280
     1
  1
_PS
  1
*ps*
  1
*
  1
*
 70
     0
  1
*
  1
*
  0
XRECORD
  5
B0
102
{ACAD_REACTORS
330
3A
102
}
330
3A
100
AcDbXrecord
280
     1
  1
_Removed
  1
*Rem*
  1
*
  1
*
 70
     0
  1
*
  1
*
  0
XRECORD
  5
B1
102
{ACAD_REACTORS
330
3A
102
}
330
3A
100
AcDbXrecord
280
     1
  1
_roof
  1
*roof*
  1
*
  1
*
 70
     0
  1
*
  1
*
  0
XRECORD
  5
B2
102
{ACAD_REACTORS
330
3A
102
}
330
3A
100
AcDbXrecord
280
     1
  1
_SECTION
  1
*sec*
  1
*
  1
*
 70
     0
  1
*
  1
*
  0
XRECORD
  5
B3
102
{ACAD_REACTORS
330
3A
102
}
330
3A
100
AcDbXrecord
280
     1
  1
_SOL
  1
*SOL*
  1
*
  1
*
 70
     0
  1
*
  1
*
  0
XRECORD
  5
B4
102
{ACAD_REACTORS
330
3A
102
}
330
3A
100
AcDbXrecord
280
     1
  1
_SUP
  1
*sup*
  1
*
  1
*
 70
     0
  1
*
  1
*
  0
XRECORD
  5
B5
102
{ACAD_REACTORS
330
3A
102
}
330
3A
100
AcDbXrecord
280
     1
  1
_Text
  1
*Text*
  1
*
  1
*
 70
     0
  1
*
  1
*
  0
XRECORD
  5
B6
102
{ACAD_REACTORS
330
3A
102
}
330
3A
100
AcDbXrecord
280
     1
  1
_WIN
  1
*win*
  1
*
  1
*
 70
     0
  1
*
  1
*
  0
XRECORD
  5
B7
102
{ACAD_REACTORS
330
3A
102
}
330
3A
100
AcDbXrecord
280
     1
  1
_Without text
  1
*text*
  1
*
  1
*
 70
     0
  1
*
  1
*
  0
XRECORD
  5
B8
102
{ACAD_REACTORS
330
3A
102
}
330
3A
100
AcDbXrecord
280
     1
  1
A
  1
DETAL*
  1
*
  1
*
 70
     0
  1
*
  1
*
  0
XRECORD
  5
B9
102
{ACAD_REACTORS
330
3A
102
}
330
3A
100
AcDbXrecord
280
     1
  1
A layers
  1
A*
  1
*
  1
*
 70
     0
  1
*
  1
*
  0
XRECORD
  5
BA
102
{ACAD_REACTORS
330
3A
102
}
330
3A
100
AcDbXrecord
280
     1
  1
a-
  1
a-*
  1
*
  1
*
 70
     0
  1
*
  1
*
  0
XRECORD
  5
BB
102
{ACAD_REACTORS
330
3A
102
}
330
3A
100
AcDbXrecord
280
     1
  1
A-12101
  1
*
  1
*
  1
*
 70
    13
  1
*
  1
*
  0
XRECORD
  5
BC
102
{ACAD_REACTORS
330
3A
102
}
330
3A
100
AcDbXrecord
280
     1
  1
A0-FRAME
  1
A0*
  1
*
  1
*
 70
     0
  1
*
  1
*
  0
XRECORD
  5
BD
102
{ACAD_REACTORS
330
3A
102
}
330
3A
100
AcDbXrecord
280
     1
  1
A000D
  1
A000D*
  1
*
  1
*
 70
     0
  1
*
  1
*
  0
XRECORD
  5
BE
102
{ACAD_REACTORS
330
3A
102
}
330
3A
100
AcDbXrecord
280
     1
  1
A032G
  1
*a032G
  1
*
  1
*
 70
     0
  1
*
  1
*
  0
XRECORD
  5
BF
102
{ACAD_REACTORS
330
3A
102
}
330
3A
100
AcDbXrecord
280
     1
  1
a2
  1
a2*
  1
*
  1
*
 70
     0
  1
*
  1
*
  0
XRECORD
  5
C0
102
{ACAD_REACTORS
330
3A
102
}
330
3A
100
AcDbXrecord
280
     1
  1
a210h
  1
*a210h
  1
*
  1
*
 70
     0
  1
*
  1
*
  0
XRECORD
  5
C1
102
{ACAD_REACTORS
330
3A
102
}
330
3A
100
AcDbXrecord
280
     1
  1
a210h-50
  1
*a210h-50
  1
*
  1
*
 70
     0
  1
*
  1
*
  0
XRECORD
  5
C2
102
{ACAD_REACTORS
330
3A
102
}
330
3A
100
AcDbXrecord
280
     1
  1
a3
  1
a3*
  1
*
  1
*
 70
     0
  1
*
  1
*
  0
XRECORD
  5
C3
102
{ACAD_REACTORS
330
3A
102
}
330
3A
100
AcDbXrecord
280
     1
  1
a9
  1
a9*
  1
*
  1
*
 70
     0
  1
*
  1
*
  0
XRECORD
  5
C4
102
{ACAD_REACTORS
330
3A
102
}
330
3A
100
AcDbXrecord
280
     1
  1
AA
  1
AKS,M2AKS
  1
*
  1
*
 70
     0
  1
*
  1
*
  0
XRECORD
  5
C5
102
{ACAD_REACTORS
330
3A
102
}
330
3A
100
AcDbXrecord
280
     1
  1
aadressid
  1
aadr*
  1
*
  1
*
 70
     0
  1
*
  1
*
  0
XRECORD
  5
C6
102
{ACAD_REACTORS
330
3A
102
}
330
3A
100
AcDbXrecord
280
     1
  1
adler
  1
aadler*,xre*
  1
*
  1
*
 70
     0
  1
*
  1
*
  0
XRECORD
  5
C7
102
{ACAD_REACTORS
330
3A
102
}
330
3A
100
AcDbXrecord
280
     1
  1
AJUTINE
  1
AJUTINE *
  1
*
  1
*
 70
     0
  1
*
  1
*
  0
XRECORD
  5
C8
102
{ACAD_REACTORS
330
3A
102
}
330
3A
100
AcDbXrecord
280
     1
  1
ALEV07
  1
ALEV07*
  1
*
  1
*
 70
     0
  1
*
  1
*
  0
XRECORD
  5
C9
102
{ACAD_REACTORS
330
3A
102
}
330
3A
100
AcDbXrecord
280
     1
  1
ALL
  1
*
  1
*
  1
*
 70
     0
  1
*
  1
*
  0
XRECORD
  5
CA
102
{ACAD_REACTORS
330
3A
102
}
330
3A
100
AcDbXrecord
280
     1
  1
all on
  1
*
  1
*
  1
*
 70
     1
  1
*
  1
*
  0
XRECORD
  5
CB
102
{ACAD_REACTORS
330
3A
102
}
330
3A
100
AcDbXrecord
280
     1
  1
alles met_
  1
*_*
  1
*
  1
*
 70
     0
  1
*
  1
*
  0
XRECORD
  5
CC
102
{ACAD_REACTORS
330
3A
102
}
330
3A
100
AcDbXrecord
280
     1
  1
ALLTEXT
  1
*T*
  1
*
  1
*
 70
     0
  1
*
  1
*
  0
XRECORD
  5
CD
102
{ACAD_REACTORS
330
3A
102
}
330
3A
100
AcDbXrecord
280
     1
  1
ANGARS
  1
*ASIS
  1
*
  1
*
 70
     0
  1
*
  1
*
  0
XRECORD
  5
CE
102
{ACAD_REACTORS
330
3A
102
}
330
3A
100
AcDbXrecord
280
     1
  1
Antras
  1
2*
  1
*
  1
*
 70
  1024
  1
*
  1
*
  0
XRECORD
  5
CF
102
{ACAD_REACTORS
330
3A
102
}
330
3A
100
AcDbXrecord
280
     1
  1
AR
  1
*
  1
*
  1
*
 70
     0
  1
*
  1
*
  0
XRECORD
  5
D0
102
{ACAD_REACTORS
330
3A
102
}
330
3A
100
AcDbXrecord
280
     1
  1
ar_bwl
  1
*
  1
*
  1
*
 70
     3
  1
*
  1
*
  0
XRECORD
  5
D1
102
{ACAD_REACTORS
330
3A
102
}
330
3A
100
AcDbXrecord
280
     1
  1
ar_grd
  1
*
  1
*
  1
*
 70
     3
  1
*
  1
*
  0
XRECORD
  5
D2
102
{ACAD_REACTORS
330
3A
102
}
330
3A
100
AcDbXrecord
280
     1
  1
AR_GRID
  1
*
  1
*
  1
*
 70
     3
  1
*
  1
*
  0
XRECORD
  5
D3
102
{ACAD_REACTORS
330
3A
102
}
330
3A
100
AcDbXrecord
280
     1
  1
arch
  1
ar*
  1
*
  1
*
 70
     0
  1
*
  1
*
  0
XRECORD
  5
D4
102
{ACAD_REACTORS
330
3A
102
}
330
3A
100
AcDbXrecord
280
     1
  1
Architecture
  1
A*
  1
*
  1
*
 70
     0
  1
*
  1
*
  0
XRECORD
  5
D5
102
{ACAD_REACTORS
330
3A
102
}
330
3A
100
AcDbXrecord
280
     1
  1
AREA
  1
*AREA*
  1
*
  1
*
 70
     0
  1
*
  1
*
  0
XRECORD
  5
D6
102
{ACAD_REACTORS
330
3A
102
}
330
3A
100
AcDbXrecord
280
     1
  1
Arhitecture
  1
a*
  1
*
  1
*
 70
     0
  1
*
  1
*
  0
XRECORD
  5
D7
102
{ACAD_REACTORS
330
3A
102
}
330
3A
100
AcDbXrecord
280
     1
  1
ARM
  1
*ARM*
  1
*
  1
*
 70
     0
  1
*
  1
*
  0
XRECORD
  5
D8
102
{ACAD_REACTORS
330
3A
102
}
330
3A
100
AcDbXrecord
280
     1
  1
as
  1
as*
  1
*
  1
*
 70
     0
  1
*
  1
*
  0
XRECORD
  5
D9
102
{ACAD_REACTORS
330
3A
102
}
330
3A
100
AcDbXrecord
280
     1
  1
Asend
  1
*
  1
*
  1
*
 70
     0
  1
*
  1
*
  0
XRECORD
  5
DA
102
{ACAD_REACTORS
330
3A
102
}
330
3A
100
AcDbXrecord
280
     1
  1
asendiplaan
  1
as*
  1
*
  1
*
 70
     0
  1
*
  1
*
  0
XRECORD
  5
DB
102
{ACAD_REACTORS
330
3A
102
}
330
3A
100
AcDbXrecord
280
     1
  1
AUDITORIA
  1
AUD*
  1
*
  1
*
 70
     0
  1
*
  1
*
  0
XRECORD
  5
DC
102
{ACAD_REACTORS
330
3A
102
}
330
3A
100
AcDbXrecord
280
     1
  1
ax
  1
a*
  1
*
  1
*
 70
  3072
  1
*
  1
*
  0
XRECORD
  5
DD
102
{ACAD_REACTORS
330
3A
102
}
330
3A
100
AcDbXrecord
280
     1
  1
B
  1
*B
  1
*
  1
*
 70
     0
  1
*
  1
*
  0
XRECORD
  5
DE
102
{ACAD_REACTORS
330
3A
102
}
330
3A
100
AcDbXrecord
280
     1
  1
BACK BAR
  1
BACK*
  1
*
  1
*
 70
     0
  1
*
  1
*
  0
XRECORD
  5
DF
102
{ACAD_REACTORS
330
3A
102
}
330
3A
100
AcDbXrecord
280
     1
  1
BACKBAR
  1
BACKBAR*,2D*
  1
*
  1
*
 70
     0
  1
*
  1
*
  0
XRECORD
  5
E0
102
{ACAD_REACTORS
330
3A
102
}
330
3A
100
AcDbXrecord
280
     1
  1
BANQ'S
  1
BANQ*
  1
*
  1
*
 70
     0
  1
*
  1
*
  0
XRECORD
  5
E1
102
{ACAD_REACTORS
330
3A
102
}
330
3A
100
AcDbXrecord
280
     1
  1
BAR
  1
BAR*
  1
*
  1
*
 70
     0
  1
*
  1
*
  0
XRECORD
  5
E2
102
{ACAD_REACTORS
330
3A
102
}
330
3A
100
AcDbXrecord
280
     1
  1
bar-top
  1
*
  1
*
  1
*
 70
    16
  1
*
  1
*
  0
XRECORD
  5
E3
102
{ACAD_REACTORS
330
3A
102
}
330
3A
100
AcDbXrecord
280
     1
  1
bb
  1
rogarpissu,block
  1
*
  1
*
 70
     0
  1
*
  1
*
  0
XRECORD
  5
E4
102
{ACAD_REACTORS
330
3A
102
}
330
3A
100
AcDbXrecord
280
     1
  1
BDPF5R
  1
*BDPF*5*
  1
*
  1
*
 70
     0
  1
*
  1
*
  0
XRECORD
  5
E5
102
{ACAD_REACTORS
330
3A
102
}
330
3A
100
AcDbXrecord
280
     1
  1
BENCH
  1
BENCH*
  1
*
  1
*
 70
     0
  1
*
  1
*
  0
XRECORD
  5
E6
102
{ACAD_REACTORS
330
3A
102
}
330
3A
100
AcDbXrecord
280
     1
  1
BHWB
  1
*
  1
*
  1
*
 70
     0
  1
*
  1
*
  0
XRECORD
  5
E7
102
{ACAD_REACTORS
330
3A
102
}
330
3A
100
AcDbXrecord
280
     1
  1
blue
  1
*
  1
blue
  1
*
 70
     0
  1
*
  1
*
  0
XRECORD
  5
E8
102
{ACAD_REACTORS
330
3A
102
}
330
3A
100
AcDbXrecord
280
     1
  1
BOUNARY
  1
*BOUND*
  1
*
  1
*
 70
     0
  1
*
  1
*
  0
XRECORD
  5
E9
102
{ACAD_REACTORS
330
3A
102
}
330
3A
100
AcDbXrecord
280
     1
  1
BOUNDARY
  1
*
  1
*
  1
*
 70
    16
  1
*
  1
*
  0
XRECORD
  5
EA
102
{ACAD_REACTORS
330
3A
102
}
330
3A
100
AcDbXrecord
280
     1
  1
boundry-of
  1
*boundry
  1
*
  1
*
 70
     0
  1
*
  1
*
  0
XRECORD
  5
EB
102
{ACAD_REACTORS
330
3A
102
}
330
3A
100
AcDbXrecord
280
     1
  1
BUILDERS WORK
  1
*
  1
*
  1
*
 70
    16
  1
*
  1
*
  0
XRECORD
  5
EC
102
{ACAD_REACTORS
330
3A
102
}
330
3A
100
AcDbXrecord
280
     1
  1
BUILDERS-WORK
  1
*
  1
*
  1
*
 70
    16
  1
*
  1
*
  0
XRECORD
  5
ED
102
{ACAD_REACTORS
330
3A
102
}
330
3A
100
AcDbXrecord
280
     1
  1
BULKHEAD
  1
*BULKHEAD*
  1
*
  1
*
 70
     0
  1
*
  1
*
  0
XRECORD
  5
EE
102
{ACAD_REACTORS
330
3A
102
}
330
3A
100
AcDbXrecord
280
     1
  1
BV-LEASE
  1
*
  1
*
  1
*
 70
     0
  1
*
  1
*
  0
XRECORD
  5
EF
102
{ACAD_REACTORS
330
3A
102
}
330
3A
100
AcDbXrecord
280
     1
  1
bw
  1
a213*
  1
*
  1
*
 70
     0
  1
*
  1
*
  0
XRECORD
  5
F0
102
{ACAD_REACTORS
330
3A
102
}
330
3A
100
AcDbXrecord
280
     1
  1
bzik
  1
*
  1
*
  1
*
 70
   768
  1
*
  1
*
  0
XRECORD
  5
F1
102
{ACAD_REACTORS
330
3A
102
}
330
3A
100
AcDbXrecord
280
     1
  1
c
  1
c-*
  1
*
  1
*
 70
     0
  1
*
  1
*
  0
XRECORD
  5
F2
102
{ACAD_REACTORS
330
3A
102
}
330
3A
100
AcDbXrecord
280
     1
  1
C-
  1
C-*
  1
*
  1
*
 70
     0
  1
*
  1
*
  0
XRECORD
  5
F3
102
{ACAD_REACTORS
330
3A
102
}
330
3A
100
AcDbXrecord
280
     1
  1
C1
  1
*C1*
  1
*
  1
*
 70
     0
  1
*
  1
*
  0
XRECORD
  5
F4
102
{ACAD_REACTORS
330
3A
102
}
330
3A
100
AcDbXrecord
280
     1
  1
CANOPY
  1
CANOPY*
  1
*
  1
*
 70
     0
  1
*
  1
*
  0
XRECORD
  5
F5
102
{ACAD_REACTORS
330
3A
102
}
330
3A
100
AcDbXrecord
280
     1
  1
CART
  1
*CART*
  1
*
  1
*
 70
     0
  1
*
  1
*
  0
XRECORD
  5
F6
102
{ACAD_REACTORS
330
3A
102
}
330
3A
100
AcDbXrecord
280
     1
  1
CC
  1
*
  1
*
  1
*
 70
     1
  1
*
  1
*
  0
XRECORD
  5
F7
102
{ACAD_REACTORS
330
3A
102
}
330
3A
100
AcDbXrecord
280
     1
  1
Ceiling
  1
*clg*
  1
*
  1
*
 70
     0
  1
*
  1
*
  0
XRECORD
  5
F8
102
{ACAD_REACTORS
330
3A
102
}
330
3A
100
AcDbXrecord
280
     1
  1
CEILING LAYOUT
  1
A-CLG-*
  1
*
  1
*
 70
     0
  1
*
  1
*
  0
XRECORD
  5
F9
102
{ACAD_REACTORS
330
3A
102
}
330
3A
100
AcDbXrecord
280
     1
  1
CEILING PLAN
  1
*
  1
*
  1
*
 70
    16
  1
*
  1
*
  0
XRECORD
  5
FA
102
{ACAD_REACTORS
330
3A
102
}
330
3A
100
AcDbXrecord
280
     1
  1
cfp layers
  1
A*
  1
*
  1
*
 70
     0
  1
*
  1
*
  0
XRECORD
  5
FB
102
{ACAD_REACTORS
330
3A
102
}
330
3A
100
AcDbXrecord
280
     1
  1
CLAD
  1
*
  1
*
  1
*
 70
     0
  1
*
  1
*
  0
XRECORD
  5
FC
102
{ACAD_REACTORS
330
3A
102
}
330
3A
100
AcDbXrecord
280
     1
  1
coloour
  1
col*
  1
*
  1
*
 70
     0
  1
*
  1
*
  0
XRECORD
  5
FD
102
{ACAD_REACTORS
330
3A
102
}
330
3A
100
AcDbXrecord
280
     1
  1
colour
  1
col*
  1
*
  1
*
 70
     0
  1
*
  1
*
  0
XRECORD
  5
FE
102
{ACAD_REACTORS
330
3A
102
}
330
3A
100
AcDbXrecord
280
     1
  1
COLOURS
  1
*A080*
  1
*
  1
*
 70
     0
  1
*
  1
*
  0
XRECORD
  5
FF
102
{ACAD_REACTORS
330
3A
102
}
330
3A
100
AcDbXrecord
280
     1
  1
CONC
  1
*CONC*
  1
*
  1
*
 70
     0
  1
*
  1
*
  0
XRECORD
  5
100
102
{ACAD_REACTORS
330
3A
102
}
330
3A
100
AcDbXrecord
280
     1
  1
CONCR
  1
*CONCR*
  1
*
  1
*
 70
     0
  1
*
  1
*
  0
XRECORD
  5
101
102
{ACAD_REACTORS
330
3A
102
}
330
3A
100
AcDbXrecord
280
     1
  1
CONSERVITORY
  1
CON*,2D*
  1
*
  1
*
 70
     0
  1
*
  1
*
  0
XRECORD
  5
102
102
{ACAD_REACTORS
330
3A
102
}
330
3A
100
AcDbXrecord
280
     1
  1
CORIAN
  1
*CORIAN*
  1
*
  1
*
 70
     0
  1
*
  1
*
  0
XRECORD
  5
103
102
{ACAD_REACTORS
330
3A
102
}
330
3A
100
AcDbXrecord
280
     1
  1
cu dem
  1
dem*
  1
*
  1
*
 70
     0
  1
*
  1
*
  0
XRECORD
  5
104
102
{ACAD_REACTORS
330
3A
102
}
330
3A
100
AcDbXrecord
280
     1
  1
cu s2
  1
s2*
  1
*
  1
*
 70
     0
  1
*
  1
*
  0
XRECORD
  5
105
102
{ACAD_REACTORS
330
3A
102
}
330
3A
100
AcDbXrecord
280
     1
  1
cub
  1
*cub*
  1
*
  1
*
 70
     0
  1
*
  1
*
  0
XRECORD
  5
106
102
{ACAD_REACTORS
330
3A
102
}
330
3A
100
AcDbXrecord
280
     1
  1
CURRENT
  1
*
  1
*
  1
*
 70
    16
  1
*
  1
*
  0
XRECORD
  5
107
102
{ACAD_REACTORS
330
3A
102
}
330
3A
100
AcDbXrecord
280
     1
  1
CURVED GLASS
  1
*CURVED*
  1
*
  1
*
 70
     0
  1
*
  1
*
  0
XRECORD
  5
108
102
{ACAD_REACTORS
330
3A
102
}
330
3A
100
AcDbXrecord
280
     1
  1
curved walkway
  1
curved*
  1
*
  1
*
 70
     0
  1
*
  1
*
  0
XRECORD
  5
109
102
{ACAD_REACTORS
330
3A
102
}
330
3A
100
AcDbXrecord
280
     1
  1
CYAN
  1
*
  1
CYAN
  1
*
 70
     0
  1
*
  1
*
  0
XRECORD
  5
10A
102
{ACAD_REACTORS
330
3A
102
}
330
3A
100
AcDbXrecord
280
     1
  1
D
  1
DUMR
  1
*
  1
*
 70
     0
  1
*
  1
*
  0
XRECORD
  5
10B
102
{ACAD_REACTORS
330
3A
102
}
330
3A
100
AcDbXrecord
280
     1
  1
D1
  1
*D1*
  1
*
  1
*
 70
     0
  1
*
  1
*
  0
XRECORD
  5
10C
102
{ACAD_REACTORS
330
3A
102
}
330
3A
100
AcDbXrecord
280
     1
  1
D_
  1
D_*
  1
*
  1
*
 70
     0
  1
*
  1
*
  0
XRECORD
  5
10D
102
{ACAD_REACTORS
330
3A
102
}
330
3A
100
AcDbXrecord
280
     1
  1
dalaje
  1
dal*
  1
*
  1
*
 70
     0
  1
*
  1
*
  0
XRECORD
  5
10E
102
{ACAD_REACTORS
330
3A
102
}
330
3A
100
AcDbXrecord
280
     1
  1
das
  1
*
  1
7
  1
*
 70
     0
  1
*
  1
*
  0
XRECORD
  5
10F
102
{ACAD_REACTORS
330
3A
102
}
330
3A
100
AcDbXrecord
280
     1
  1
DAVE
  1
*
  1
*
  1
*
 70
     0
  1
*
  1
*
  0
XRECORD
  5
110
102
{ACAD_REACTORS
330
3A
102
}
330
3A
100
AcDbXrecord
280
     1
  1
demolition
  1
???????8*
  1
*
  1
*
 70
     0
  1
*
  1
*
  0
XRECORD
  5
111
102
{ACAD_REACTORS
330
3A
102
}
330
3A
100
AcDbXrecord
280
     1
  1
demolition work
  1
*
  1
*
  1
*
 70
    16
  1
*
  1
*
  0
XRECORD
  5
112
102
{ACAD_REACTORS
330
3A
102
}
330
3A
100
AcDbXrecord
280
     1
  1
dfd
  1
*
  1
*
  1
*
 70
     0
  1
*
  1
*
  0
XRECORD
  5
113
102
{ACAD_REACTORS
330
3A
102
}
330
3A
100
AcDbXrecord
280
     1
  1
dim
  1
dim*
  1
*
  1
*
 70
     0
  1
*
  1
*
  0
XRECORD
  5
114
102
{ACAD_REACTORS
330
3A
102
}
330
3A
100
AcDbXrecord
280
     1
  1
dim11
  1
dim11*
  1
*
  1
*
 70
     0
  1
*
  1
*
  0
XRECORD
  5
115
102
{ACAD_REACTORS
330
3A
102
}
330
3A
100
AcDbXrecord
280
     1
  1
dim12
  1
dim12*
  1
*
  1
*
 70
     0
  1
*
  1
*
  0
XRECORD
  5
116
102
{ACAD_REACTORS
330
3A
102
}
330
3A
100
AcDbXrecord
280
     1
  1
Dimensions
  1
?????d*
  1
*
  1
*
 70
     1
  1
*
  1
*
  0
XRECORD
  5
117
102
{ACAD_REACTORS
330
3A
102
}
330
3A
100
AcDbXrecord
280
     1
  1
dims
  1
*dims*
  1
*
  1
*
 70
     0
  1
*
  1
*
  0
XRECORD
  5
118
102
{ACAD_REACTORS
330
3A
102
}
330
3A
100
AcDbXrecord
280
     1
  1
DN
  1
DN*
  1
*
  1
*
 70
     0
  1
*
  1
*
  0
XRECORD
  5
119
102
{ACAD_REACTORS
330
3A
102
}
330
3A
100
AcDbXrecord
280
     1
  1
DOM
  1
DOM*
  1
*
  1
*
 70
     0
  1
*
  1
*
  0
XRECORD
  5
11A
102
{ACAD_REACTORS
330
3A
102
}
330
3A
100
AcDbXrecord
280
     1
  1
Don't plot
  1
*
  1
*
  1
*
 70
  3072
  1
*
  1
*
  0
XRECORD
  5
11B
102
{ACAD_REACTORS
330
3A
102
}
330
3A
100
AcDbXrecord
280
     1
  1
DOOR
  1
*DOOR*
  1
*
  1
*
 70
     0
  1
*
  1
*
  0
XRECORD
  5
11C
102
{ACAD_REACTORS
330
3A
102
}
330
3A
100
AcDbXrecord
280
     1
  1
Drain
  1
d*
  1
*
  1
*
 70
     0
  1
*
  1
*
  0
XRECORD
  5
11D
102
{ACAD_REACTORS
330
3A
102
}
330
3A
100
AcDbXrecord
280
     1
  1
drains
  1
*dra*
  1
*
  1
*
 70
     0
  1
*
  1
*
  0
XRECORD
  5
11E
102
{ACAD_REACTORS
330
3A
102
}
330
3A
100
AcDbXrecord
280
     1
  1
DSD
  1
*720G*
  1
*
  1
*
 70
     0
  1
*
  1
*
  0
XRECORD
  5
11F
102
{ACAD_REACTORS
330
3A
102
}
330
3A
100
AcDbXrecord
280
     1
  1
Ductwork
  1
*Duct*
  1
*
  1
*
 70
     0
  1
*
  1
*
  0
XRECORD
  5
120
102
{ACAD_REACTORS
330
3A
102
}
330
3A
100
AcDbXrecord
280
     1
  1
E - LAYERS
  1
*E_*
  1
*
  1
*
 70
     0
  1
*
  1
*
  0
XRECORD
  5
121
102
{ACAD_REACTORS
330
3A
102
}
330
3A
100
AcDbXrecord
280
     1
  1
E1
  1
*E1*
  1
*
  1
*
 70
     0
  1
*
  1
*
  0
XRECORD
  5
122
102
{ACAD_REACTORS
330
3A
102
}
330
3A
100
AcDbXrecord
280
     1
  1
E2
  1
*E2*
  1
*
  1
*
 70
     0
  1
*
  1
*
  0
XRECORD
  5
123
102
{ACAD_REACTORS
330
3A
102
}
330
3A
100
AcDbXrecord
280
     1
  1
E3
  1
*E3*
  1
*
  1
*
 70
     0
  1
*
  1
*
  0
XRECORD
  5
124
102
{ACAD_REACTORS
330
3A
102
}
330
3A
100
AcDbXrecord
280
     1
  1
E4
  1
*E4*
  1
*
  1
*
 70
     0
  1
*
  1
*
  0
XRECORD
  5
125
102
{ACAD_REACTORS
330
3A
102
}
330
3A
100
AcDbXrecord
280
     1
  1
EDDIE
  1
*EDDIE*
  1
*
  1
*
 70
     0
  1
*
  1
*
  0
XRECORD
  5
126
102
{ACAD_REACTORS
330
3A
102
}
330
3A
100
AcDbXrecord
280
     1
  1
EI PLOTI
  1
*
  1
*
  1
*
 70
  3072
  1
*
  1
*
  0
XRECORD
  5
127
102
{ACAD_REACTORS
330
3A
102
}
330
3A
100
AcDbXrecord
280
     1
  1
eiplo
  1
*
  1
*
  1
*
 70
  3072
  1
*
  1
*
  0
XRECORD
  5
128
102
{ACAD_REACTORS
330
3A
102
}
330
3A
100
AcDbXrecord
280
     1
  1
EIplot
  1
*
  1
*
  1
*
 70
  3072
  1
*
  1
*
  0
XRECORD
  5
129
102
{ACAD_REACTORS
330
3A
102
}
330
3A
100
AcDbXrecord
280
     1
  1
EKSEN
  1
*EKS*
  1
*
  1
*
 70
     0
  1
*
  1
*
  0
XRECORD
  5
12A
102
{ACAD_REACTORS
330
3A
102
}
330
3A
100
AcDbXrecord
280
     1
  1
ELEC
  1
E*
  1
*
  1
*
 70
     0
  1
*
  1
*
  0
XRECORD
  5
12B
102
{ACAD_REACTORS
330
3A
102
}
330
3A
100
AcDbXrecord
280
     1
  1
ELEVATION
  1
ELE*
  1
*
  1
*
 70
     0
  1
*
  1
*
  0
XRECORD
  5
12C
102
{ACAD_REACTORS
330
3A
102
}
330
3A
100
AcDbXrecord
280
     1
  1
elevations
  1
A-ELEV-*
  1
*
  1
*
 70
     0
  1
*
  1
*
  0
XRECORD
  5
12D
102
{ACAD_REACTORS
330
3A
102
}
330
3A
100
AcDbXrecord
280
     1
  1
endview
  1
*endview*
  1
*
  1
*
 70
     0
  1
*
  1
*
  0
XRECORD
  5
12E
102
{ACAD_REACTORS
330
3A
102
}
330
3A
100
AcDbXrecord
280
     1
  1
entrance
  1
ent*
  1
*
  1
*
 70
     0
  1
*
  1
*
  0
XRECORD
  5
12F
102
{ACAD_REACTORS
330
3A
102
}
330
3A
100
AcDbXrecord
280
     1
  1
esam
  1
*
  1
*
  1
*
 70
     0
  1
*
  1
*
  0
XRECORD
  5
130
102
{ACAD_REACTORS
330
3A
102
}
330
3A
100
AcDbXrecord
280
     1
  1
et trykkida välja
  1
*
  1
*
  1
*
 70
     0
  1
*
  1
*
  0
XRECORD
  5
131
102
{ACAD_REACTORS
330
3A
102
}
330
3A
100
AcDbXrecord
280
     1
  1
exg imported
  1
B*
  1
*
  1
*
 70
     0
  1
*
  1
*
  0
XRECORD
  5
132
102
{ACAD_REACTORS
330
3A
102
}
330
3A
100
AcDbXrecord
280
     1
  1
EXISTING
  1
EX_PLN_0
  1
*
  1
*
 70
     0
  1
*
  1
*
  0
XRECORD
  5
133
102
{ACAD_REACTORS
330
3A
102
}
330
3A
100
AcDbXrecord
280
     1
  1
F
  1
*
  1
*
  1
*
 70
     4
  1
*
  1
*
  0
XRECORD
  5
134
102
{ACAD_REACTORS
330
3A
102
}
330
3A
100
AcDbXrecord
280
     1
  1
FEATURE
  1
FEATURE*
  1
*
  1
*
 70
     0
  1
*
  1
*
  0
XRECORD
  5
135
102
{ACAD_REACTORS
330
3A
102
}
330
3A
100
AcDbXrecord
280
     1
  1
FENCE
  1
*FENCE*
  1
*
  1
*
 70
     0
  1
*
  1
*
  0
XRECORD
  5
136
102
{ACAD_REACTORS
330
3A
102
}
330
3A
100
AcDbXrecord
280
     1
  1
FINISH
  1
*FINISH
  1
*
  1
*
 70
     0
  1
*
  1
*
  0
XRECORD
  5
137
102
{ACAD_REACTORS
330
3A
102
}
330
3A
100
AcDbXrecord
280
     1
  1
finishes
  1
*finishes*
  1
*
  1
*
 70
     0
  1
*
  1
*
  0
XRECORD
  5
138
102
{ACAD_REACTORS
330
3A
102
}
330
3A
100
AcDbXrecord
280
     1
  1
FINISHES PLAN
  1
*
  1
*
  1
*
 70
    16
  1
*
  1
*
  0
XRECORD
  5
139
102
{ACAD_REACTORS
330
3A
102
}
330
3A
100
AcDbXrecord
280
     1
  1
FINISHES PLANS
  1
*
  1
*
  1
*
 70
    16
  1
*
  1
*
  0
XRECORD
  5
13A
102
{ACAD_REACTORS
330
3A
102
}
330
3A
100
AcDbXrecord
280
     1
  1
FIRE
  1
*
  1
*
  1
*
 70
    16
  1
*
  1
*
  0
XRECORD
  5
13B
102
{ACAD_REACTORS
330
3A
102
}
330
3A
100
AcDbXrecord
280
     1
  1
FIRE PLAN
  1
*
  1
*
  1
*
 70
     4
  1
*
  1
*
  0
XRECORD
  5
13C
102
{ACAD_REACTORS
330
3A
102
}
330
3A
100
AcDbXrecord
280
     1
  1
Fire strategy
  1
Fire*
  1
*
  1
*
 70
     0
  1
*
  1
*
  0
XRECORD
  5
13D
102
{ACAD_REACTORS
330
3A
102
}
330
3A
100
AcDbXrecord
280
     1
  1
FIRST FLOOR
  1
*-01
  1
*
  1
*
 70
     0
  1
*
  1
*
  0
XRECORD
  5
13E
102
{ACAD_REACTORS
330
3A
102
}
330
3A
100
AcDbXrecord
280
     1
  1
First to Roof
  1
*F-R*
  1
*
  1
*
 70
     0
  1
*
  1
*
  0
XRECORD
  5
13F
102
{ACAD_REACTORS
330
3A
102
}
330
3A
100
AcDbXrecord
280
     1
  1
FLAT GLASS
  1
*FLAT*
  1
*
  1
*
 70
     0
  1
*
  1
*
  0
XRECORD
  5
140
102
{ACAD_REACTORS
330
3A
102
}
330
3A
100
AcDbXrecord
280
     1
  1
FLOOR
  1
FLOOR*
  1
*
  1
*
 70
     0
  1
*
  1
*
  0
XRECORD
  5
141
102
{ACAD_REACTORS
330
3A
102
}
330
3A
100
AcDbXrecord
280
     1
  1
FLOOR PLAN
  1
A-FLR-*
  1
*
  1
*
 70
     0
  1
*
  1
*
  0
XRECORD
  5
142
102
{ACAD_REACTORS
330
3A
102
}
330
3A
100
AcDbXrecord
280
     1
  1
FR
  1
*
  1
*
  1
*
 70
     4
  1
*
  1
*
  0
XRECORD
  5
143
102
{ACAD_REACTORS
330
3A
102
}
330
3A
100
AcDbXrecord
280
     1
  1
Fragment 2
  1
*
  1
*
  1
*
 70
     0
  1
*
  1
*
  0
XRECORD
  5
144
102
{ACAD_REACTORS
330
3A
102
}
330
3A
100
AcDbXrecord
280
     1
  1
freeze
  1
*
  1
*
  1
*
 70
     4
  1
*
  1
*
  0
XRECORD
  5
145
102
{ACAD_REACTORS
330
3A
102
}
330
3A
100
AcDbXrecord
280
     1
  1
FROS CUR VPORT
  1
LUCIEN
  1
*
  1
*
 70
    16
  1
*
  1
*
  0
XRECORD
  5
146
102
{ACAD_REACTORS
330
3A
102
}
330
3A
100
AcDbXrecord
280
     1
  1
FROZ
  1
*
  1
*
  1
*
 70
     4
  1
*
  1
*
  0
XRECORD
  5
147
102
{ACAD_REACTORS
330
3A
102
}
330
3A
100
AcDbXrecord
280
     1
  1
FROZ CUR VPORT
  1
*
  1
*
  1
*
 70
    16
  1
*
  1
*
  0
XRECORD
  5
148
102
{ACAD_REACTORS
330
3A
102
}
330
3A
100
AcDbXrecord
280
     1
  1
FROZ IN CURENT
  1
*
  1
*
  1
*
 70
    16
  1
*
  1
*
  0
XRECORD
  5
149
102
{ACAD_REACTORS
330
3A
102
}
330
3A
100
AcDbXrecord
280
     1
  1
frozen
  1
*
  1
*
  1
*
 70
     4
  1
*
  1
*
  0
XRECORD
  5
14A
102
{ACAD_REACTORS
330
3A
102
}
330
3A
100
AcDbXrecord
280
     1
  1
frozen Layers
  1
*
  1
*
  1
*
 70
     4
  1
*
  1
*
  0
XRECORD
  5
14B
102
{ACAD_REACTORS
330
3A
102
}
330
3A
100
AcDbXrecord
280
     1
  1
FRZ
  1
*
  1
*
  1
*
 70
     4
  1
*
  1
*
  0
XRECORD
  5
14C
102
{ACAD_REACTORS
330
3A
102
}
330
3A
100
AcDbXrecord
280
     1
  1
Furniture
  1
f*
  1
*
  1
*
 70
     0
  1
*
  1
*
  0
XRECORD
  5
14D
102
{ACAD_REACTORS
330
3A
102
}
330
3A
100
AcDbXrecord
280
     1
  1
furntext
  1
*t2
  1
*
  1
*
 70
     0
  1
*
  1
*
  0
XRECORD
  5
14E
102
{ACAD_REACTORS
330
3A
102
}
330
3A
100
AcDbXrecord
280
     1
  1
furntext1
  1
*t1
  1
*
  1
*
 70
     0
  1
*
  1
*
  0
XRECORD
  5
14F
102
{ACAD_REACTORS
330
3A
102
}
330
3A
100
AcDbXrecord
280
     1
  1
furntext2
  1
*t2
  1
*
  1
*
 70
     0
  1
*
  1
*
  0
XRECORD
  5
150
102
{ACAD_REACTORS
330
3A
102
}
330
3A
100
AcDbXrecord
280
     1
  1
furntext3
  1
*t3
  1
*
  1
*
 70
     0
  1
*
  1
*
  0
XRECORD
  5
151
102
{ACAD_REACTORS
330
3A
102
}
330
3A
100
AcDbXrecord
280
     1
  1
FY
  1
*
  1
*
  1
*
 70
     0
  1
*
  1
*
  0
XRECORD
  5
152
102
{ACAD_REACTORS
330
3A
102
}
330
3A
100
AcDbXrecord
280
     1
  1
g
  1
g*
  1
*
  1
*
 70
     0
  1
*
  1
*
  0
XRECORD
  5
153
102
{ACAD_REACTORS
330
3A
102
}
330
3A
100
AcDbXrecord
280
     1
  1
GA
  1
*
  1
*
  1
*
 70
     0
  1
*
  1
*
  0
XRECORD
  5
154
102
{ACAD_REACTORS
330
3A
102
}
330
3A
100
AcDbXrecord
280
     1
  1
ga plan
  1
*
  1
*
  1
*
 70
    16
  1
*
  1
*
  0
XRECORD
  5
155
102
{ACAD_REACTORS
330
3A
102
}
330
3A
100
AcDbXrecord
280
     1
  1
GAMCO
  1
GAM*
  1
*
  1
*
 70
     0
  1
*
  1
*
  0
XRECORD
  5
156
102
{ACAD_REACTORS
330
3A
102
}
330
3A
100
AcDbXrecord
280
     1
  1
General
  1
y*
  1
*
  1
*
 70
     0
  1
*
  1
*
  0
XRECORD
  5
157
102
{ACAD_REACTORS
330
3A
102
}
330
3A
100
AcDbXrecord
280
     1
  1
geo
  1
geo*
  1
*
  1
*
 70
     0
  1
*
  1
*
  0
XRECORD
  5
158
102
{ACAD_REACTORS
330
3A
102
}
330
3A
100
AcDbXrecord
280
     1
  1
geodeesia
  1
geo*
  1
*
  1
*
 70
     0
  1
*
  1
*
  0
XRECORD
  5
159
102
{ACAD_REACTORS
330
3A
102
}
330
3A
100
AcDbXrecord
280
     1
  1
git
  1
*
  1
magenta
  1
*
 70
     0
  1
*
  1
*
  0
XRECORD
  5
15A
102
{ACAD_REACTORS
330
3A
102
}
330
3A
100
AcDbXrecord
280
     1
  1
GLASS
  1
*GLASS*
  1
*
  1
*
 70
     0
  1
*
  1
*
  0
XRECORD
  5
15B
102
{ACAD_REACTORS
330
3A
102
}
330
3A
100
AcDbXrecord
280
     1
  1
GLASS RACK
  1
GLASSRACK*
  1
*
  1
*
 70
     0
  1
*
  1
*
  0
XRECORD
  5
15C
102
{ACAD_REACTORS
330
3A
102
}
330
3A
100
AcDbXrecord
280
     1
  1
gondola
  1
*
  1
*
  1
*
 70
     0
  1
*
  1
*
  0
XRECORD
  5
15D
102
{ACAD_REACTORS
330
3A
102
}
330
3A
100
AcDbXrecord
280
     1
  1
gp
  1
gp*
  1
*
  1
*
 70
     0
  1
*
  1
*
  0
XRECORD
  5
15E
102
{ACAD_REACTORS
330
3A
102
}
330
3A
100
AcDbXrecord
280
     1
  1
gp- ära
  1
gp
  1
*
  1
*
 70
     3
  1
*
  1
*
  0
XRECORD
  5
15F
102
{ACAD_REACTORS
330
3A
102
}
330
3A
100
AcDbXrecord
280
     1
  1
GREEN
  1
*
  1
GREEN
  1
*
 70
     0
  1
*
  1
*
  0
XRECORD
  5
160
102
{ACAD_REACTORS
330
3A
102
}
330
3A
100
AcDbXrecord
280
     1
  1
GREET
  1
GREET*
  1
*
  1
*
 70
     0
  1
*
  1
*
  0
XRECORD
  5
161
102
{ACAD_REACTORS
330
3A
102
}
330
3A
100
AcDbXrecord
280
     1
  1
grey
  1
*
  1
8
  1
*
 70
     0
  1
*
  1
*
  0
XRECORD
  5
162
102
{ACAD_REACTORS
330
3A
102
}
330
3A
100
AcDbXrecord
280
     1
  1
grid
  1
1784grid-g$0$*
  1
*
  1
*
 70
     0
  1
*
  1
*
  0
XRECORD
  5
163
102
{ACAD_REACTORS
330
3A
102
}
330
3A
100
AcDbXrecord
280
     1
  1
GRID 0FF
  1
*032G
  1
*
  1
*
 70
     0
  1
*
  1
*
  0
XRECORD
  5
164
102
{ACAD_REACTORS
330
3A
102
}
330
3A
100
AcDbXrecord
280
     1
  1
grids
  1
*032g
  1
*
  1
*
 70
     0
  1
*
  1
*
  0
XRECORD
  5
165
102
{ACAD_REACTORS
330
3A
102
}
330
3A
100
AcDbXrecord
280
     1
  1
gridtext102
  1
*
  1
*
  1
*
 70
     0
  1
*
  1
*
  0
XRECORD
  5
166
102
{ACAD_REACTORS
330
3A
102
}
330
3A
100
AcDbXrecord
280
     1
  1
grnd
  1
1784grnd$0$*
  1
*
  1
*
 70
     0
  1
*
  1
*
  0
XRECORD
  5
167
102
{ACAD_REACTORS
330
3A
102
}
330
3A
100
AcDbXrecord
280
     1
  1
GROUND FLOOR
  1
*-00
  1
*
  1
*
 70
     0
  1
*
  1
*
  0
XRECORD
  5
168
102
{ACAD_REACTORS
330
3A
102
}
330
3A
100
AcDbXrecord
280
     1
  1
Ground to First
  1
*G-F*
  1
*
  1
*
 70
     0
  1
*
  1
*
  0
XRECORD
  5
169
102
{ACAD_REACTORS
330
3A
102
}
330
3A
100
AcDbXrecord
280
     1
  1
Ground to Roof
  1
*G-R*
  1
*
  1
*
 70
     0
  1
*
  1
*
  0
XRECORD
  5
16A
102
{ACAD_REACTORS
330
3A
102
}
330
3A
100
AcDbXrecord
280
     1
  1
HAIRDRESSER
  1
HD*
  1
*
  1
*
 70
     0
  1
*
  1
*
  0
XRECORD
  5
16B
102
{ACAD_REACTORS
330
3A
102
}
330
3A
100
AcDbXrecord
280
     1
  1
haljastus
  1
ha*
  1
*
  1
*
 70
     0
  1
*
  1
*
  0
XRECORD
  5
16C
102
{ACAD_REACTORS
330
3A
102
}
330
3A
100
AcDbXrecord
280
     1
  1
hand
  1
*rail*
  1
*
  1
*
 70
     0
  1
*
  1
*
  0
XRECORD
  5
16D
102
{ACAD_REACTORS
330
3A
102
}
330
3A
100
AcDbXrecord
280
     1
  1
HARDWARE
  1
*HARD*
  1
*
  1
*
 70
     0
  1
*
  1
*
  0
XRECORD
  5
16E
102
{ACAD_REACTORS
330
3A
102
}
330
3A
100
AcDbXrecord
280
     1
  1
HAT
  1
*HAT*
  1
*
  1
*
 70
     0
  1
*
  1
*
  0
XRECORD
  5
16F
102
{ACAD_REACTORS
330
3A
102
}
330
3A
100
AcDbXrecord
280
     1
  1
hatch
  1
*
  1
*
  1
*
 70
    23
  1
*
  1
*
  0
XRECORD
  5
170
102
{ACAD_REACTORS
330
3A
102
}
330
3A
100
AcDbXrecord
280
     1
  1
hatch-off
  1
*hatch
  1
*
  1
*
 70
     3
  1
*
  1
*
  0
XRECORD
  5
171
102
{ACAD_REACTORS
330
3A
102
}
330
3A
100
AcDbXrecord
280
     1
  1
hoonestuskava
  1
hk*
  1
*
  1
*
 70
     0
  1
*
  1
*
  0
XRECORD
  5
172
102
{ACAD_REACTORS
330
3A
102
}
330
3A
100
AcDbXrecord
280
     1
  1
HVAC
  1
H*
  1
*
  1
*
 70
     0
  1
*
  1
*
  0
XRECORD
  5
173
102
{ACAD_REACTORS
330
3A
102
}
330
3A
100
AcDbXrecord
280
     1
  1
iden
  1
*iden
  1
*
  1
*
 70
     0
  1
*
  1
*
  0
XRECORD
  5
174
102
{ACAD_REACTORS
330
3A
102
}
330
3A
100
AcDbXrecord
280
     1
  1
INDICATE THICK LINE OF BULKHEAD
  1
*
  1
*
  1
*
 70
    16
  1
*
  1
*
  0
XRECORD
  5
175
102
{ACAD_REACTORS
330
3A
102
}
330
3A
100
AcDbXrecord
280
     1
  1
insulation
  1
*
  1
*
  1
*
 70
     0
  1
*
  1
*
  0
XRECORD
  5
176
102
{ACAD_REACTORS
330
3A
102
}
330
3A
100
AcDbXrecord
280
     1
  1
jack
  1
~*#
  1
*
  1
*
 70
     0
  1
*
  1
*
  0
XRECORD
  5
177
102
{ACAD_REACTORS
330
3A
102
}
330
3A
100
AcDbXrecord
280
     1
  1
JBHGVHG
  1
BAR*
  1
*
  1
*
 70
     0
  1
*
  1
*
  0
XRECORD
  5
178
102
{ACAD_REACTORS
330
3A
102
}
330
3A
100
AcDbXrecord
280
     1
  1
JETO
  1
0
  1
*
  1
*
 70
     0
  1
*
  1
*
  0
XRECORD
  5
179
102
{ACAD_REACTORS
330
3A
102
}
330
3A
100
AcDbXrecord
280
     1
  1
jhd
  1
jhd*
  1
*
  1
*
 70
     0
  1
*
  1
*
  0
XRECORD
  5
17A
102
{ACAD_REACTORS
330
3A
102
}
330
3A
100
AcDbXrecord
280
     1
  1
John-Harrison
  1
W-M-T-*
  1
*
  1
*
 70
     0
  1
*
  1
*
  0
XRECORD
  5
17B
102
{ACAD_REACTORS
330
3A
102
}
330
3A
100
AcDbXrecord
280
     1
  1
JOINERE SETTING OUT
  1
*
  1
*
  1
*
 70
    16
  1
*
  1
*
  0
XRECORD
  5
17C
102
{ACAD_REACTORS
330
3A
102
}
330
3A
100
AcDbXrecord
280
     1
  1
KASUTUSEL
  1
*
  1
*
  1
*
 70
    13
  1
*
  1
*
  0
XRECORD
  5
17D
102
{ACAD_REACTORS
330
3A
102
}
330
3A
100
AcDbXrecord
280
     1
  1
katus
  1
katus *
  1
*
  1
*
 70
     0
  1
*
  1
*
  0
XRECORD
  5
17E
102
{ACAD_REACTORS
330
3A
102
}
330
3A
100
AcDbXrecord
280
     1
  1
KATUSEPLAAN
  1
KATUS
  1
*
  1
*
 70
     0
  1
*
  1
*
  0
XRECORD
  5
17F
102
{ACAD_REACTORS
330
3A
102
}
330
3A
100
AcDbXrecord
280
     1
  1
KAYDIRAKLAR
  1
KAY*
  1
*
  1
*
 70
     0
  1
*
  1
*
  0
XRECORD
  5
180
102
{ACAD_REACTORS
330
3A
102
}
330
3A
100
AcDbXrecord
280
     1
  1
kaylar
  1
*kay*
  1
*
  1
*
 70
     0
  1
*
  1
*
  0
XRECORD
  5
181
102
{ACAD_REACTORS
330
3A
102
}
330
3A
100
AcDbXrecord
280
     1
  1
KENARLAR
  1
*KENAR
  1
*
  1
*
 70
     0
  1
*
  1
*
  0
XRECORD
  5
182
102
{ACAD_REACTORS
330
3A
102
}
330
3A
100
AcDbXrecord
280
     1
  1
kiitoks
  1
kit*
  1
*
  1
*
 70
     0
  1
*
  1
*
  0
XRECORD
  5
183
102
{ACAD_REACTORS
330
3A
102
}
330
3A
100
AcDbXrecord
280
     1
  1
KINNI
  1
*
  1
*
  1
*
 70
     3
  1
*
  1
*
  0
XRECORD
  5
184
102
{ACAD_REACTORS
330
3A
102
}
330
3A
100
AcDbXrecord
280
     1
  1
KIRJANURK
  1
KN *
  1
*
  1
*
 70
     0
  1
*
  1
*
  0
XRECORD
  5
185
102
{ACAD_REACTORS
330
3A
102
}
330
3A
100
AcDbXrecord
280
     1
  1
kitas
  1
k-*
  1
*
  1
*
 70
     0
  1
*
  1
*
  0
XRECORD
  5
186
102
{ACAD_REACTORS
330
3A
102
}
330
3A
100
AcDbXrecord
280
     1
  1
KITCHEN
  1
KITCHEN*
  1
*
  1
*
 70
     0
  1
*
  1
*
  0
XRECORD
  5
187
102
{ACAD_REACTORS
330
3A
102
}
330
3A
100
AcDbXrecord
280
     1
  1
KITCHEN PLAN
  1
*
  1
*
  1
*
 70
    16
  1
*
  1
*
  0
XRECORD
  5
188
102
{ACAD_REACTORS
330
3A
102
}
330
3A
100
AcDbXrecord
280
     1
  1
KITCHEN SETTING OUT
  1
*
  1
*
  1
*
 70
    16
  1
*
  1
*
  0
XRECORD
  5
189
102
{ACAD_REACTORS
330
3A
102
}
330
3A
100
AcDbXrecord
280
     1
  1
KONSOLLAR
  1
KONSOL*
  1
*
  1
*
 70
     0
  1
*
  1
*
  0
XRECORD
  5
18A
102
{ACAD_REACTORS
330
3A
102
}
330
3A
100
AcDbXrecord
280
     1
  1
Koondvõrk
  1
*
  1
*
  1
*
 70
     0
  1
*
  1
*
  0
XRECORD
  5
18B
102
{ACAD_REACTORS
330
3A
102
}
330
3A
100
AcDbXrecord
280
     1
  1
koord
  1
*koord*
  1
*
  1
*
 70
     0
  1
*
  1
*
  0
XRECORD
  5
18C
102
{ACAD_REACTORS
330
3A
102
}
330
3A
100
AcDbXrecord
280
     1
  1
kr
  1
kr*
  1
*
  1
*
 70
     0
  1
*
  1
*
  0
XRECORD
  5
18D
102
{ACAD_REACTORS
330
3A
102
}
330
3A
100
AcDbXrecord
280
     1
  1
L
  1
LUCIEN
  1
*
  1
*
 70
     0
  1
*
  1
*
  0
XRECORD
  5
18E
102
{ACAD_REACTORS
330
3A
102
}
330
3A
100
AcDbXrecord
280
     1
  1
LABIEKARTOJUMS
  1
LB*
  1
*
  1
*
 70
     0
  1
*
  1
*
  0
XRECORD
  5
18F
102
{ACAD_REACTORS
330
3A
102
}
330
3A
100
AcDbXrecord
280
     1
  1
LAHTI
  1
*
  1
*
  1
*
 70
     1
  1
*
  1
*
  0
XRECORD
  5
190
102
{ACAD_REACTORS
330
3A
102
}
330
3A
100
AcDbXrecord
280
     1
  1
Layer off
  1
*
  1
*
  1
*
 70
     3
  1
*
  1
*
  0
XRECORD
  5
191
102
{ACAD_REACTORS
330
3A
102
}
330
3A
100
AcDbXrecord
280
     1
  1
LIBRARY
  1
LIBRARY*
  1
*
  1
*
 70
     0
  1
*
  1
*
  0
XRECORD
  5
192
102
{ACAD_REACTORS
330
3A
102
}
330
3A
100
AcDbXrecord
280
     1
  1
licencing
  1
*
  1
*
  1
*
 70
    16
  1
*
  1
*
  0
XRECORD
  5
193
102
{ACAD_REACTORS
330
3A
102
}
330
3A
100
AcDbXrecord
280
     1
  1
lift
  1
lift*
  1
*
  1
*
 70
     0
  1
*
  1
*
  0
XRECORD
  5
194
102
{ACAD_REACTORS
330
3A
102
}
330
3A
100
AcDbXrecord
280
     1
  1
LIGHT
  1
LIGHT*
  1
*
  1
*
 70
     0
  1
*
  1
*
  0
XRECORD
  5
195
102
{ACAD_REACTORS
330
3A
102
}
330
3A
100
AcDbXrecord
280
     1
  1
Lighting
  1
light*
  1
*
  1
*
 70
     0
  1
*
  1
*
  0
XRECORD
  5
196
102
{ACAD_REACTORS
330
3A
102
}
330
3A
100
AcDbXrecord
280
     1
  1
liik
  1
liik*
  1
*
  1
*
 70
     0
  1
*
  1
*
  0
XRECORD
  5
197
102
{ACAD_REACTORS
330
3A
102
}
330
3A
100
AcDbXrecord
280
     1
  1
LINII
  1
LINI*
  1
*
  1
*
 70
     0
  1
*
  1
*
  0
XRECORD
  5
198
102
{ACAD_REACTORS
330
3A
102
}
330
3A
100
AcDbXrecord
280
     1
  1
lk
  1
*
  1
*
  1
*
 70
   256
  1
*
  1
*
  0
XRECORD
  5
199
102
{ACAD_REACTORS
330
3A
102
}
330
3A
100
AcDbXrecord
280
     1
  1
LOBBY
  1
LOBBY*
  1
*
  1
*
 70
     0
  1
*
  1
*
  0
XRECORD
  5
19A
102
{ACAD_REACTORS
330
3A
102
}
330
3A
100
AcDbXrecord
280
     1
  1
LOBBY AND OFFICE
  1
LOBBY*,OFFICE
  1
*
  1
*
 70
     0
  1
*
  1
*
  0
XRECORD
  5
19B
102
{ACAD_REACTORS
330
3A
102
}
330
3A
100
AcDbXrecord
280
     1
  1
LOCK
  1
-*
  1
*
  1
*
 70
   256
  1
*
  1
*
  0
XRECORD
  5
19C
102
{ACAD_REACTORS
330
3A
102
}
330
3A
100
AcDbXrecord
280
     1
  1
locked
  1
*
  1
*
  1
*
 70
   256
  1
*
  1
*
  0
XRECORD
  5
19D
102
{ACAD_REACTORS
330
3A
102
}
330
3A
100
AcDbXrecord
280
     1
  1
LUKKU
  1
*
  1
*
  1
*
 70
   257
  1
*
  1
*
  0
XRECORD
  5
19E
102
{ACAD_REACTORS
330
3A
102
}
330
3A
100
AcDbXrecord
280
     1
  1
LÕIGE
  1
LÕIGE *
  1
*
  1
*
 70
     0
  1
*
  1
*
  0
XRECORD
  5
19F
102
{ACAD_REACTORS
330
3A
102
}
330
3A
100
AcDbXrecord
280
     1
  1
M1
  1
*M1*
  1
*
  1
*
 70
     0
  1
*
  1
*
  0
XRECORD
  5
1A0
102
{ACAD_REACTORS
330
3A
102
}
330
3A
100
AcDbXrecord
280
     1
  1
magenta
  1
*
  1
magenta
  1
*
 70
     0
  1
*
  1
*
  0
XRECORD
  5
1A1
102
{ACAD_REACTORS
330
3A
102
}
330
3A
100
AcDbXrecord
280
     1
  1
Magna2000
  1
MAGNA2000$*
  1
*
  1
*
 70
     0
  1
*
  1
*
  0
XRECORD
  5
1A2
102
{ACAD_REACTORS
330
3A
102
}
330
3A
100
AcDbXrecord
280
     1
  1
MDM1
  1
X0*
  1
*
  1
*
 70
   775
  1
*
  1
*
  0
XRECORD
  5
1A3
102
{ACAD_REACTORS
330
3A
102
}
330
3A
100
AcDbXrecord
280
     1
  1
mech
  1
*mech*
  1
*
  1
*
 70
     0
  1
*
  1
*
  0
XRECORD
  5
1A4
102
{ACAD_REACTORS
330
3A
102
}
330
3A
100
AcDbXrecord
280
     1
  1
MECHANICAL
  1
*MECH*
  1
*
  1
*
 70
     0
  1
*
  1
*
  0
XRECORD
  5
1A5
102
{ACAD_REACTORS
330
3A
102
}
330
3A
100
AcDbXrecord
280
     1
  1
MEMBRANE
  1
*
  1
*
  1
*
 70
     0
  1
*
  1
*
  0
XRECORD
  5
1A6
102
{ACAD_REACTORS
330
3A
102
}
330
3A
100
AcDbXrecord
280
     1
  1
moje
  1
A *, PS*
  1
*
  1
*
 70
     0
  1
*
  1
*
  0
XRECORD
  5
1A7
102
{ACAD_REACTORS
330
3A
102
}
330
3A
100
AcDbXrecord
280
     1
  1
N
  1
N_*
  1
*
  1
*
 70
     0
  1
*
  1
*
  0
XRECORD
  5
1A8
102
{ACAD_REACTORS
330
3A
102
}
330
3A
100
AcDbXrecord
280
     1
  1
N_
  1
N_*
  1
*
  1
*
 70
     0
  1
*
  1
*
  0
XRECORD
  5
1A9
102
{ACAD_REACTORS
330
3A
102
}
330
3A
100
AcDbXrecord
280
     1
  1
ncw
  1
*
  1
*red
  1
*
 70
     0
  1
*
  1
*
  0
XRECORD
  5
1AA
102
{ACAD_REACTORS
330
3A
102
}
330
3A
100
AcDbXrecord
280
     1
  1
NERO
  1
NERO*
  1
*
  1
*
 70
     0
  1
*
  1
*
  0
XRECORD
  5
1AB
102
{ACAD_REACTORS
330
3A
102
}
330
3A
100
AcDbXrecord
280
     1
  1
No Nums
  1
~*#
  1
*
  1
*
 70
     0
  1
*
  1
*
  0
XRECORD
  5
1AC
102
{ACAD_REACTORS
330
3A
102
}
330
3A
100
AcDbXrecord
280
     1
  1
nofurn
  1
*_1,2,3
  1
*
  1
*
 70
     0
  1
*
  1
*
  0
XRECORD
  5
1AD
102
{ACAD_REACTORS
330
3A
102
}
330
3A
100
AcDbXrecord
280
     1
  1
nofurn1
  1
*_2
  1
*
  1
*
 70
     0
  1
*
  1
*
  0
XRECORD
  5
1AE
102
{ACAD_REACTORS
330
3A
102
}
330
3A
100
AcDbXrecord
280
     1
  1
nofurn2
  1
*_3
  1
*
  1
*
 70
     0
  1
*
  1
*
  0
XRECORD
  5
1AF
102
{ACAD_REACTORS
330
3A
102
}
330
3A
100
AcDbXrecord
280
     1
  1
NON XREF DEPENDANTS
  1
*DEMO*
  1
*
  1
*
 70
     0
  1
*
  1
*
  0
XRECORD
  5
1B0
102
{ACAD_REACTORS
330
3A
102
}
330
3A
100
AcDbXrecord
280
     1
  1
Nosuc
  1
N_*
  1
*
  1
*
 70
     0
  1
*
  1
*
  0
XRECORD
  5
1B1
102
{ACAD_REACTORS
330
3A
102
}
330
3A
100
AcDbXrecord
280
     1
  1
npl
  1
*
  1
*
  1
*
 70
  3072
  1
*
  1
*
  0
XRECORD
  5
1B2
102
{ACAD_REACTORS
330
3A
102
}
330
3A
100
AcDbXrecord
280
     1
  1
nurgapu
  1
*
  1
*
  1
*
 70
    13
  1
*
  1
*
  0
XRECORD
  5
1B3
102
{ACAD_REACTORS
330
3A
102
}
330
3A
100
AcDbXrecord
280
     1
  1
nõrkvool
  1
arvuti
  1
*
  1
*
 70
     0
  1
*
  1
*
  0
XRECORD
  5
1B4
102
{ACAD_REACTORS
330
3A
102
}
330
3A
100
AcDbXrecord
280
     1
  1
off
  1
*
  1
*
  1
*
 70
     3
  1
*
  1
*
  0
XRECORD
  5
1B5
102
{ACAD_REACTORS
330
3A
102
}
330
3A
100
AcDbXrecord
280
     1
  1
OFFICE
  1
*OFFICE*
  1
*
  1
*
 70
     0
  1
*
  1
*
  0
XRECORD
  5
1B6
102
{ACAD_REACTORS
330
3A
102
}
330
3A
100
AcDbXrecord
280
     1
  1
OFFICE FIRST FLOOR
  1
*-01
  1
*
  1
*
 70
     0
  1
*
  1
*
  0
XRECORD
  5
1B7
102
{ACAD_REACTORS
330
3A
102
}
330
3A
100
AcDbXrecord
280
     1
  1
on
  1
*
  1
*
  1
*
 70
     1
  1
*
  1
*
  0
XRECORD
  5
1B8
102
{ACAD_REACTORS
330
3A
102
}
330
3A
100
AcDbXrecord
280
     1
  1
on and thawed
  1
*
  1
*
  1
*
 70
    13
  1
*
  1
*
  0
XRECORD
  5
1B9
102
{ACAD_REACTORS
330
3A
102
}
330
3A
100
AcDbXrecord
280
     1
  1
onlayers
  1
*
  1
*
  1
*
 70
    13
  1
*
  1
*
  0
XRECORD
  5
1BA
102
{ACAD_REACTORS
330
3A
102
}
330
3A
100
AcDbXrecord
280
     1
  1
OP1
  1
*op1*
  1
*
  1
*
 70
     0
  1
*
  1
*
  0
XRECORD
  5
1BB
102
{ACAD_REACTORS
330
3A
102
}
330
3A
100
AcDbXrecord
280
     1
  1
OP2
  1
*op2*
  1
*
  1
*
 70
     0
  1
*
  1
*
  0
XRECORD
  5
1BC
102
{ACAD_REACTORS
330
3A
102
}
330
3A
100
AcDbXrecord
280
     1
  1
option 1
  1
1*
  1
*
  1
*
 70
     0
  1
*
  1
*
  0
XRECORD
  5
1BD
102
{ACAD_REACTORS
330
3A
102
}
330
3A
100
AcDbXrecord
280
     1
  1
option 2
  1
2*
  1
*
  1
*
 70
     0
  1
*
  1
*
  0
XRECORD
  5
1BE
102
{ACAD_REACTORS
330
3A
102
}
330
3A
100
AcDbXrecord
280
     1
  1
Option1
  1
A210G704_walls Internal
  1
*
  1
*
 70
     0
  1
*
  1
*
  0
XRECORD
  5
1BF
102
{ACAD_REACTORS
330
3A
102
}
330
3A
100
AcDbXrecord
280
     1
  1
option4
  1
option4*
  1
*
  1
*
 70
     0
  1
*
  1
*
  0
XRECORD
  5
1C0
102
{ACAD_REACTORS
330
3A
102
}
330
3A
100
AcDbXrecord
280
     1
  1
Option5
  1
??????05*
  1
*
  1
*
 70
     0
  1
*
  1
*
  0
XRECORD
  5
1C1
102
{ACAD_REACTORS
330
3A
102
}
330
3A
100
AcDbXrecord
280
     1
  1
ORIGINAL
  1
*
  1
*
  1
*
 70
    13
  1
*
  1
*
  0
XRECORD
  5
1C2
102
{ACAD_REACTORS
330
3A
102
}
330
3A
100
AcDbXrecord
280
     1
  1
out
  1
*out*
  1
*
  1
*
 70
     0
  1
*
  1
*
  0
XRECORD
  5
1C3
102
{ACAD_REACTORS
330
3A
102
}
330
3A
100
AcDbXrecord
280
     1
  1
Outer
  1
ert*
  1
*
  1
*
 70
     0
  1
*
  1
*
  0
XRECORD
  5
1C4
102
{ACAD_REACTORS
330
3A
102
}
330
3A
100
AcDbXrecord
280
     1
  1
outline
  1
*outline
  1
*
  1
*
 70
     0
  1
*
  1
*
  0
XRECORD
  5
1C5
102
{ACAD_REACTORS
330
3A
102
}
330
3A
100
AcDbXrecord
280
     1
  1
P
  1
P *
  1
*
  1
*
 70
     0
  1
*
  1
*
  0
XRECORD
  5
1C6
102
{ACAD_REACTORS
330
3A
102
}
330
3A
100
AcDbXrecord
280
     1
  1
P - LAYERS
  1
*P_*
  1
*
  1
*
 70
     0
  1
*
  1
*
  0
XRECORD
  5
1C7
102
{ACAD_REACTORS
330
3A
102
}
330
3A
100
AcDbXrecord
280
     1
  1
P _
  1
*P_*
  1
*
  1
*
 70
     0
  1
*
  1
*
  0
XRECORD
  5
1C8
102
{ACAD_REACTORS
330
3A
102
}
330
3A
100
AcDbXrecord
280
     1
  1
P-LAYERS
  1
*P_*
  1
*
  1
*
 70
     0
  1
*
  1
*
  0
XRECORD
  5
1C9
102
{ACAD_REACTORS
330
3A
102
}
330
3A
100
AcDbXrecord
280
     1
  1
PH
  1
PH*
  1
*
  1
*
 70
     0
  1
*
  1
*
  0
XRECORD
  5
1CA
102
{ACAD_REACTORS
330
3A
102
}
330
3A
100
AcDbXrecord
280
     1
  1
phase 1
  1
*01
  1
*
  1
*
 70
     0
  1
*
  1
*
  0
XRECORD
  5
1CB
102
{ACAD_REACTORS
330
3A
102
}
330
3A
100
AcDbXrecord
280
     1
  1
PHEALTH
  1
P-*
  1
*
  1
*
 70
     0
  1
*
  1
*
  0
XRECORD
  5
1CC
102
{ACAD_REACTORS
330
3A
102
}
330
3A
100
AcDbXrecord
280
     1
  1
PHIL
  1
*
  1
*
  1
*
 70
    16
  1
*
  1
*
  0
XRECORD
  5
1CD
102
{ACAD_REACTORS
330
3A
102
}
330
3A
100
AcDbXrecord
280
     1
  1
Piepl
  1
P_*
  1
*
  1
*
 70
     0
  1
*
  1
*
  0
XRECORD
  5
1CE
102
{ACAD_REACTORS
330
3A
102
}
330
3A
100
AcDbXrecord
280
     1
  1
PIPE
  1
P-*
  1
*
  1
*
 70
     0
  1
*
  1
*
  0
XRECORD
  5
1CF
102
{ACAD_REACTORS
330
3A
102
}
330
3A
100
AcDbXrecord
280
     1
  1
pipes
  1
pipe*
  1
*
  1
*
 70
     0
  1
*
  1
*
  0
XRECORD
  5
1D0
102
{ACAD_REACTORS
330
3A
102
}
330
3A
100
AcDbXrecord
280
     1
  1
Pipes1
  1
pipes1*
  1
*
  1
*
 70
     0
  1
*
  1
*
  0
XRECORD
  5
1D1
102
{ACAD_REACTORS
330
3A
102
}
330
3A
100
AcDbXrecord
280
     1
  1
Pipework
  1
*Pipe*
  1
*
  1
*
 70
     0
  1
*
  1
*
  0
XRECORD
  5
1D2
102
{ACAD_REACTORS
330
3A
102
}
330
3A
100
AcDbXrecord
280
     1
  1
pirmas
  1
K-*
  1
*
  1
*
 70
     0
  1
*
  1
*
  0
XRECORD
  5
1D3
102
{ACAD_REACTORS
330
3A
102
}
330
3A
100
AcDbXrecord
280
     1
  1
PIZZA
  1
PIZZA*,2D*
  1
*
  1
*
 70
     0
  1
*
  1
*
  0
XRECORD
  5
1D4
102
{ACAD_REACTORS
330
3A
102
}
330
3A
100
AcDbXrecord
280
     1
  1
pk 2d-plan
  1
*
  1
*
  1
*
 70
     3
  1
*
  1
*
  0
XRECORD
  5
1D5
102
{ACAD_REACTORS
330
3A
102
}
330
3A
100
AcDbXrecord
280
     1
  1
pl
  1
*
  1
*
  1
*
 70
  1024
  1
*
  1
*
  0
XRECORD
  5
1D6
102
{ACAD_REACTORS
330
3A
102
}
330
3A
100
AcDbXrecord
280
     1
  1
PL1
  1
PAUL
  1
*
  1
*
 70
     0
  1
*
  1
*
  0
XRECORD
  5
1D7
102
{ACAD_REACTORS
330
3A
102
}
330
3A
100
AcDbXrecord
280
     1
  1
PLAKALAR
  1
PLAKA*
  1
*
  1
*
 70
     0
  1
*
  1
*
  0
XRECORD
  5
1D8
102
{ACAD_REACTORS
330
3A
102
}
330
3A
100
AcDbXrecord
280
     1
  1
planas
  1
k-*
  1
*
  1
*
 70
     0
  1
*
  1
*
  0
XRECORD
  5
1D9
102
{ACAD_REACTORS
330
3A
102
}
330
3A
100
AcDbXrecord
280
     1
  1
PLINTH
  1
*PLINTH*
  1
*
  1
*
 70
     0
  1
*
  1
*
  0
XRECORD
  5
1DA
102
{ACAD_REACTORS
330
3A
102
}
330
3A
100
AcDbXrecord
280
     1
  1
PLINTHS
  1
*PLINTH*
  1
*
  1
*
 70
     0
  1
*
  1
*
  0
XRECORD
  5
1DB
102
{ACAD_REACTORS
330
3A
102
}
330
3A
100
AcDbXrecord
280
     1
  1
PLO
  1
*
  1
*
  1
*
 70
  1036
  1
*
  1
*
  0
XRECORD
  5
1DC
102
{ACAD_REACTORS
330
3A
102
}
330
3A
100
AcDbXrecord
280
     1
  1
plot
  1
*
  1
*
  1
*
 70
  1024
  1
*
  1
*
  0
XRECORD
  5
1DD
102
{ACAD_REACTORS
330
3A
102
}
330
3A
100
AcDbXrecord
280
     1
  1
plumbing
  1
*plumbing*
  1
*
  1
*
 70
     0
  1
*
  1
*
  0
XRECORD
  5
1DE
102
{ACAD_REACTORS
330
3A
102
}
330
3A
100
AcDbXrecord
280
     1
  1
PN
  1
PN_*
  1
*
  1
*
 70
     0
  1
*
  1
*
  0
XRECORD
  5
1DF
102
{ACAD_REACTORS
330
3A
102
}
330
3A
100
AcDbXrecord
280
     1
  1
PN_N
  1
PN_*N
  1
*
  1
*
 70
     0
  1
*
  1
*
  0
XRECORD
  5
1E0
102
{ACAD_REACTORS
330
3A
102
}
330
3A
100
AcDbXrecord
280
     1
  1
PN_P
  1
PN_*P
  1
*
  1
*
 70
     0
  1
*
  1
*
  0
XRECORD
  5
1E1
102
{ACAD_REACTORS
330
3A
102
}
330
3A
100
AcDbXrecord
280
     1
  1
porch
  1
porch*
  1
*
  1
*
 70
     0
  1
*
  1
*
  0
XRECORD
  5
1E2
102
{ACAD_REACTORS
330
3A
102
}
330
3A
100
AcDbXrecord
280
     1
  1
Power
  1
Power*
  1
*
  1
*
 70
     0
  1
*
  1
*
  0
XRECORD
  5
1E3
102
{ACAD_REACTORS
330
3A
102
}
330
3A
100
AcDbXrecord
280
     1
  1
PR
  1
X-NIVEL1*
  1
10
  1
*
 70
    13
  1
*
  1
*
  0
XRECORD
  5
1E4
102
{ACAD_REACTORS
330
3A
102
}
330
3A
100
AcDbXrecord
280
     1
  1
PR-TRASSID
  1
pr-*
  1
*
  1
*
 70
     0
  1
*
  1
*
  0
XRECORD
  5
1E5
102
{ACAD_REACTORS
330
3A
102
}
330
3A
100
AcDbXrecord
280
     1
  1
prep
  1
*prep*
  1
*
  1
*
 70
     0
  1
*
  1
*
  0
XRECORD
  5
1E6
102
{ACAD_REACTORS
330
3A
102
}
330
3A
100
AcDbXrecord
280
     1
  1
primary
  1
*primary*
  1
*
  1
*
 70
     0
  1
*
  1
*
  0
XRECORD
  5
1E7
102
{ACAD_REACTORS
330
3A
102
}
330
3A
100
AcDbXrecord
280
     1
  1
proj
  1
pr*
  1
*
  1
*
 70
     0
  1
*
  1
*
  0
XRECORD
  5
1E8
102
{ACAD_REACTORS
330
3A
102
}
330
3A
100
AcDbXrecord
280
     1
  1
proj-trassid
  1
pr*
  1
*
  1
*
 70
     0
  1
*
  1
*
  0
XRECORD
  5
1E9
102
{ACAD_REACTORS
330
3A
102
}
330
3A
100
AcDbXrecord
280
     1
  1
PROP
  1
PROP *
  1
*
  1
*
 70
     0
  1
*
  1
*
  0
XRECORD
  5
1EA
102
{ACAD_REACTORS
330
3A
102
}
330
3A
100
AcDbXrecord
280
     1
  1
prop builders work
  1
*
  1
*
  1
*
 70
    16
  1
*
  1
*
  0
XRECORD
  5
1EB
102
{ACAD_REACTORS
330
3A
102
}
330
3A
100
AcDbXrecord
280
     1
  1
proposed
  1
???????5*
  1
*
  1
*
 70
     0
  1
*
  1
*
  0
XRECORD
  5
1EC
102
{ACAD_REACTORS
330
3A
102
}
330
3A
100
AcDbXrecord
280
     1
  1
ps
  1
*ps
  1
*
  1
*
 70
     0
  1
*
  1
*
  0
XRECORD
  5
1ED
102
{ACAD_REACTORS
330
3A
102
}
330
3A
100
AcDbXrecord
280
     1
  1
PU
  1
PU *
  1
*
  1
*
 70
     0
  1
*
  1
*
  0
XRECORD
  5
1EE
102
{ACAD_REACTORS
330
3A
102
}
330
3A
100
AcDbXrecord
280
     1
  1
qq
  1
02bu*
  1
*
  1
*
 70
     0
  1
*
  1
*
  0
XRECORD
  5
1EF
102
{ACAD_REACTORS
330
3A
102
}
330
3A
100
AcDbXrecord
280
     1
  1
r
  1
11*
  1
*
  1
*
 70
     0
  1
*
  1
*
  0
XRECORD
  5
1F0
102
{ACAD_REACTORS
330
3A
102
}
330
3A
100
AcDbXrecord
280
     1
  1
R0
  1
*R0*
  1
*
  1
*
 70
     0
  1
*
  1
*
  0
XRECORD
  5
1F1
102
{ACAD_REACTORS
330
3A
102
}
330
3A
100
AcDbXrecord
280
     1
  1
R1
  1
*R1*
  1
*
  1
*
 70
     0
  1
*
  1
*
  0
XRECORD
  5
1F2
102
{ACAD_REACTORS
330
3A
102
}
330
3A
100
AcDbXrecord
280
     1
  1
R2
  1
*R2*
  1
*
  1
*
 70
     0
  1
*
  1
*
  0
XRECORD
  5
1F3
102
{ACAD_REACTORS
330
3A
102
}
330
3A
100
AcDbXrecord
280
     1
  1
R3
  1
*R3*
  1
*
  1
*
 70
     0
  1
*
  1
*
  0
XRECORD
  5
1F4
102
{ACAD_REACTORS
330
3A
102
}
330
3A
100
AcDbXrecord
280
     1
  1
rack
  1
*rack*
  1
*
  1
*
 70
     0
  1
*
  1
*
  0
XRECORD
  5
1F5
102
{ACAD_REACTORS
330
3A
102
}
330
3A
100
AcDbXrecord
280
     1
  1
RCP
  1
A-CLG-*
  1
*
  1
*
 70
     0
  1
*
  1
*
  0
XRECORD
  5
1F6
102
{ACAD_REACTORS
330
3A
102
}
330
3A
100
AcDbXrecord
280
     1
  1
RED
  1
*
  1
RED
  1
*
 70
     0
  1
*
  1
*
  0
XRECORD
  5
1F7
102
{ACAD_REACTORS
330
3A
102
}
330
3A
100
AcDbXrecord
280
     1
  1
reds
  1
*
  1
red
  1
*
 70
     0
  1
*
  1
*
  0
XRECORD
  5
1F8
102
{ACAD_REACTORS
330
3A
102
}
330
3A
100
AcDbXrecord
280
     1
  1
ref ceiling
  1
*
  1
*
  1
*
 70
    16
  1
*
  1
*
  0
XRECORD
  5
1F9
102
{ACAD_REACTORS
330
3A
102
}
330
3A
100
AcDbXrecord
280
     1
  1
ref ceiling 1
  1
*
  1
*
  1
*
 70
    16
  1
*
  1
*
  0
XRECORD
  5
1FA
102
{ACAD_REACTORS
330
3A
102
}
330
3A
100
AcDbXrecord
280
     1
  1
REFLECTED CEILING PLAN
  1
*
  1
*
  1
*
 70
    16
  1
*
  1
*
  0
XRECORD
  5
1FB
102
{ACAD_REACTORS
330
3A
102
}
330
3A
100
AcDbXrecord
280
     1
  1
REI ainult
  1
REI-
  1
*
  1
*
 70
     1
  1
*
  1
*
  0
XRECORD
  5
1FC
102
{ACAD_REACTORS
330
3A
102
}
330
3A
100
AcDbXrecord
280
     1
  1
RELECTED CEILING PLAN 012
  1
*
  1
*
  1
*
 70
    16
  1
*
  1
*
  0
XRECORD
  5
1FD
102
{ACAD_REACTORS
330
3A
102
}
330
3A
100
AcDbXrecord
280
     1
  1
REST
  1
REST*
  1
*
  1
*
 70
     0
  1
*
  1
*
  0
XRECORD
  5
1FE
102
{ACAD_REACTORS
330
3A
102
}
330
3A
100
AcDbXrecord
280
     1
  1
restaurant
  1
rest*
  1
*
  1
*
 70
     0
  1
*
  1
*
  0
XRECORD
  5
1FF
102
{ACAD_REACTORS
330
3A
102
}
330
3A
100
AcDbXrecord
280
     1
  1
rev
  1
*revc*
  1
*
  1
*
 70
     0
  1
*
  1
*
  0
XRECORD
  5
200
102
{ACAD_REACTORS
330
3A
102
}
330
3A
100
AcDbXrecord
280
     1
  1
Revs
  1
r*
  1
*
  1
*
 70
     0
  1
*
  1
*
  0
XRECORD
  5
201
102
{ACAD_REACTORS
330
3A
102
}
330
3A
100
AcDbXrecord
280
     1
  1
ROHELINE
  1
*
  1
GREEN
  1
*
 70
     0
  1
*
  1
*
  0
XRECORD
  5
202
102
{ACAD_REACTORS
330
3A
102
}
330
3A
100
AcDbXrecord
280
     1
  1
ROOFLIGHT
  1
ROOFLIGHT*
  1
*
  1
*
 70
     0
  1
*
  1
*
  0
XRECORD
  5
203
102
{ACAD_REACTORS
330
3A
102
}
330
3A
100
AcDbXrecord
280
     1
  1
rsfl
  1
a33*
  1
*
  1
*
 70
     0
  1
*
  1
*
  0
XRECORD
  5
204
102
{ACAD_REACTORS
330
3A
102
}
330
3A
100
AcDbXrecord
280
     1
  1
s
  1
s-*
  1
*
  1
*
 70
     0
  1
*
  1
*
  0
XRECORD
  5
205
102
{ACAD_REACTORS
330
3A
102
}
330
3A
100
AcDbXrecord
280
     1
  1
S - LAYERS
  1
*S_*
  1
*
  1
*
 70
     0
  1
*
  1
*
  0
XRECORD
  5
206
102
{ACAD_REACTORS
330
3A
102
}
330
3A
100
AcDbXrecord
280
     1
  1
s 1
  1
*
  1
7
  1
*
 70
     0
  1
*
  1
*
  0
XRECORD
  5
207
102
{ACAD_REACTORS
330
3A
102
}
330
3A
100
AcDbXrecord
280
     1
  1
saldymas
  1
*
  1
*
  1
*
 70
     0
  1
*
  1
*
  0
XRECORD
  5
208
102
{ACAD_REACTORS
330
3A
102
}
330
3A
100
AcDbXrecord
280
     1
  1
san
  1
*san*
  1
*
  1
*
 70
     0
  1
*
  1
*
  0
XRECORD
  5
209
102
{ACAD_REACTORS
330
3A
102
}
330
3A
100
AcDbXrecord
280
     1
  1
SANDSTONE
  1
SAND*
  1
*
  1
*
 70
     0
  1
*
  1
*
  0
XRECORD
  5
20A
102
{ACAD_REACTORS
330
3A
102
}
330
3A
100
AcDbXrecord
280
     1
  1
sanitary
  1
*san*
  1
*
  1
*
 70
     0
  1
*
  1
*
  0
XRECORD
  5
20B
102
{ACAD_REACTORS
330
3A
102
}
330
3A
100
AcDbXrecord
280
     1
  1
SCALE 100 TEXT
  1
*F
  1
*
  1
*
 70
     0
  1
*
  1
*
  0
XRECORD
  5
20C
102
{ACAD_REACTORS
330
3A
102
}
330
3A
100
AcDbXrecord
280
     1
  1
SCALE 200 TEXT
  1
*G
  1
*
  1
*
 70
     0
  1
*
  1
*
  0
XRECORD
  5
20D
102
{ACAD_REACTORS
330
3A
102
}
330
3A
100
AcDbXrecord
280
     1
  1
SCALE 50 TEXT
  1
*E
  1
*
  1
*
 70
     0
  1
*
  1
*
  0
XRECORD
  5
20E
102
{ACAD_REACTORS
330
3A
102
}
330
3A
100
AcDbXrecord
280
     1
  1
screed plan
  1
*
  1
*
  1
*
 70
    16
  1
*
  1
*
  0
XRECORD
  5
20F
102
{ACAD_REACTORS
330
3A
102
}
330
3A
100
AcDbXrecord
280
     1
  1
SEC
  1
*sec*
  1
*
  1
*
 70
     0
  1
*
  1
*
  0
XRECORD
  5
210
102
{ACAD_REACTORS
330
3A
102
}
330
3A
100
AcDbXrecord
280
     1
  1
secondary
  1
*secondary*
  1
*
  1
*
 70
     0
  1
*
  1
*
  0
XRECORD
  5
211
102
{ACAD_REACTORS
330
3A
102
}
330
3A
100
AcDbXrecord
280
     1
  1
section
  1
sec*
  1
*
  1
*
 70
     0
  1
*
  1
*
  0
XRECORD
  5
212
102
{ACAD_REACTORS
330
3A
102
}
330
3A
100
AcDbXrecord
280
     1
  1
SELF SERVICE
  1
*SELF SERV*
  1
*
  1
*
 70
     0
  1
*
  1
*
  0
XRECORD
  5
213
102
{ACAD_REACTORS
330
3A
102
}
330
3A
100
AcDbXrecord
280
     1
  1
servery
  1
servery*
  1
*
  1
*
 70
     0
  1
*
  1
*
  0
XRECORD
  5
214
102
{ACAD_REACTORS
330
3A
102
}
330
3A
100
AcDbXrecord
280
     1
  1
SERVICES
  1
00*
  1
*
  1
*
 70
     0
  1
*
  1
*
  0
XRECORD
  5
215
102
{ACAD_REACTORS
330
3A
102
}
330
3A
100
AcDbXrecord
280
     1
  1
SF
  1
SF*
  1
*
  1
*
 70
     0
  1
*
  1
*
  0
XRECORD
  5
216
102
{ACAD_REACTORS
330
3A
102
}
330
3A
100
AcDbXrecord
280
     1
  1
shadow
  1
*shadow
  1
*
  1
*
 70
     0
  1
*
  1
*
  0
XRECORD
  5
217
102
{ACAD_REACTORS
330
3A
102
}
330
3A
100
AcDbXrecord
280
     1
  1
shadow-off
  1
*SHADOW
  1
*
  1
*
 70
     0
  1
*
  1
*
  0
XRECORD
  5
218
102
{ACAD_REACTORS
330
3A
102
}
330
3A
100
AcDbXrecord
280
     1
  1
SHELF
  1
*SHEL*
  1
*
  1
*
 70
    12
  1
*
  1
*
  0
XRECORD
  5
219
102
{ACAD_REACTORS
330
3A
102
}
330
3A
100
AcDbXrecord
280
     1
  1
SHELVES
  1
*SHEL*
  1
*
  1
*
 70
     0
  1
*
  1
*
  0
XRECORD
  5
21A
102
{ACAD_REACTORS
330
3A
102
}
330
3A
100
AcDbXrecord
280
     1
  1
shema
  1
*shema
  1
*
  1
*
 70
     0
  1
*
  1
*
  0
XRECORD
  5
21B
102
{ACAD_REACTORS
330
3A
102
}
330
3A
100
AcDbXrecord
280
     1
  1
sienos
  1
Sie*
  1
*
  1
*
 70
     0
  1
*
  1
*
  0
XRECORD
  5
21C
102
{ACAD_REACTORS
330
3A
102
}
330
3A
100
AcDbXrecord
280
     1
  1
SIGNAGE
  1
*
  1
*
  1
*
 70
     0
  1
*
  1
*
  0
XRECORD
  5
21D
102
{ACAD_REACTORS
330
3A
102
}
330
3A
100
AcDbXrecord
280
     1
  1
SINBLU
  1
*
  1
blue
  1
*
 70
     0
  1
*
  1
*
  0
XRECORD
  5
21E
102
{ACAD_REACTORS
330
3A
102
}
330
3A
100
AcDbXrecord
280
     1
  1
Sinergy
  1
_*
  1
*
  1
*
 70
     0
  1
*
  1
*
  0
XRECORD
  5
21F
102
{ACAD_REACTORS
330
3A
102
}
330
3A
100
AcDbXrecord
280
     1
  1
SININE
  1
*
  1
BLUE
  1
*
 70
     0
  1
*
  1
*
  0
XRECORD
  5
220
102
{ACAD_REACTORS
330
3A
102
}
330
3A
100
AcDbXrecord
280
     1
  1
SININE1
  1
*
  1
BLUE
  1
*
 70
     0
  1
*
  1
*
  0
XRECORD
  5
221
102
{ACAD_REACTORS
330
3A
102
}
330
3A
100
AcDbXrecord
280
     1
  1
SIT
  1
SIT*
  1
*
  1
*
 70
     0
  1
*
  1
*
  0
XRECORD
  5
222
102
{ACAD_REACTORS
330
3A
102
}
330
3A
100
AcDbXrecord
280
     1
  1
SITE
  1
SITE*
  1
*
  1
*
 70
     0
  1
*
  1
*
  0
XRECORD
  5
223
102
{ACAD_REACTORS
330
3A
102
}
330
3A
100
AcDbXrecord
280
     1
  1
siyah
  1
*
  1
*
  1
*
 70
     4
  1
*
  1
siyah
  0
XRECORD
  5
224
102
{ACAD_REACTORS
330
3A
102
}
330
3A
100
AcDbXrecord
280
     1
  1
skersinis
  1
Sk*
  1
*
  1
*
 70
     0
  1
*
  1
*
  0
XRECORD
  5
225
102
{ACAD_REACTORS
330
3A
102
}
330
3A
100
AcDbXrecord
280
     1
  1
solid
  1
*hatch*
  1
*
  1
*
 70
     0
  1
*
  1
*
  0
XRECORD
  5
226
102
{ACAD_REACTORS
330
3A
102
}
330
3A
100
AcDbXrecord
280
     1
  1
solid fills
  1
*-h
  1
*
  1
*
 70
     0
  1
*
  1
*
  0
XRECORD
  5
227
102
{ACAD_REACTORS
330
3A
102
}
330
3A
100
AcDbXrecord
280
     1
  1
SPIRAL
  1
SPIRAL*
  1
*
  1
*
 70
     0
  1
*
  1
*
  0
XRECORD
  5
228
102
{ACAD_REACTORS
330
3A
102
}
330
3A
100
AcDbXrecord
280
     1
  1
SPOTLIGHTS
  1
SPOT*
  1
*
  1
*
 70
     0
  1
*
  1
*
  0
XRECORD
  5
229
102
{ACAD_REACTORS
330
3A
102
}
330
3A
100
AcDbXrecord
280
     1
  1
stairs
  1
*240*
  1
*
  1
*
 70
     0
  1
*
  1
*
  0
XRECORD
  5
22A
102
{ACAD_REACTORS
330
3A
102
}
330
3A
100
AcDbXrecord
280
     1
  1
standard
  1
*###
  1
*
  1
*
 70
     0
  1
*
  1
*
  0
XRECORD
  5
22B
102
{ACAD_REACTORS
330
3A
102
}
330
3A
100
AcDbXrecord
280
     1
  1
stoły
  1
MU*
  1
*
  1
*
 70
     0
  1
*
  1
*
  0
XRECORD
  5
22C
102
{ACAD_REACTORS
330
3A
102
}
330
3A
100
AcDbXrecord
280
     1
  1
Stru
  1
s-*
  1
*
  1
*
 70
     0
  1
*
  1
*
  0
XRECORD
  5
22D
102
{ACAD_REACTORS
330
3A
102
}
330
3A
100
AcDbXrecord
280
     1
  1
Structure
  1
s*
  1
*
  1
*
 70
     0
  1
*
  1
*
  0
XRECORD
  5
22E
102
{ACAD_REACTORS
330
3A
102
}
330
3A
100
AcDbXrecord
280
     1
  1
STRUT
  1
*STRUT*
  1
*
  1
*
 70
     0
  1
*
  1
*
  0
XRECORD
  5
22F
102
{ACAD_REACTORS
330
3A
102
}
330
3A
100
AcDbXrecord
280
     1
  1
STUBS
  1
*STUB*
  1
*
  1
*
 70
     0
  1
*
  1
*
  0
XRECORD
  5
230
102
{ACAD_REACTORS
330
3A
102
}
330
3A
100
AcDbXrecord
280
     1
  1
SUFLATORI
  1
*
  1
*
  1
*
 70
     1
  1
*
  1
*
  0
XRECORD
  5
231
102
{ACAD_REACTORS
330
3A
102
}
330
3A
100
AcDbXrecord
280
     1
  1
surv
  1
1784surv$0$*
  1
*
  1
*
 70
     0
  1
*
  1
*
  0
XRECORD
  5
232
102
{ACAD_REACTORS
330
3A
102
}
330
3A
100
AcDbXrecord
280
     1
  1
SURVEY
  1
*
  1
*
  1
*
 70
     0
  1
*
  1
*
  0
XRECORD
  5
233
102
{ACAD_REACTORS
330
3A
102
}
330
3A
100
AcDbXrecord
280
     1
  1
Susanne
  1
310,40,41,70,910,913,921,930,940
  1
*
  1
*
 70
     7
  1
*
  1
*
  0
XRECORD
  5
234
102
{ACAD_REACTORS
330
3A
102
}
330
3A
100
AcDbXrecord
280
     1
  1
SWEET
  1
SWEET*
  1
*
  1
*
 70
     0
  1
*
  1
*
  0
XRECORD
  5
235
102
{ACAD_REACTORS
330
3A
102
}
330
3A
100
AcDbXrecord
280
     1
  1
SYNERGY
  1
SYN-*
  1
*
  1
*
 70
     0
  1
*
  1
*
  0
XRECORD
  5
236
102
{ACAD_REACTORS
330
3A
102
}
330
3A
100
AcDbXrecord
280
     1
  1
T1
  1
00#
  1
*
  1
*
 70
     0
  1
*
  1
*
  0
XRECORD
  5
237
102
{ACAD_REACTORS
330
3A
102
}
330
3A
100
AcDbXrecord
280
     1
  1
TABLE
  1
*TABLE
  1
*
  1
*
 70
     0
  1
*
  1
*
  0
XRECORD
  5
238
102
{ACAD_REACTORS
330
3A
102
}
330
3A
100
AcDbXrecord
280
     1
  1
tags
  1
*220t
  1
*
  1
*
 70
     0
  1
*
  1
*
  0
XRECORD
  5
239
102
{ACAD_REACTORS
330
3A
102
}
330
3A
100
AcDbXrecord
280
     1
  1
TEACH
  1
TEACH*
  1
*
  1
*
 70
     0
  1
*
  1
*
  0
XRECORD
  5
23A
102
{ACAD_REACTORS
330
3A
102
}
330
3A
100
AcDbXrecord
280
     1
  1
test
  1
*E1*
  1
*
  1
*
 70
     1
  1
*
  1
*
  0
XRECORD
  5
23B
102
{ACAD_REACTORS
330
3A
102
}
330
3A
100
AcDbXrecord
280
     1
  1
TEXT
  1
*TEXT*
  1
*
  1
*
 70
     0
  1
*
  1
*
  0
XRECORD
  5
23C
102
{ACAD_REACTORS
330
3A
102
}
330
3A
100
AcDbXrecord
280
     1
  1
TH
  1
*
  1
*
  1
*
 70
    12
  1
*
  1
*
  0
XRECORD
  5
23D
102
{ACAD_REACTORS
330
3A
102
}
330
3A
100
AcDbXrecord
280
     1
  1
thaw
  1
*
  1
*
  1
*
 70
    12
  1
*
  1
*
  0
XRECORD
  5
23E
102
{ACAD_REACTORS
330
3A
102
}
330
3A
100
AcDbXrecord
280
     1
  1
thawed
  1
*
  1
*
  1
*
 70
    12
  1
*
  1
*
  0
XRECORD
  5
23F
102
{ACAD_REACTORS
330
3A
102
}
330
3A
100
AcDbXrecord
280
     1
  1
THP
  1
THP*
  1
*
  1
*
 70
     0
  1
*
  1
*
  0
XRECORD
  5
240
102
{ACAD_REACTORS
330
3A
102
}
330
3A
100
AcDbXrecord
280
     1
  1
tjp
  1
tjp*
  1
*
  1
*
 70
     0
  1
*
  1
*
  0
XRECORD
  5
241
102
{ACAD_REACTORS
330
3A
102
}
330
3A
100
AcDbXrecord
280
     1
  1
tone
  1
tone*
  1
*
  1
*
 70
     0
  1
*
  1
*
  0
XRECORD
  5
242
102
{ACAD_REACTORS
330
3A
102
}
330
3A
100
AcDbXrecord
280
     1
  1
TOP
  1
*TOP*
  1
*
  1
*
 70
     0
  1
*
  1
*
  0
XRECORD
  5
243
102
{ACAD_REACTORS
330
3A
102
}
330
3A
100
AcDbXrecord
280
     1
  1
Topo
  1
REI*
  1
*
  1
*
 70
     0
  1
*
  1
*
  0
XRECORD
  5
244
102
{ACAD_REACTORS
330
3A
102
}
330
3A
100
AcDbXrecord
280
     1
  1
tr
  1
tr*
  1
*
  1
*
 70
     0
  1
*
  1
*
  0
XRECORD
  5
245
102
{ACAD_REACTORS
330
3A
102
}
330
3A
100
AcDbXrecord
280
     1
  1
trassid
  1
tr*
  1
*
  1
*
 70
     0
  1
*
  1
*
  0
XRECORD
  5
246
102
{ACAD_REACTORS
330
3A
102
}
330
3A
100
AcDbXrecord
280
     1
  1
trassid-txt
  1
ttxt*
  1
*
  1
*
 70
     0
  1
*
  1
*
  0
XRECORD
  5
247
102
{ACAD_REACTORS
330
3A
102
}
330
3A
100
AcDbXrecord
280
     1
  1
tree
  1
*tree*
  1
*
  1
*
 70
     0
  1
*
  1
*
  0
XRECORD
  5
248
102
{ACAD_REACTORS
330
3A
102
}
330
3A
100
AcDbXrecord
280
     1
  1
tu_
  1
tu_*
  1
*
  1
*
 70
     0
  1
*
  1
*
  0
XRECORD
  5
249
102
{ACAD_REACTORS
330
3A
102
}
330
3A
100
AcDbXrecord
280
     1
  1
Tugiplaan
  1
*
  1
*
  1
*
 70
     0
  1
*
  1
*
  0
XRECORD
  5
24A
102
{ACAD_REACTORS
330
3A
102
}
330
3A
100
AcDbXrecord
280
     1
  1
txt
  1
txt*
  1
*
  1
*
 70
     0
  1
*
  1
*
  0
XRECORD
  5
24B
102
{ACAD_REACTORS
330
3A
102
}
330
3A
100
AcDbXrecord
280
     1
  1
UFR
  1
*
  1
*
  1
*
 70
    12
  1
*
  1
*
  0
XRECORD
  5
24C
102
{ACAD_REACTORS
330
3A
102
}
330
3A
100
AcDbXrecord
280
     1
  1
UNITA
  1
*a
  1
*
  1
*
 70
     0
  1
*
  1
*
  0
XRECORD
  5
24D
102
{ACAD_REACTORS
330
3A
102
}
330
3A
100
AcDbXrecord
280
     1
  1
UNITB
  1
*B
  1
*
  1
*
 70
     0
  1
*
  1
*
  0
XRECORD
  5
24E
102
{ACAD_REACTORS
330
3A
102
}
330
3A
100
AcDbXrecord
280
     1
  1
UNITC
  1
*C
  1
*
  1
*
 70
     0
  1
*
  1
*
  0
XRECORD
  5
24F
102
{ACAD_REACTORS
330
3A
102
}
330
3A
100
AcDbXrecord
280
     1
  1
UP
  1
UP*
  1
*
  1
*
 70
     0
  1
*
  1
*
  0
XRECORD
  5
250
102
{ACAD_REACTORS
330
3A
102
}
330
3A
100
AcDbXrecord
280
     1
  1
UPLO
  1
*
  1
*
  1
*
 70
  3084
  1
*
  1
*
  0
XRECORD
  5
251
102
{ACAD_REACTORS
330
3A
102
}
330
3A
100
AcDbXrecord
280
     1
  1
upper
  1
*
  1
*
  1
*
 70
    16
  1
*
  1
*
  0
XRECORD
  5
252
102
{ACAD_REACTORS
330
3A
102
}
330
3A
100
AcDbXrecord
280
     1
  1
uus
  1
*
  1
*
  1
*
 70
     4
  1
*
  1
*
  0
XRECORD
  5
253
102
{ACAD_REACTORS
330
3A
102
}
330
3A
100
AcDbXrecord
280
     1
  1
v31
  1
V31*
  1
*
  1
*
 70
     0
  1
*
  1
*
  0
XRECORD
  5
254
102
{ACAD_REACTORS
330
3A
102
}
330
3A
100
AcDbXrecord
280
     1
  1
VAADE
  1
VAADE *
  1
*
  1
*
 70
     0
  1
*
  1
*
  0
XRECORD
  5
255
102
{ACAD_REACTORS
330
3A
102
}
330
3A
100
AcDbXrecord
280
     1
  1
Valgus
  1
*
  1
*
  1
*
 70
     0
  1
*
  1
*
  0
XRECORD
  5
256
102
{ACAD_REACTORS
330
3A
102
}
330
3A
100
AcDbXrecord
280
     1
  1
varem-proj-trassid
  1
vp-*
  1
*
  1
*
 70
     0
  1
*
  1
*
  0
XRECORD
  5
257
102
{ACAD_REACTORS
330
3A
102
}
330
3A
100
AcDbXrecord
280
     1
  1
Vertikaal
  1
*
  1
*
  1
*
 70
     0
  1
*
  1
*
  0
XRECORD
  5
258
102
{ACAD_REACTORS
330
3A
102
}
330
3A
100
AcDbXrecord
280
     1
  1
vertikalinis
  1
*
  1
*
  1
*
 70
     0
  1
*
  1
*
  0
XRECORD
  5
259
102
{ACAD_REACTORS
330
3A
102
}
330
3A
100
AcDbXrecord
280
     1
  1
viewports
  1
*view*
  1
*
  1
*
 70
     0
  1
*
  1
*
  0
XRECORD
  5
25A
102
{ACAD_REACTORS
330
3A
102
}
330
3A
100
AcDbXrecord
280
     1
  1
VK
  1
VK*
  1
*
  1
*
 70
     0
  1
*
  1
*
  0
XRECORD
  5
25B
102
{ACAD_REACTORS
330
3A
102
}
330
3A
100
AcDbXrecord
280
     1
  1
vor
  1
vor*
  1
*
  1
*
 70
     0
  1
*
  1
*
  0
XRECORD
  5
25C
102
{ACAD_REACTORS
330
3A
102
}
330
3A
100
AcDbXrecord
280
     1
  1
vormistus
  1
vor*
  1
*
  1
*
 70
     0
  1
*
  1
*
  0
XRECORD
  5
25D
102
{ACAD_REACTORS
330
3A
102
}
330
3A
100
AcDbXrecord
280
     1
  1
vpl
  1
vpl*
  1
*
  1
*
 70
     0
  1
*
  1
*
  0
XRECORD
  5
25E
102
{ACAD_REACTORS
330
3A
102
}
330
3A
100
AcDbXrecord
280
     1
  1
VS_01
  1
*_01*
  1
*
  1
*
 70
     0
  1
*
  1
*
  0
XRECORD
  5
25F
102
{ACAD_REACTORS
330
3A
102
}
330
3A
100
AcDbXrecord
280
     1
  1
VS_02
  1
*_02*
  1
*
  1
*
 70
     0
  1
*
  1
*
  0
XRECORD
  5
260
102
{ACAD_REACTORS
330
3A
102
}
330
3A
100
AcDbXrecord
280
     1
  1
VS_03
  1
*_03*
  1
*
  1
*
 70
     0
  1
*
  1
*
  0
XRECORD
  5
261
102
{ACAD_REACTORS
330
3A
102
}
330
3A
100
AcDbXrecord
280
     1
  1
VS_04
  1
*_04*
  1
*
  1
*
 70
     0
  1
*
  1
*
  0
XRECORD
  5
262
102
{ACAD_REACTORS
330
3A
102
}
330
3A
100
AcDbXrecord
280
     1
  1
VS_05
  1
*_05*
  1
*
  1
*
 70
     0
  1
*
  1
*
  0
XRECORD
  5
263
102
{ACAD_REACTORS
330
3A
102
}
330
3A
100
AcDbXrecord
280
     1
  1
VS_06
  1
*_06*
  1
*
  1
*
 70
     0
  1
*
  1
*
  0
XRECORD
  5
264
102
{ACAD_REACTORS
330
3A
102
}
330
3A
100
AcDbXrecord
280
     1
  1
VS_07
  1
*_07*
  1
*
  1
*
 70
     0
  1
*
  1
*
  0
XRECORD
  5
265
102
{ACAD_REACTORS
330
3A
102
}
330
3A
100
AcDbXrecord
280
     1
  1
VS_08
  1
*_08*
  1
*
  1
*
 70
     0
  1
*
  1
*
  0
XRECORD
  5
266
102
{ACAD_REACTORS
330
3A
102
}
330
3A
100
AcDbXrecord
280
     1
  1
VS_09
  1
*_09*
  1
*
  1
*
 70
     0
  1
*
  1
*
  0
XRECORD
  5
267
102
{ACAD_REACTORS
330
3A
102
}
330
3A
100
AcDbXrecord
280
     1
  1
VS_10
  1
*_10*
  1
*
  1
*
 70
     0
  1
*
  1
*
  0
XRECORD
  5
268
102
{ACAD_REACTORS
330
3A
102
}
330
3A
100
AcDbXrecord
280
     1
  1
VS_11
  1
*_11*
  1
*
  1
*
 70
     0
  1
*
  1
*
  0
XRECORD
  5
269
102
{ACAD_REACTORS
330
3A
102
}
330
3A
100
AcDbXrecord
280
     1
  1
VS_12
  1
*_12*
  1
*
  1
*
 70
     0
  1
*
  1
*
  0
XRECORD
  5
26A
102
{ACAD_REACTORS
330
3A
102
}
330
3A
100
AcDbXrecord
280
     1
  1
VS_13
  1
*_13*
  1
*
  1
*
 70
     0
  1
*
  1
*
  0
XRECORD
  5
26B
102
{ACAD_REACTORS
330
3A
102
}
330
3A
100
AcDbXrecord
280
     1
  1
VS_14
  1
*_14*
  1
*
  1
*
 70
     0
  1
*
  1
*
  0
XRECORD
  5
26C
102
{ACAD_REACTORS
330
3A
102
}
330
3A
100
AcDbXrecord
280
     1
  1
VS_15
  1
*_15*
  1
*
  1
*
 70
     0
  1
*
  1
*
  0
XRECORD
  5
26D
102
{ACAD_REACTORS
330
3A
102
}
330
3A
100
AcDbXrecord
280
     1
  1
VS_16
  1
*_16*
  1
*
  1
*
 70
     0
  1
*
  1
*
  0
XRECORD
  5
26E
102
{ACAD_REACTORS
330
3A
102
}
330
3A
100
AcDbXrecord
280
     1
  1
VS_17
  1
*_17*
  1
*
  1
*
 70
     0
  1
*
  1
*
  0
XRECORD
  5
26F
102
{ACAD_REACTORS
330
3A
102
}
330
3A
100
AcDbXrecord
280
     1
  1
VS_18
  1
*_18*
  1
*
  1
*
 70
     0
  1
*
  1
*
  0
XRECORD
  5
270
102
{ACAD_REACTORS
330
3A
102
}
330
3A
100
AcDbXrecord
280
     1
  1
VS_19
  1
*_19*
  1
*
  1
*
 70
     0
  1
*
  1
*
  0
XRECORD
  5
271
102
{ACAD_REACTORS
330
3A
102
}
330
3A
100
AcDbXrecord
280
     1
  1
VS_20
  1
*_20*
  1
*
  1
*
 70
     0
  1
*
  1
*
  0
XRECORD
  5
272
102
{ACAD_REACTORS
330
3A
102
}
330
3A
100
AcDbXrecord
280
     1
  1
W
  1
*SYMB*
  1
*
  1
*
 70
     0
  1
*
  1
*
  0
XRECORD
  5
273
102
{ACAD_REACTORS
330
3A
102
}
330
3A
100
AcDbXrecord
280
     1
  1
W.M.T.
  1
W.M.T.*
  1
*
  1
*
 70
     0
  1
*
  1
*
  0
XRECORD
  5
274
102
{ACAD_REACTORS
330
3A
102
}
330
3A
100
AcDbXrecord
280
     1
  1
WADE
  1
*DEMO*
  1
*
  1
*
 70
     0
  1
*
  1
*
  0
XRECORD
  5
275
102
{ACAD_REACTORS
330
3A
102
}
330
3A
100
AcDbXrecord
280
     1
  1
waiter
  1
waiter*
  1
*
  1
*
 70
     0
  1
*
  1
*
  0
XRECORD
  5
276
102
{ACAD_REACTORS
330
3A
102
}
330
3A
100
AcDbXrecord
280
     1
  1
WALL
  1
*WALL
  1
*
  1
*
 70
     0
  1
*
  1
*
  0
XRECORD
  5
277
102
{ACAD_REACTORS
330
3A
102
}
330
3A
100
AcDbXrecord
280
     1
  1
Walls
  1
*ExtWalls
  1
*
  1
*
 70
     0
  1
*
  1
*
  0
XRECORD
  5
278
102
{ACAD_REACTORS
330
3A
102
}
330
3A
100
AcDbXrecord
280
     1
  1
white
  1
*
  1
white
  1
*
 70
     0
  1
*
  1
*
  0
XRECORD
  5
279
102
{ACAD_REACTORS
330
3A
102
}
330
3A
100
AcDbXrecord
280
     1
  1
white color
  1
*
  1
7
  1
*
 70
     0
  1
*
  1
*
  0
XRECORD
  5
27A
102
{ACAD_REACTORS
330
3A
102
}
330
3A
100
AcDbXrecord
280
     1
  1
whs-zebra-issue
  1
*
  1
*
  1
*
 70
     0
  1
*
  1
*
  0
XRECORD
  5
27B
102
{ACAD_REACTORS
330
3A
102
}
330
3A
100
AcDbXrecord
280
     1
  1
window
  1
window*
  1
*
  1
*
 70
     0
  1
*
  1
*
  0
XRECORD
  5
27C
102
{ACAD_REACTORS
330
3A
102
}
330
3A
100
AcDbXrecord
280
     1
  1
WINEBIN
  1
WINE*,2D*
  1
*
  1
*
 70
     0
  1
*
  1
*
  0
XRECORD
  5
27D
102
{ACAD_REACTORS
330
3A
102
}
330
3A
100
AcDbXrecord
280
     1
  1
winebins
  1
wine*
  1
*
  1
*
 70
     0
  1
*
  1
*
  0
XRECORD
  5
27E
102
{ACAD_REACTORS
330
3A
102
}
330
3A
100
AcDbXrecord
280
     1
  1
WORK
  1
L*,P*,XREF,M*,F*,C*
  1
*
  1
*
 70
     0
  1
*
  1
*
  0
XRECORD
  5
27F
102
{ACAD_REACTORS
330
3A
102
}
330
3A
100
AcDbXrecord
280
     1
  1
X
  1
x-*
  1
*
  1
*
 70
     0
  1
*
  1
*
  0
XRECORD
  5
280
102
{ACAD_REACTORS
330
3A
102
}
330
3A
100
AcDbXrecord
280
     1
  1
xerf
  1
*
  1
*
  1
*
 70
     0
  1
*
  1
*
  0
XRECORD
  5
281
102
{ACAD_REACTORS
330
3A
102
}
330
3A
100
AcDbXrecord
280
     1
  1
XREF
  1
Xref*
  1
*
  1
*
 70
     0
  1
*
  1
*
  0
XRECORD
  5
282
102
{ACAD_REACTORS
330
3A
102
}
330
3A
100
AcDbXrecord
280
     1
  1
xref-of
  1
*|*
  1
*
  1
*
 70
     0
  1
*
  1
*
  0
XRECORD
  5
283
102
{ACAD_REACTORS
330
3A
102
}
330
3A
100
AcDbXrecord
280
     1
  1
XREFID
  1
XREF *
  1
*
  1
*
 70
     0
  1
*
  1
*
  0
XRECORD
  5
284
102
{ACAD_REACTORS
330
3A
102
}
330
3A
100
AcDbXrecord
280
     1
  1
YARDIMLAR
  1
*YARDIM
  1
*
  1
*
 70
     0
  1
*
  1
*
  0
XRECORD
  5
285
102
{ACAD_REACTORS
330
3A
102
}
330
3A
100
AcDbXrecord
280
     1
  1
YUZEYLER
  1
*YUZEY*
  1
*
  1
*
 70
     0
  1
*
  1
*
  0
ENDSEC
  0
EOF
