  0
SECTION
  2
HEADER
  9
$ACADVER
  1
AC1015
  9
$ACADMAINTVER
 70
    13
  9
$DWGCODEPAGE
  3
ANSI_1257
  9
$INSBASE
 10
0.0
 20
0.0
 30
0.0
  9
$EXTMIN
 10
118.6165260378108
 20
100.1735296158622
 30
0.0
  9
$EXTMAX
 10
945.6165260378112
 20
702.1735296158622
 30
0.0
  9
$LIMMIN
 10
0.0
 20
0.0
  9
$LIMMAX
 10
420.0
 20
297.0
  9
$ORTHOMODE
 70
     1
  9
$REGENMODE
 70
     1
  9
$FILLMODE
 70
     1
  9
$QTEXTMODE
 70
     0
  9
$MIRRTEXT
 70
     1
  9
$LTSCALE
 40
1.0
  9
$ATTMODE
 70
     1
  9
$TEXTSIZE
 40
2.5
  9
$TRACEWID
 40
1.0
  9
$TEXTSTYLE
  7
Standard
  9
$CLAYER
  8
kiri
  9
$CELTYPE
  6
ByLayer
  9
$CECOLOR
 62
   256
  9
$CELTSCALE
 40
1.0
  9
$DISPSILH
 70
     0
  9
$DIMSCALE
 40
1.0
  9
$DIMASZ
 40
2.5
  9
$DIMEXO
 40
0.625
  9
$DIMDLI
 40
3.75
  9
$DIMRND
 40
0.0
  9
$DIMDLE
 40
0.0
  9
$DIMEXE
 40
1.25
  9
$DIMTP
 40
0.0
  9
$DIMTM
 40
0.0
  9
$DIMTXT
 40
2.5
  9
$DIMCEN
 40
2.5
  9
$DIMTSZ
 40
0.0
  9
$DIMTOL
 70
     0
  9
$DIMLIM
 70
     0
  9
$DIMTIH
 70
     0
  9
$DIMTOH
 70
     0
  9
$DIMSE1
 70
     0
  9
$DIMSE2
 70
     0
  9
$DIMTAD
 70
     1
  9
$DIMZIN
 70
     8
  9
$DIMBLK
  1

  9
$DIMASO
 70
     1
  9
$DIMSHO
 70
     1
  9
$DIMPOST
  1

  9
$DIMAPOST
  1

  9
$DIMALT
 70
     0
  9
$DIMALTD
 70
     3
  9
$DIMALTF
 40
0.03937007874016
  9
$DIMLFAC
 40
1.0
  9
$DIMTOFL
 70
     1
  9
$DIMTVP
 40
0.0
  9
$DIMTIX
 70
     0
  9
$DIMSOXD
 70
     0
  9
$DIMSAH
 70
     0
  9
$DIMBLK1
  1

  9
$DIMBLK2
  1

  9
$DIMSTYLE
  2
ISO-25
  9
$DIMCLRD
 70
     0
  9
$DIMCLRE
 70
     0
  9
$DIMCLRT
 70
     0
  9
$DIMTFAC
 40
1.0
  9
$DIMGAP
 40
0.625
  9
$DIMJUST
 70
     0
  9
$DIMSD1
 70
     0
  9
$DIMSD2
 70
     0
  9
$DIMTOLJ
 70
     0
  9
$DIMTZIN
 70
     8
  9
$DIMALTZ
 70
     0
  9
$DIMALTTZ
 70
     0
  9
$DIMUPT
 70
     0
  9
$DIMDEC
 70
     2
  9
$DIMTDEC
 70
     2
  9
$DIMALTU
 70
     2
  9
$DIMALTTD
 70
     3
  9
$DIMTXSTY
  7
Standard
  9
$DIMAUNIT
 70
     0
  9
$DIMADEC
 70
     0
  9
$DIMALTRND
 40
0.0
  9
$DIMAZIN
 70
     0
  9
$DIMDSEP
 70
    44
  9
$DIMATFIT
 70
     3
  9
$DIMFRAC
 70
     0
  9
$DIMLDRBLK
  1

  9
$DIMLUNIT
 70
     2
  9
$DIMLWD
 70
    -2
  9
$DIMLWE
 70
    -2
  9
$DIMTMOVE
 70
     0
  9
$LUNITS
 70
     2
  9
$LUPREC
 70
     0
  9
$SKETCHINC
 40
1.0
  9
$FILLETRAD
 40
10.0
  9
$AUNITS
 70
     0
  9
$AUPREC
 70
     0
  9
$MENU
  1
.
  9
$ELEVATION
 40
0.0
  9
$PELEVATION
 40
0.0
  9
$THICKNESS
 40
0.0
  9
$LIMCHECK
 70
     0
  9
$CHAMFERA
 40
10.0
  9
$CHAMFERB
 40
10.0
  9
$CHAMFERC
 40
20.0
  9
$CHAMFERD
 40
0.0
  9
$SKPOLY
 70
     0
  9
$TDCREATE
 40
2453250.504972141
  9
$TDUCREATE
 40
2453250.421638808
  9
$TDUPDATE
 40
2453334.544850254
  9
$TDUUPDATE
 40
2453334.461516921
  9
$TDINDWG
 40
0.1024375926
  9
$TDUSRTIMER
 40
0.1024370486
  9
$USRTIMER
 70
     1
  9
$ANGBASE
 50
0.0
  9
$ANGDIR
 70
     0
  9
$PDMODE
 70
     0
  9
$PDSIZE
 40
0.0
  9
$PLINEWID
 40
0.0
  9
$SPLFRAME
 70
     0
  9
$SPLINETYPE
 70
     6
  9
$SPLINESEGS
 70
     8
  9
$HANDSEED
  5
54D
  9
$SURFTAB1
 70
     6
  9
$SURFTAB2
 70
     6
  9
$SURFTYPE
 70
     6
  9
$SURFU
 70
     6
  9
$SURFV
 70
     6
  9
$UCSBASE
  2

  9
$UCSNAME
  2

  9
$UCSORG
 10
0.0
 20
0.0
 30
0.0
  9
$UCSXDIR
 10
1.0
 20
0.0
 30
0.0
  9
$UCSYDIR
 10
0.0
 20
1.0
 30
0.0
  9
$UCSORTHOREF
  2

  9
$UCSORTHOVIEW
 70
     0
  9
$UCSORGTOP
 10
0.0
 20
0.0
 30
0.0
  9
$UCSORGBOTTOM
 10
0.0
 20
0.0
 30
0.0
  9
$UCSORGLEFT
 10
0.0
 20
0.0
 30
0.0
  9
$UCSORGRIGHT
 10
0.0
 20
0.0
 30
0.0
  9
$UCSORGFRONT
 10
0.0
 20
0.0
 30
0.0
  9
$UCSORGBACK
 10
0.0
 20
0.0
 30
0.0
  9
$PUCSBASE
  2

  9
$PUCSNAME
  2

  9
$PUCSORG
 10
0.0
 20
0.0
 30
0.0
  9
$PUCSXDIR
 10
1.0
 20
0.0
 30
0.0
  9
$PUCSYDIR
 10
0.0
 20
1.0
 30
0.0
  9
$PUCSORTHOREF
  2

  9
$PUCSORTHOVIEW
 70
     0
  9
$PUCSORGTOP
 10
0.0
 20
0.0
 30
0.0
  9
$PUCSORGBOTTOM
 10
0.0
 20
0.0
 30
0.0
  9
$PUCSORGLEFT
 10
0.0
 20
0.0
 30
0.0
  9
$PUCSORGRIGHT
 10
0.0
 20
0.0
 30
0.0
  9
$PUCSORGFRONT
 10
0.0
 20
0.0
 30
0.0
  9
$PUCSORGBACK
 10
0.0
 20
0.0
 30
0.0
  9
$USERI1
 70
     0
  9
$USERI2
 70
     0
  9
$USERI3
 70
     0
  9
$USERI4
 70
     0
  9
$USERI5
 70
     0
  9
$USERR1
 40
0.0
  9
$USERR2
 40
0.0
  9
$USERR3
 40
0.0
  9
$USERR4
 40
0.0
  9
$USERR5
 40
0.0
  9
$WORLDVIEW
 70
     1
  9
$SHADEDGE
 70
     3
  9
$SHADEDIF
 70
    70
  9
$TILEMODE
 70
     0
  9
$MAXACTVP
 70
    64
  9
$PINSBASE
 10
0.0
 20
0.0
 30
0.0
  9
$PLIMCHECK
 70
     0
  9
$PEXTMIN
 10
3.524297991773778
 20
3.864418074508137
 30
-0.0015258207003583
  9
$PEXTMAX
 10
286.5441631492834
 20
199.8824116526475
 30
0.0000000349246037
  9
$PLIMMIN
 10
-3.17498779296875
 20
-3.174999952316284
  9
$PLIMMAX
 10
293.8780212402343
 20
206.7136566638946
  9
$UNITMODE
 70
     0
  9
$VISRETAIN
 70
     1
  9
$PLINEGEN
 70
     0
  9
$PSLTSCALE
 70
     1
  9
$TREEDEPTH
 70
  3020
  9
$CMLSTYLE
  2
Standard
  9
$CMLJUST
 70
     0
  9
$CMLSCALE
 40
20.0
  9
$PROXYGRAPHICS
 70
     1
  9
$MEASUREMENT
 70
     1
  9
$CELWEIGHT
370
    -1
  9
$ENDCAPS
280
     0
  9
$JOINSTYLE
280
     0
  9
$LWDISPLAY
290
     0
  9
$INSUNITS
 70
     4
  9
$HYPERLINKBASE
  1

  9
$STYLESHEET
  1

  9
$XEDIT
290
     1
  9
$CEPSNTYPE
380
     0
  9
$PSTYLEMODE
290
     1
  9
$FINGERPRINTGUID
  2
{88582B5B-75D1-42D1-AF43-314097F96274}
  9
$VERSIONGUID
  2
{3B9F24BC-CF4F-460A-9B59-D4C8EB222593}
  9
$EXTNAMES
290
     1
  9
$PSVPSCALE
 40
0.0
  9
$OLESTARTUP
290
     0
  0
ENDSEC
  0
SECTION
  2
CLASSES
  0
CLASS
  1
ACDBDICTIONARYWDFLT
  2
AcDbDictionaryWithDefault
  3
AutoCAD 2000
 90
        0
280
     0
281
     0
  0
CLASS
  1
ACDBPLACEHOLDER
  2
AcDbPlaceHolder
  3
AutoCAD 2000
 90
        0
280
     0
281
     0
  0
CLASS
  1
LAYOUT
  2
AcDbLayout
  3
AutoCAD 2000
 90
        0
280
     0
281
     0
  0
CLASS
  1
DICTIONARYVAR
  2
AcDbDictionaryVar
  3
AutoCAD 2000
 90
        0
280
     0
281
     0
  0
CLASS
  1
IMAGE
  2
AcDbRasterImage
  3
ISM
 90
      127
280
     0
281
     1
  0
CLASS
  1
IMAGEDEF_REACTOR
  2
AcDbRasterImageDefReactor
  3
ISM
 90
        1
280
     0
281
     0
  0
CLASS
  1
IMAGEDEF
  2
AcDbRasterImageDef
  3
ISM
 90
        0
280
     0
281
     0
  0
CLASS
  1
RASTERVARIABLES
  2
AcDbRasterVariables
  3
ISM
 90
        0
280
     0
281
     0
  0
ENDSEC
  0
SECTION
  2
TABLES
  0
TABLE
  2
VPORT
  5
8
330
0
100
AcDbSymbolTable
 70
     2
  0
VPORT
  5
54C
330
8
100
AcDbSymbolTableRecord
100
AcDbViewportTableRecord
  2
*Active
 70
     0
 10
0.0
 20
0.0
 11
1.0
 21
1.0
 12
447.2821646207314
 22
425.6006400263948
 13
0.0
 23
0.0
 14
10.0
 24
10.0
 15
10.0
 25
10.0
 16
0.0
 26
0.0
 36
1.0
 17
0.0
 27
0.0
 37
0.0
 40
797.2191000454391
 41
1.544204322200392
 42
50.0
 43
0.0
 44
0.0
 50
0.0
 51
0.0
 71
     0
 72
   100
 73
     1
 74
     3
 75
     0
 76
     0
 77
     0
 78
     0
281
     0
 65
     1
110
0.0
120
0.0
130
0.0
111
1.0
121
0.0
131
0.0
112
0.0
122
1.0
132
0.0
 79
     0
146
0.0
  0
ENDTAB
  0
TABLE
  2
LTYPE
  5
5
330
0
100
AcDbSymbolTable
 70
     4
  0
LTYPE
  5
14
330
5
100
AcDbSymbolTableRecord
100
AcDbLinetypeTableRecord
  2
ByBlock
 70
     0
  3

 72
    65
 73
     0
 40
0.0
  0
LTYPE
  5
15
330
5
100
AcDbSymbolTableRecord
100
AcDbLinetypeTableRecord
  2
ByLayer
 70
     0
  3

 72
    65
 73
     0
 40
0.0
  0
LTYPE
  5
16
330
5
100
AcDbSymbolTableRecord
100
AcDbLinetypeTableRecord
  2
Continuous
 70
     0
  3
Solid line
 72
    65
 73
     0
 40
0.0
  0
LTYPE
  5
2C4
330
5
100
AcDbSymbolTableRecord
100
AcDbLinetypeTableRecord
  2
DASHDOT
 70
     0
  3
__ . __ . __ . __ . __ . __ . __ . __ . __ . __
 72
    65
 73
     4
 40
1.0
 49
0.5
 74
     0
 49
-0.25
 74
     0
 49
0.0
 74
     0
 49
-0.25
 74
     0
  0
LTYPE
  5
2C5
330
5
100
AcDbSymbolTableRecord
100
AcDbLinetypeTableRecord
  2
DASHED
 70
     0
  3
Dashed __ __ __ __ __ __ __ __ __ __ __ __ __ _
 72
    65
 73
     2
 40
0.75
 49
0.5
 74
     0
 49
-0.25
 74
     0
  0
LTYPE
  5
4CA
330
5
100
AcDbSymbolTableRecord
100
AcDbLinetypeTableRecord
  2
ACAD_ISO02W100
 70
     0
  3
ISO dash __ __ __ __ __ __ __ __ __ __ __ __ __
 72
    65
 73
     2
 40
15.0
 49
12.0
 74
     0
 49
-3.0
 74
     0
  0
ENDTAB
  0
TABLE
  2
LAYER
  5
2
102
{ACAD_XDICTIONARY
360
35
102
}
330
0
100
AcDbSymbolTable
 70
     8
  0
LAYER
  5
10
330
2
100
AcDbSymbolTableRecord
100
AcDbLayerTableRecord
  2
0
 70
     0
 62
     7
  6
Continuous
370
    25
390
F
  0
LAYER
  5
282
330
2
100
AcDbSymbolTableRecord
100
AcDbLayerTableRecord
  2
kiri
 70
     0
 62
     7
  6
Continuous
370
     9
390
F
  0
LAYER
  5
2C6
330
2
100
AcDbSymbolTableRecord
100
AcDbLayerTableRecord
  2
DIM
 70
     0
 62
     7
  6
Continuous
370
    25
390
F
  0
LAYER
  5
2C7
330
2
100
AcDbSymbolTableRecord
100
AcDbLayerTableRecord
  2
DEFPOINTS
 70
     0
 62
     7
  6
Continuous
290
     0
370
    25
390
F
  0
LAYER
  5
476
330
2
100
AcDbSymbolTableRecord
100
AcDbLayerTableRecord
  2
vaateväli
 70
     0
 62
     7
  6
Continuous
290
     0
370
    -3
390
F
  0
LAYER
  5
49C
330
2
100
AcDbSymbolTableRecord
100
AcDbLayerTableRecord
  2
hüdroiso
 70
     0
 62
    10
  6
ACAD_ISO02W100
370
    53
390
F
  0
LAYER
  5
49D
330
2
100
AcDbSymbolTableRecord
100
AcDbLayerTableRecord
  2
minu
 70
     0
 62
     4
  6
Continuous
370
    25
390
F
  0
LAYER
  5
4B1
330
2
100
AcDbSymbolTableRecord
100
AcDbLayerTableRecord
  2
neelu alusplekk
 70
     0
 62
     1
  6
Continuous
370
    25
390
F
  0
ENDTAB
  0
TABLE
  2
STYLE
  5
3
330
0
100
AcDbSymbolTable
 70
     4
  0
STYLE
  5
11
330
3
100
AcDbSymbolTableRecord
100
AcDbTextStyleTableRecord
  2
Standard
 70
     0
 40
0.0
 41
1.0
 50
0.0
 71
     0
 42
2.5
  3
ARIAL.TTF
  4

1001
ACAD
1000
Arial
1071
       34
  0
STYLE
  5
28F
330
3
100
AcDbSymbolTableRecord
100
AcDbTextStyleTableRecord
  2
ARIAL
 70
     0
 40
0.0
 41
1.0
 50
0.0
 71
     0
 42
25.0
  3
ARIAL.TTF
  4

1001
ACAD
1000
Arial
1071
       34
  0
STYLE
  5
2C8
330
3
100
AcDbSymbolTableRecord
100
AcDbTextStyleTableRecord
  2
STYLE1
 70
     0
 40
0.0
 41
1.0
 50
0.0
 71
     0
 42
20.0
  3
C:\Program Files\AutoCAD LT\romans.shx
  4

  0
STYLE
  5
4C9
330
3
100
AcDbSymbolTableRecord
100
AcDbTextStyleTableRecord
  2

 70
     1
 40
0.0
 41
1.0
 50
0.0
 71
     0
 42
2.5
  3
ltypeshp.shx
  4

  0
ENDTAB
  0
TABLE
  2
VIEW
  5
6
330
0
100
AcDbSymbolTable
 70
     0
  0
ENDTAB
  0
TABLE
  2
UCS
  5
7
330
0
100
AcDbSymbolTable
 70
     0
  0
ENDTAB
  0
TABLE
  2
APPID
  5
9
330
0
100
AcDbSymbolTable
 70
     4
  0
APPID
  5
12
330
9
100
AcDbSymbolTableRecord
100
AcDbRegAppTableRecord
  2
ACAD
 70
     0
  0
APPID
  5
486
330
9
100
AcDbSymbolTableRecord
100
AcDbRegAppTableRecord
  2
ACAD_DIMASSOC_CALC_DIMLFAC
 70
     0
  0
APPID
  5
487
330
9
100
AcDbSymbolTableRecord
100
AcDbRegAppTableRecord
  2
ACAD_DIMASSOC_DIMLFAC
 70
     0
  0
APPID
  5
488
330
9
100
AcDbSymbolTableRecord
100
AcDbRegAppTableRecord
  2
ACAD_DIMASSOC_OVERRIDDEN_DIMLFAC
 70
     0
  0
ENDTAB
  0
TABLE
  2
DIMSTYLE
  5
A
330
0
100
AcDbSymbolTable
 70
     2
100
AcDbDimStyleTable
 71
     2
340
2C9
340
27
  0
DIMSTYLE
105
27
330
A
100
AcDbSymbolTableRecord
100
AcDbDimStyleTableRecord
  2
ISO-25
 70
     0
 41
2.5
 42
0.625
 43
3.75
 44
1.25
 73
     0
 74
     0
 77
     1
 78
     8
140
2.5
141
2.5
143
0.03937007874016
147
0.625
171
     3
172
     1
271
     2
272
     2
274
     3
278
    44
283
     0
284
     8
340
11
  0
DIMSTYLE
105
2C9
102
{ACAD_REACTORS
330
396
102
}
330
A
100
AcDbSymbolTableRecord
100
AcDbDimStyleTableRecord
  2
MK10
 70
     0
 40
10.0
 41
0.2
 42
0.1
 43
0.4
 44
0.2
141
0.1
147
0.1
271
     0
272
     0
340
11
341
4AD
342
4AD
343
4AD
344
2B2
  0
ENDTAB
  0
TABLE
  2
BLOCK_RECORD
  5
1
330
0
100
AcDbSymbolTable
 70
     4
  0
BLOCK_RECORD
  5
1F
330
1
100
AcDbSymbolTableRecord
100
AcDbBlockTableRecord
  2
*Model_Space
340
22
  0
BLOCK_RECORD
  5
1B
330
1
100
AcDbSymbolTableRecord
100
AcDbBlockTableRecord
  2
*Paper_Space
340
1E
  0
BLOCK_RECORD
  5
23
330
1
100
AcDbSymbolTableRecord
100
AcDbBlockTableRecord
  2
*Paper_Space0
340
26
  0
BLOCK_RECORD
  5
2B2
330
1
100
AcDbSymbolTableRecord
100
AcDbBlockTableRecord
  2
_OBLIQUE
340
0
  0
BLOCK_RECORD
  5
45B
330
1
100
AcDbSymbolTableRecord
100
AcDbBlockTableRecord
  2
*D2
340
0
  0
BLOCK_RECORD
  5
4AD
330
1
100
AcDbSymbolTableRecord
100
AcDbBlockTableRecord
  2
_ArchTick
340
0
102
{BLKREFS
331
4FD
331
4FE
331
52E
331
52F
331
539
331
53A
331
547
331
548
102
}
  0
ENDTAB
  0
ENDSEC
  0
SECTION
  2
BLOCKS
  0
BLOCK
  5
20
330
1F
100
AcDbEntity
  8
0
100
AcDbBlockBegin
  2
*Model_Space
 70
     0
 10
0.0
 20
0.0
 30
0.0
  3
*Model_Space
  1

  0
ENDBLK
  5
21
330
1F
100
AcDbEntity
  8
0
100
AcDbBlockEnd
  0
BLOCK
  5
1C
330
1B
100
AcDbEntity
 67
     1
  8
0
100
AcDbBlockBegin
  2
*Paper_Space
 70
     0
 10
0.0
 20
0.0
 30
0.0
  3
*Paper_Space
  1

  0
ENDBLK
  5
1D
330
1B
100
AcDbEntity
 67
     1
  8
0
100
AcDbBlockEnd
  0
BLOCK
  5
24
330
23
100
AcDbEntity
  8
0
100
AcDbBlockBegin
  2
*Paper_Space0
 70
     0
 10
0.0
 20
0.0
 30
0.0
  3
*Paper_Space0
  1

  0
ENDBLK
  5
25
330
23
100
AcDbEntity
  8
0
100
AcDbBlockEnd
  0
BLOCK
  5
2B4
330
2B2
100
AcDbEntity
  8
0
100
AcDbBlockBegin
  2
_OBLIQUE
 70
     0
 10
0.0
 20
0.0
 30
0.0
  3
_OBLIQUE
  1

  0
LINE
  5
2B3
330
2B2
100
AcDbEntity
  8
0
  6
ByBlock
 62
     0
100
AcDbLine
 10
-0.5
 20
-0.5
 30
0.0
 11
0.5
 21
0.5
 31
0.0
  0
ENDBLK
  5
2B5
330
2B2
100
AcDbEntity
  8
0
100
AcDbBlockEnd
  0
BLOCK
  5
467
330
45B
100
AcDbEntity
  8
0
100
AcDbBlockBegin
  2
*D2
 70
     1
 10
0.0
 20
0.0
 30
0.0
  3
*D2
  1

  0
LINE
  5
53F
330
45B
100
AcDbEntity
  8
DIM
 62
     0
370
    -2
100
AcDbLine
 10
655.2915174855821
 20
394.8929132010545
 30
0.0
 11
599.5470647971055
 21
566.4566975291659
 31
0.0
  0
LINE
  5
540
330
45B
100
AcDbEntity
  8
DIM
 62
     0
370
    -2
100
AcDbLine
 10
626.5169447248224
 20
457.184362017012
 30
0.0
 11
591.8272167110415
 21
563.9483668340769
 31
0.0
  0
LINE
  5
541
330
45B
100
AcDbEntity
  8
DIM
 62
     0
370
    -2
100
AcDbLine
 10
600.1650987858556
 20
564.5545844965757
 30
0.0
 11
609.6756639488069
 21
567.644754440326
 31
0.0
  0
LINE
  5
542
330
45B
100
AcDbEntity
  8
DIM
 62
     0
370
    -2
100
AcDbLine
 10
592.4452506997916
 20
562.0462538014867
 30
0.0
 11
582.9346855368403
 21
558.9560838577362
 31
0.0
  0
LINE
  5
543
330
45B
100
AcDbEntity
  8
DIM
 62
     0
370
    -2
100
AcDbLine
 10
446.8919393488073
 20
514.7531160916153
 30
0.0
 11
592.4452506997916
 21
562.0462538014867
 31
0.0
  0
MTEXT
  5
544
330
45B
100
AcDbEntity
  8
DIM
 62
     0
100
AcDbMText
 10
501.8808922599918
 20
544.4157086988098
 30
0.0
 40
20.0
 41
0.0
 71
     5
 72
     1
  1
\A1;10-30 mm
 11
0.9510565162951229
 21
0.3090169943750418
 31
0.0
 73
     1
 44
1.0
  0
LINE
  5
545
330
45B
100
AcDbEntity
  8
DIM
 62
     0
370
    -2
100
AcDbLine
 10
600.1650987858556
 20
564.5545844965757
 30
0.0
 11
592.4452506997916
 21
562.0462538014867
 31
0.0
  0
LINE
  5
546
330
45B
100
AcDbEntity
  8
DIM
 62
     0
370
    -2
100
AcDbLine
 10
600.1650987858556
 20
564.5545844965757
 30
0.0
 11
592.4452506997916
 21
562.0462538014867
 31
0.0
  0
INSERT
  5
547
330
45B
100
AcDbEntity
  8
DIM
 62
     0
370
    -2
100
AcDbBlockReference
  2
_ArchTick
 10
600.1650987858556
 20
564.5545844965757
 30
0.0
 41
10.0
 42
10.0
 43
10.0
 50
198.0000000000057
  0
INSERT
  5
548
330
45B
100
AcDbEntity
  8
DIM
 62
     0
370
    -2
100
AcDbBlockReference
  2
_ArchTick
 10
592.4452506997916
 20
562.0462538014867
 30
0.0
 41
10.0
 42
10.0
 43
10.0
 50
18.00000000000568
  0
POINT
  5
549
330
45B
100
AcDbEntity
  8
DEFPOINTS
 62
     0
100
AcDbPoint
 10
655.6005344799572
 20
393.9418566847594
 30
0.0
  0
POINT
  5
54A
330
45B
100
AcDbEntity
  8
DEFPOINTS
 62
     0
100
AcDbPoint
 10
626.8259617191975
 20
456.233305500717
 30
0.0
  0
POINT
  5
54B
330
45B
100
AcDbEntity
  8
DEFPOINTS
 62
     0
100
AcDbPoint
 10
592.4452506997916
 20
562.0462538014867
 30
0.0
  0
ENDBLK
  5
468
330
45B
100
AcDbEntity
  8
0
100
AcDbBlockEnd
  0
BLOCK
  5
4AF
330
4AD
100
AcDbEntity
  8
0
100
AcDbBlockBegin
  2
_ArchTick
 70
     0
 10
0.0
 20
0.0
 30
0.0
  3
_ArchTick
  1

  0
LWPOLYLINE
  5
4AE
330
4AD
100
AcDbEntity
  8
0
  6
ByBlock
 62
     0
100
AcDbPolyline
 90
        2
 70
     0
 43
0.15
 10
-0.5
 20
-0.5
 10
0.5
 20
0.5
  0
ENDBLK
  5
4B0
330
4AD
100
AcDbEntity
  8
0
100
AcDbBlockEnd
  0
ENDSEC
  0
SECTION
  2
ENTITIES
  0
DIMENSION
  5
396
330
1F
100
AcDbEntity
  8
DIM
100
AcDbDimension
  2
*D2
 10
592.4452506997916
 20
562.0462538014867
 30
0.0
 11
505.3784312824018
 21
533.651390428914
 31
0.0
 70
   160
  1
10-30 mm
 71
     5
 42
8.117128639354746
  3
MK10
100
AcDbAlignedDimension
 13
655.6005344799572
 23
393.9418566847594
 33
0.0
 14
626.8259617191975
 24
456.2333055007171
 34
0.0
 50
18.00000000000568
100
AcDbRotatedDimension
1001
ACAD
1000
DSTYLE
1002
{
1070
    41
1040
1.0
1070
    73
1070
     0
1070
    74
1070
     0
1070
    77
1070
     1
1070
   140
1040
2.0
1070
   172
1070
     1
1070
   279
1070
     1
1070
   289
1070
     0
1002
}
  0
LINE
  5
39C
330
1F
100
AcDbEntity
  8
0
100
AcDbLine
 10
414.1364184191352
 20
315.7337064976299
 30
0.0
 11
509.2420700486506
 21
284.8320070601353
 31
0.0
  0
LWPOLYLINE
  5
39D
102
{ACAD_REACTORS
330
3E5
102
}
330
1F
100
AcDbEntity
  8
0
100
AcDbPolyline
 90
        5
 70
     0
 43
2.0
 10
534.2530234651099
 20
301.9405490552824
 10
396.3498286023127
 20
346.7480132396499
 10
411.8006783210598
 20
394.3008390544075
 10
369.003135087778
 20
408.2066038012801
 10
378.3835676024186
 20
409.1692945248
  0
LINE
  5
39E
330
1F
100
AcDbEntity
  8
0
100
AcDbLine
 10
509.2420700486504
 20
127.1126734243953
 30
0.0
 11
118.6165260378111
 21
254.0346065252108
 31
0.0
  0
LINE
  5
3A0
330
1F
100
AcDbEntity
  8
0
100
AcDbLine
 10
118.6165260378108
 20
411.753940160951
 30
0.0
 11
509.2420700486506
 21
284.8320070601353
 31
0.0
  0
LINE
  5
3A1
330
1F
100
AcDbEntity
  8
0
100
AcDbLine
 10
384.178138155838
 20
325.4677418204408
 30
0.0
 11
390.9765120320867
 21
346.3909851789342
 31
0.0
  0
LINE
  5
3A4
330
1F
100
AcDbEntity
  8
0
100
AcDbLine
 10
319.0307667896199
 20
346.6354059351246
 30
0.0
 11
414.1364184191352
 21
315.7337064976299
 31
0.0
  0
LINE
  5
3A6
330
1F
100
AcDbEntity
  8
DIM
  6
DASHDOT
100
AcDbLine
 10
118.6165260378111
 20
100.1735296158622
 30
0.0
 11
118.6165260378111
 21
702.1735296158622
 31
0.0
  0
LINE
  5
3C2
330
1F
100
AcDbEntity
  8
0
100
AcDbLine
 10
118.6165260378111
 20
487.4592203061062
 30
0.0
 11
358.8745359360764
 21
409.3946607124392
 31
0.0
  0
LINE
  5
3C3
330
1F
100
AcDbEntity
  8
0
 62
     0
100
AcDbLine
 10
158.527119039275
 20
484.6311595890251
 30
0.0
 11
146.6340385032808
 21
507.1379282456837
 31
0.0
  0
LINE
  5
3C4
330
1F
100
AcDbEntity
  8
0
100
AcDbLine
 10
118.6165260378111
 20
434.8861090941929
 30
0.0
 11
343.4236862173293
 21
361.8418348976815
 31
0.0
  0
LWPOLYLINE
  5
3C5
102
{ACAD_REACTORS
330
3E5
102
}
330
1F
100
AcDbEntity
  8
0
100
AcDbPolyline
 90
        4
 70
     0
 43
0.0
 10
118.6165260378111
 20
555.550034063317
 10
441.6800852110222
 20
456.2333055007171
 10
425.1699036899883
 20
402.7224289788125
 10
118.6165260378111
 20
496.9451259804473
1001
ACAD
1000
ASC_BOUNDS
1002
{
1070
    19
1002
}
  0
LWPOLYLINE
  5
3C6
330
1F
100
AcDbEntity
  8
0
100
AcDbPolyline
 90
        3
 70
     0
 43
0.0
 10
118.6165260378111
 20
515.782417864227
 10
430.4767477503203
 20
419.9223535751391
 10
425.1699036899882
 20
402.7224289788125
1001
ACAD
1000
ASC_BOUNDS
1002
{
1070
    19
1002
}
  0
LINE
  5
3C7
330
1F
100
AcDbEntity
  8
0
 62
     0
100
AcDbLine
 10
145.6554750277678
 20
488.6025611603882
 30
0.0
 11
133.7623944917736
 21
511.1093298170471
 31
0.0
  0
LINE
  5
3C8
330
1F
100
AcDbEntity
  8
0
 62
     0
100
AcDbLine
 10
132.7838310162605
 20
492.5739627317514
 30
0.0
 11
120.8907504802662
 21
515.0807313884102
 31
0.0
  0
LINE
  5
3C9
330
1F
100
AcDbEntity
  8
0
 62
     0
100
AcDbLine
 10
119.9121870047529
 20
496.5453643031146
 30
0.0
 11
118.6165260378111
 21
498.9973061319924
 31
0.0
  0
LINE
  5
3CB
330
1F
100
AcDbEntity
  8
0
100
AcDbLine
 10
223.9251151601047
 20
377.5371053726193
 30
0.0
 11
319.0307667896199
 21
346.6354059351246
 31
0.0
  0
LINE
  5
3CC
330
1F
100
AcDbEntity
  8
0
 62
     0
100
AcDbLine
 10
312.9868471773636
 20
436.9743407326664
 30
0.0
 11
301.0937666413695
 21
459.4811093893252
 31
0.0
  0
LINE
  5
3CD
330
1F
100
AcDbEntity
  8
0
 62
     0
100
AcDbLine
 10
300.1152031658562
 20
440.9457423040296
 30
0.0
 11
288.222122629862
 21
463.4525109606884
 31
0.0
  0
LINE
  5
3CE
330
1F
100
AcDbEntity
  8
0
 62
     0
100
AcDbLine
 10
274.3719151428415
 20
448.8885454467561
 30
0.0
 11
262.4788346068473
 21
471.3953141034148
 31
0.0
  0
LINE
  5
3CF
330
1F
100
AcDbEntity
  8
0
 62
     0
100
AcDbLine
 10
287.243559154349
 20
444.9171438753928
 30
0.0
 11
275.3504786183548
 21
467.4239125320516
 31
0.0
  0
LINE
  5
3D0
330
1F
100
AcDbEntity
  8
0
 62
     0
100
AcDbLine
 10
261.5002711313341
 20
452.8599470181193
 30
0.0
 11
249.6071905953399
 21
475.3667156747781
 31
0.0
  0
LINE
  5
3D3
330
1F
100
AcDbEntity
  8
0
 62
     0
100
AcDbLine
 10
235.7569831083194
 20
460.8027501608457
 30
0.0
 11
223.8639025723252
 21
483.3095188175043
 31
0.0
  0
LINE
  5
3D4
330
1F
100
AcDbEntity
  8
0
 62
     0
100
AcDbLine
 10
197.1420510737973
 20
472.7169548749352
 30
0.0
 11
185.2489705378031
 21
495.2237235315942
 31
0.0
  0
LINE
  5
3D5
330
1F
100
AcDbEntity
  8
0
 62
     0
100
AcDbLine
 10
171.3987630507824
 20
480.6597580176616
 30
0.0
 11
159.5056825147883
 21
503.1665266743207
 31
0.0
  0
LINE
  5
3D6
330
1F
100
AcDbEntity
  8
0
 62
     0
100
AcDbLine
 10
184.2704070622898
 20
476.6883564462987
 30
0.0
 11
172.3773265262957
 21
499.1951251029572
 31
0.0
  0
LINE
  5
3D7
330
1F
100
AcDbEntity
  8
0
 62
     0
100
AcDbLine
 10
222.885339096812
 20
464.7741517322088
 30
0.0
 11
210.9922585608178
 21
487.2809203888677
 31
0.0
  0
LINE
  5
3D8
330
1F
100
AcDbEntity
  8
0
 62
     0
100
AcDbLine
 10
210.0136950853047
 20
468.7455533035723
 30
0.0
 11
198.1206145493104
 21
491.2523219602308
 31
0.0
  0
LINE
  5
3D9
330
1F
100
AcDbEntity
  8
0
 62
     0
100
AcDbLine
 10
248.6286271198268
 20
456.8313485894825
 30
0.0
 11
236.7355465838327
 21
479.3381172461413
 31
0.0
  0
LINE
  5
3DA
330
1F
100
AcDbEntity
  8
0
 62
     0
100
AcDbLine
 10
325.8584911888711
 20
433.0029391613031
 30
0.0
 11
313.9654106528769
 21
455.509707817962
 31
0.0
  0
LINE
  5
3DB
330
1F
100
AcDbEntity
  8
0
 62
     0
100
AcDbLine
 10
390.0149766116312
 20
413.5276990677852
 30
0.0
 11
378.3236307104136
 21
435.6526999611458
 31
0.0
  0
LINE
  5
3DC
330
1F
100
AcDbEntity
  8
0
100
AcDbLine
 10
390.9765120320867
 20
346.3909851789342
 30
0.0
 11
358.8745359360766
 21
409.3946607124392
 31
0.0
  0
LWPOLYLINE
  5
3DD
330
1F
100
AcDbEntity
  8
0
100
AcDbPolyline
 90
        4
 70
     1
 43
0.0
 10
390.9765120320869
 20
346.3909851789342
 10
406.4273617508343
 20
393.9438109936918
 10
358.8745359360764
 20
409.3946607124392
 10
343.4236862173293
 20
361.8418348976815
  0
LINE
  5
3DE
330
1F
100
AcDbEntity
  8
0
100
AcDbLine
 10
343.4236862173293
 20
361.8418348976815
 30
0.0
 11
406.4273617508343
 21
393.9438109936918
 31
0.0
  0
LINE
  5
3DF
330
1F
100
AcDbEntity
  8
0
 62
     0
100
AcDbLine
 10
351.6017792118857
 20
425.0601360185767
 30
0.0
 11
339.7086986758915
 21
447.5669046752354
 31
0.0
  0
LINE
  5
3E0
330
1F
100
AcDbEntity
  8
0
 62
     0
100
AcDbLine
 10
338.7301352003782
 20
429.0315375899399
 30
0.0
 11
326.8370546643841
 21
451.5383062465986
 31
0.0
  0
LINE
  5
3E1
330
1F
100
AcDbEntity
  8
0
 62
     0
100
AcDbLine
 10
364.4734232233931
 20
421.0887344472134
 30
0.0
 11
352.580342687399
 21
443.5955031038722
 31
0.0
  0
LINE
  5
3E2
330
1F
100
AcDbEntity
  8
0
 62
     0
100
AcDbLine
 10
377.3450672349006
 20
417.1173328758502
 30
0.0
 11
365.4519866989062
 21
439.624101532509
 31
0.0
  0
LINE
  5
3E3
330
1F
100
AcDbEntity
  8
0
  6
DASHED
100
AcDbLine
 10
407.5724769987493
 20
395.6746649436643
 30
0.0
 11
408.11402486
 21
448.2115057190323
 31
0.0
  0
LINE
  5
3E4
102
{ACAD_REACTORS
330
3E5
102
}
330
1F
100
AcDbEntity
  8
0
100
AcDbLine
 10
407.5724769987493
 20
395.6746649436643
 30
0.0
 11
407.7004729864456
 21
408.0918588920544
 31
0.0
  0
HATCH
  5
3E5
330
1F
100
AcDbEntity
  8
0
100
AcDbHatch
 10
0.0
 20
0.0
 30
0.0
210
0.0
220
0.0
230
1.0
  2
GRAVEL
 70
     0
 71
     1
 91
        1
 92
        7
 72
     0
 73
     1
 93
        4
 10
407.5724769987495
 20
395.6746649436643
 10
407.7004729864458
 20
408.0918588920546
 10
389.8658235619101
 20
413.5735429685064
 10
384.4023889981091
 20
403.2030828985218
 97
        4
330
3C5
330
3EA
330
39D
330
3E4
 75
     0
 76
     1
 52
0.0
 41
4.0
 77
     0
 78
    41
 53
228.0127999999999
 43
-344.5034739621888
 44
-1340.826470384137
 45
-31.99999292863264
 46
-36.00000536642898
 79
     2
 49
0.538144
 49
-53.276352
 53
184.9696999999999
 43
-344.8634739621888
 44
-1341.226470384137
 45
48.00000420607054
 46
3.999965228028207
 79
     2
 49
0.9234719999999999
 49
-91.42369999999999
 53
132.5104
 43
-345.7834739621888
 44
-1341.306470384137
 45
39.99996287338725
 46
-44.00003469548479
 79
     2
 49
0.6511520000000001
 49
-64.464128
 53
267.2737
 43
-347.3434739621888
 44
-1342.306470384137
 45
3.999984070908761
 46
80.00000117989387
 79
     2
 49
0.840952
 49
-83.25423200000001
 53
292.8337
 43
-347.3834739621888
 44
-1343.146470384137
 45
-20.00003962174856
 46
47.9999856471111
 79
     2
 49
0.8246199999999999
 49
-81.63749200000001
 53
357.2737
 43
-347.0634739621889
 44
-1343.906470384137
 45
-80.00000117989387
 46
3.999984070908766
 79
     2
 49
0.840952
 49
-83.25423200000001
 53
37.6942
 43
-346.2234739621888
 44
-1343.946470384137
 45
-52.0000293824719
 46
-39.99996162064212
 79
     2
 49
1.112115999999999
 49
-110.099396
 53
72.2553
 43
-345.3434739621888
 44
-1343.266470384137
 45
28.00004305082163
 46
87.99998492495674
 79
     2
 49
1.049951999999999
 49
-103.945284
 53
121.4296
 43
-345.0234739621888
 44
-1342.266470384138
 45
-32.00003293670546
 46
51.99998014597027
 79
     2
 49
0.8438
 49
-83.536292
 53
175.2364
 43
-345.4634739621888
 44
-1341.546470384137
 45
44.00000378527834
 46
-3.999966130645042
 79
     2
 49
0.9633279999999995
 49
-47.20305199999997
 53
222.3974
 43
-346.4234739621888
 44
-1341.466470384137
 45
-48.00002940429294
 46
-43.99996832805647
 79
     2
 49
1.245792
 49
-123.3335
 53
138.8141
 43
-343.3834739621888
 44
-1342.346470384137
 45
-28.00001178722286
 46
23.99998925337102
 79
     2
 49
0.425204
 49
-42.09537599999999
 53
171.4692
 43
-343.7034739621888
 44
-1342.066470384137
 45
51.99999313926051
 46
-8.000031640159161
 79
     2
 49
0.8089479999999994
 49
-80.08604399999994
 53
225.0
 43
-344.5034739621888
 44
-1341.946470384137
 45
-0.0000000000000004
 46
-4.000001237795808
 79
     2
 49
0.565684
 49
-5.091167999999999
 53
203.1985999999999
 43
-344.7834739621888
 44
-1341.466470384137
 45
19.9999989226683
 46
8.000005301059415
 79
     2
 49
0.304632
 49
-30.15845999999999
 53
291.8013999999999
 43
-345.0634739621889
 44
-1341.586470384137
 45
-3.999999642002594
 46
12.00000109204307
 79
     2
 49
0.430812
 49
-21.109848
 53
30.9638
 43
-344.9034739621888
 44
-1341.986470384137
 45
11.99999208915199
 46
8.00000993416293
 79
     2
 49
0.6997159999999996
 49
-22.62409199999998
 53
161.5650999999999
 43
-344.3034739621888
 44
-1341.626470384137
 45
8.000001738371846
 46
-3.99999361289083
 79
     2
 49
0.5059640000000001
 49
-12.143148
 53
16.38950000000001
 43
-347.3834739621888
 44
-1341.586470384137
 45
40.00000879364783
 46
11.99997083927188
 79
     2
 49
0.7088
 49
-70.17138
 53
70.3462
 43
-346.7034739621888
 44
-1341.386470384137
 45
-15.99998098948697
 46
-44.00000854242489
 79
     2
 49
0.5946439999999999
 49
-58.869632
 53
293.1986
 43
-344.3034739621888
 44
-1340.826470384137
 45
-8.000005301059415
 46
19.9999989226683
 79
     2
 49
0.60926
 49
-29.853832
 53
343.6104999999999
 43
-344.0634739621888
 44
-1341.386470384137
 45
-40.00000879364783
 46
11.99997083927189
 79
     2
 49
0.7087999999999996
 49
-70.17137999999994
 53
339.444
 43
-347.3834739621888
 44
-1344.066470384137
 45
-20.00000737816969
 46
7.999983985686337
 79
     2
 49
0.6835200000000001
 49
-33.492496
 53
294.7751
 43
-346.7434739621888
 44
-1344.306470384137
 45
-19.99996875698067
 46
44.00001368735646
 79
     2
 49
0.5727119999999996
 49
-56.69857199999997
 53
66.8014
 43
-344.2634739621888
 44
-1344.826470384137
 45
8.00000530105942
 46
19.9999989226683
 79
     2
 49
0.60926
 49
-29.853832
 53
17.354
 43
-344.0234739621888
 44
-1344.266470384138
 45
-52.00000807638733
 46
-15.99997800903647
 79
     2
 49
0.6705239999999999
 49
-66.38169599999997
 53
69.444
 43
-346.2234739621888
 44
-1344.826470384137
 45
-7.999983985686347
 46
-20.00000737816968
 79
     2
 49
0.34176
 49
-33.83425599999999
 53
101.3098999999999
 43
-344.5034739621888
 44
-1344.826470384137
 45
-3.999990528646421
 46
16.0000030089238
 79
     2
 49
0.20396
 49
-20.19211599999999
 53
165.9637999999999
 43
-344.5434739621889
 44
-1344.626470384137
 45
12.00000218395895
 46
-3.999992229444982
 79
     2
 49
0.8246199999999999
 49
-15.6678
 53
186.0089999999999
 43
-345.3434739621888
 44
-1344.426470384137
 45
39.99999900362416
 46
3.999997269927365
 79
     2
 49
0.7642
 49
-75.655692
 53
303.6900999999999
 43
-344.9034739621888
 44
-1342.346470384137
 45
-4.000005338028763
 46
7.999998231084641
 79
     2
 49
0.576888
 49
-13.845316
 53
353.1572
 43
-344.5834739621888
 44
-1342.826470384137
 45
67.99999746191417
 46
-8.000031991699044
 79
     2
 49
1.007176
 49
-99.71025199999999
 53
60.94540000000001
 43
-343.5834739621888
 44
-1342.946470384137
 45
-16.00000010879712
 46
-28.00000153827874
 79
     2
 49
0.4118240000000001
 49
-40.770696
 53
90.0
 43
-343.3834739621888
 44
-1342.586470384137
 45
-3.999999999999999
 46
4.0
 79
     2
 49
0.24
 49
-3.759999999999999
 53
120.2563999999999
 43
-345.4234739621889
 44
-1344.306470384137
 45
15.99997954721077
 46
-28.00000982341893
 79
     2
 49
0.5556960000000001
 49
-55.01408000000001
 53
48.01279999999999
 43
-345.7034739621888
 44
-1343.826470384137
 45
31.99999292863264
 46
36.00000536642899
 79
     2
 49
1.076287999999999
 49
-52.73820799999999
 53
0.0
 43
-344.9834739621889
 44
-1343.026470384137
 45
4.0
 46
4.0
 79
     2
 49
1.04
 49
-2.959999999999999
 53
325.3048
 43
-343.9434739621888
 44
-1343.026470384137
 45
-39.9999770359501
 46
28.00003443837783
 79
     2
 49
0.632456
 49
-62.613096
 53
254.0545999999999
 43
-343.4234739621889
 44
-1343.386470384137
 45
-3.999999557185524
 46
-16.0000005066086
 79
     2
 49
0.5824080000000001
 49
-28.538032
 53
207.6459999999999
 43
-343.5834739621888
 44
-1343.946470384137
 45
-75.99998322871837
 46
-40.00003085267671
 79
     2
 49
0.9482599999999999
 49
-93.87789599999999
 53
175.4260999999999
 43
-344.4234739621888
 44
-1344.386470384137
 45
-52.00000223324853
 46
3.999979204644335
 79
     2
 49
1.003195999999999
 49
-99.31629599999993
 47
0.2232566699257212
 98
        1
 10
397.8505643421371
 20
403.6724198241745
  0
LINE
  5
3E6
330
1F
100
AcDbEntity
  8
0
 62
     0
100
AcDbLine
 10
426.2293869720662
 20
406.156302737988
 30
0.0
 11
416.7463886942276
 21
424.1021703174481
 31
0.0
  0
LINE
  5
3E7
330
1F
100
AcDbEntity
  8
0
 62
     0
100
AcDbLine
 10
415.7678252187143
 20
405.5668032321525
 30
0.0
 11
403.8747446827202
 21
428.0735718888113
 31
0.0
  0
LINE
  5
3E8
330
1F
100
AcDbEntity
  8
0
 62
     0
100
AcDbLine
 10
403.0883552579153
 20
409.1745297331238
 30
0.0
 11
391.1952747219211
 21
431.6812983897825
 31
0.0
  0
LINE
  5
3E9
330
1F
100
AcDbEntity
  8
0
  6
DASHED
100
AcDbLine
 10
384.4023889981091
 20
403.203082898522
 30
0.0
 11
408.11402486
 21
448.2115057190323
 31
0.0
  0
LINE
  5
3EA
102
{ACAD_REACTORS
330
3E5
102
}
330
1F
100
AcDbEntity
  8
0
100
AcDbLine
 10
384.4023889981091
 20
403.203082898522
 30
0.0
 11
389.86582356191
 21
413.5735429685062
 31
0.0
  0
LINE
  5
3F1
330
1F
100
AcDbEntity
  8
DIM
  6
DASHDOT
100
AcDbLine
 10
945.6165260378112
 20
100.1735296158622
 30
0.0
 11
945.6165260378112
 21
702.1735296158622
 31
0.0
  0
LINE
  5
3F2
330
1F
100
AcDbEntity
  8
0
100
AcDbLine
 10
684.3279087743817
 20
325.4677418204408
 30
0.0
 11
677.529534898133
 21
346.3909851789342
 31
0.0
  0
LWPOLYLINE
  5
3F3
330
1F
100
AcDbEntity
  8
0
100
AcDbPolyline
 90
        5
 70
     0
 43
2.0
 10
534.2530234651099
 20
301.9405490552824
 10
672.1562183279071
 20
346.7480132396499
 10
656.7053686091598
 20
394.3008390544075
 10
699.5029118424418
 20
408.2066038012801
 10
690.1224793278011
 20
409.1692945248
  0
LINE
  5
3F5
330
1F
100
AcDbEntity
  8
0
100
AcDbLine
 10
945.6165260378112
 20
410.3655599707904
 30
0.0
 11
559.2639768815691
 21
284.8320070601353
 31
0.0
  0
LINE
  5
3F7
330
1F
100
AcDbEntity
  8
0
100
AcDbLine
 10
749.4752801405998
 20
346.6354059351246
 30
0.0
 11
654.3696285110844
 21
315.7337064976299
 31
0.0
  0
LINE
  5
3F9
330
1F
100
AcDbEntity
  8
0
100
AcDbLine
 10
559.2639768815693
 20
127.1126734243953
 30
0.0
 11
945.6165260378112
 21
252.6462263350504
 31
0.0
  0
LINE
  5
3FE
330
1F
100
AcDbEntity
  8
0
100
AcDbLine
 10
654.3696285110844
 20
315.7337064976299
 30
0.0
 11
559.2639768815691
 21
284.8320070601353
 31
0.0
  0
LINE
  5
402
330
1F
100
AcDbEntity
  8
0
100
AcDbLine
 10
509.2639768815691
 20
127.1735296158622
 30
0.0
 11
559.4343740914639
 21
267.1125697271814
 31
0.0
  0
LINE
  5
403
330
1F
100
AcDbEntity
  8
0
100
AcDbLine
 10
509.434374091464
 20
267.1734259186482
 30
0.0
 11
559.2639768815691
 21
127.1126734243953
 31
0.0
  0
LINE
  5
405
330
1F
100
AcDbEntity
  8
0
100
AcDbLine
 10
509.2420700486506
 20
284.8320070601353
 30
0.0
 11
509.2420700486506
 21
127.1126734243953
 31
0.0
  0
LINE
  5
406
330
1F
100
AcDbEntity
  8
0
100
AcDbLine
 10
559.2639768815691
 20
284.8320070601353
 30
0.0
 11
559.2639768815691
 21
127.1126734243953
 31
0.0
  0
LINE
  5
429
330
1F
100
AcDbEntity
  8
0
100
AcDbLine
 10
945.6165260378112
 20
486.0708401159455
 30
0.0
 11
709.6315109941433
 21
409.3946607124392
 31
0.0
  0
LINE
  5
42A
330
1F
100
AcDbEntity
  8
0
 62
     0
100
AcDbLine
 10
755.5191997528561
 20
436.9743407326664
 30
0.0
 11
767.4122802888502
 21
459.4811093893252
 31
0.0
  0
LINE
  5
42C
330
1F
100
AcDbEntity
  8
0
100
AcDbLine
 10
844.5809317701151
 20
377.5371053726193
 30
0.0
 11
749.4752801405998
 21
346.6354059351246
 31
0.0
  0
LINE
  5
42E
330
1F
100
AcDbEntity
  8
0
100
AcDbLine
 10
945.6165260378112
 20
433.4977289040323
 30
0.0
 11
725.0823607128904
 21
361.8418348976815
 31
0.0
  0
LWPOLYLINE
  5
42F
330
1F
100
AcDbEntity
  8
0
100
AcDbPolyline
 90
        4
 70
     0
 43
0.0
 10
945.6165260378112
 20
554.2364229856407
 10
626.8259617191975
 20
456.2333055007171
 10
643.3361432402314
 20
402.7224289788125
 10
945.6165260378112
 20
495.6317719976668
1001
ACAD
1000
ASC_BOUNDS
1002
{
1070
    19
1002
}
  0
LWPOLYLINE
  5
430
330
1F
100
AcDbEntity
  8
0
100
AcDbPolyline
 90
        3
 70
     0
 43
0.0
 10
945.6165260378112
 20
514.4689782751079
 10
638.0292991798994
 20
419.9223535751391
 10
643.3361432402315
 20
402.7224289788125
1001
ACAD
1000
ASC_BOUNDS
1002
{
1070
    19
1002
}
  0
LINE
  5
433
330
1F
100
AcDbEntity
  8
0
 62
     0
100
AcDbLine
 10
742.6475557413486
 20
433.0029391613031
 30
0.0
 11
754.5406362773428
 21
455.509707817962
 31
0.0
  0
LINE
  5
435
330
1F
100
AcDbEntity
  8
0
 62
     0
100
AcDbLine
 10
678.4910703185885
 20
413.5276990677852
 30
0.0
 11
690.182416219806
 21
435.6526999611458
 31
0.0
  0
LINE
  5
436
330
1F
100
AcDbEntity
  8
0
100
AcDbLine
 10
677.529534898133
 20
346.3909851789342
 30
0.0
 11
709.6315109941431
 21
409.3946607124392
 31
0.0
  0
LINE
  5
437
330
1F
100
AcDbEntity
  8
0
100
AcDbLine
 10
725.0823607128904
 20
361.8418348976815
 30
0.0
 11
662.0786851793854
 21
393.9438109936918
 31
0.0
  0
LWPOLYLINE
  5
438
330
1F
100
AcDbEntity
  8
0
100
AcDbPolyline
 90
        4
 70
     1
 43
0.0
 10
677.5295348981329
 20
346.3909851789342
 10
662.0786851793854
 20
393.9438109936918
 10
709.6315109941433
 20
409.3946607124392
 10
725.0823607128904
 20
361.8418348976815
  0
LINE
  5
439
330
1F
100
AcDbEntity
  8
0
  6
DASHED
100
AcDbLine
 10
660.9335699314704
 20
395.6746649436643
 30
0.0
 11
660.3920220702197
 21
448.2115057190323
 31
0.0
  0
HATCH
  5
43A
330
1F
100
AcDbEntity
  8
0
100
AcDbHatch
 10
0.0
 20
0.0
 30
0.0
210
0.0
220
0.0
230
1.0
  2
GRAVEL
 70
     0
 71
     0
 91
        1
 92
        7
 72
     0
 73
     1
 93
        4
 10
660.9335699314702
 20
395.6746649436643
 10
660.8055739437739
 20
408.0918588920546
 10
678.6402233683097
 20
413.5735429685064
 10
684.1036579321107
 20
403.2030828985218
 97
        0
 75
     0
 76
     1
 52
0.0
 41
4.0
 77
     0
 78
    41
 53
311.9872
 43
1413.009520892408
 44
-1340.826470384137
 45
31.99999292863264
 46
-36.00000536642898
 79
     2
 49
0.538144
 49
-53.276352
 53
355.0302999999999
 43
1413.369520892408
 44
-1341.226470384137
 45
-48.00000420607054
 46
3.999965228028207
 79
     2
 49
0.9234719999999999
 49
-91.42369999999999
 53
47.4896
 43
1414.289520892408
 44
-1341.306470384137
 45
-39.99996287338725
 46
-44.00003469548479
 79
     2
 49
0.6511520000000001
 49
-64.464128
 53
272.7262999999999
 43
1415.849520892408
 44
-1342.306470384137
 45
-3.999984070908761
 46
80.00000117989387
 79
     2
 49
0.8409519999999995
 49
-83.25423199999994
 53
247.1662999999999
 43
1415.889520892408
 44
-1343.146470384137
 45
20.00003962174856
 46
47.9999856471111
 79
     2
 49
0.8246199999999999
 49
-81.63749200000001
 53
182.7262999999999
 43
1415.569520892408
 44
-1343.906470384137
 45
80.00000117989387
 46
3.999984070908766
 79
     2
 49
0.840952
 49
-83.25423200000001
 53
142.3058
 43
1414.729520892408
 44
-1343.946470384137
 45
52.0000293824719
 46
-39.99996162064212
 79
     2
 49
1.112115999999999
 49
-110.099396
 53
107.7446999999999
 43
1413.849520892408
 44
-1343.266470384137
 45
-28.00004305082163
 46
87.99998492495674
 79
     2
 49
1.049951999999999
 49
-103.945284
 53
58.57040000000001
 43
1413.529520892408
 44
-1342.266470384138
 45
32.00003293670546
 46
51.99998014597027
 79
     2
 49
0.8438
 49
-83.536292
 53
4.763600000000002
 43
1413.969520892408
 44
-1341.546470384137
 45
-44.00000378527834
 46
-3.999966130645042
 79
     2
 49
0.9633279999999995
 49
-47.20305199999996
 53
317.6026
 43
1414.929520892408
 44
-1341.466470384137
 45
48.00002940429294
 46
-43.99996832805647
 79
     2
 49
1.245792
 49
-123.3335
 53
41.18590000000001
 43
1411.889520892408
 44
-1342.346470384137
 45
28.00001178722286
 46
23.99998925337102
 79
     2
 49
0.425204
 49
-42.09537599999999
 53
8.530799999999993
 43
1412.209520892408
 44
-1342.066470384137
 45
-51.99999313926051
 46
-8.000031640159161
 79
     2
 49
0.8089479999999994
 49
-80.08604399999994
 53
315.0
 43
1413.009520892408
 44
-1341.946470384137
 45
0.0000000000000004
 46
-4.000001237795808
 79
     2
 49
0.565684
 49
-5.091167999999999
 53
336.8014
 43
1413.289520892409
 44
-1341.466470384137
 45
-19.9999989226683
 46
8.000005301059415
 79
     2
 49
0.3046319999999998
 49
-30.15845999999998
 53
248.1986
 43
1413.569520892408
 44
-1341.586470384137
 45
3.999999642002594
 46
12.00000109204307
 79
     2
 49
0.430812
 49
-21.109848
 53
149.0362
 43
1413.409520892408
 44
-1341.986470384137
 45
-11.99999208915199
 46
8.00000993416293
 79
     2
 49
0.6997159999999995
 49
-22.62409199999998
 53
18.43489999999999
 43
1412.809520892408
 44
-1341.626470384137
 45
-8.000001738371846
 46
-3.99999361289083
 79
     2
 49
0.5059640000000001
 49
-12.143148
 53
163.6105
 43
1415.889520892408
 44
-1341.586470384137
 45
-40.00000879364783
 46
11.99997083927188
 79
     2
 49
0.7088
 49
-70.17138
 53
109.6538
 43
1415.209520892408
 44
-1341.386470384137
 45
15.99998098948697
 46
-44.00000854242489
 79
     2
 49
0.5946439999999999
 49
-58.86963199999999
 53
246.8014
 43
1412.809520892408
 44
-1340.826470384137
 45
8.000005301059415
 46
19.9999989226683
 79
     2
 49
0.6092599999999996
 49
-29.85383199999998
 53
196.3895
 43
1412.569520892408
 44
-1341.386470384137
 45
40.00000879364783
 46
11.99997083927189
 79
     2
 49
0.7087999999999994
 49
-70.17137999999992
 53
200.556
 43
1415.889520892408
 44
-1344.066470384137
 45
20.00000737816969
 46
7.999983985686337
 79
     2
 49
0.6835200000000001
 49
-33.492496
 53
245.2249
 43
1415.249520892408
 44
-1344.306470384137
 45
19.99996875698067
 46
44.00001368735646
 79
     2
 49
0.572712
 49
-56.69857199999999
 53
113.1985999999999
 43
1412.769520892408
 44
-1344.826470384137
 45
-8.00000530105942
 46
19.9999989226683
 79
     2
 49
0.60926
 49
-29.853832
 53
162.6459999999999
 43
1412.529520892408
 44
-1344.266470384138
 45
52.00000807638733
 46
-15.99997800903647
 79
     2
 49
0.6705239999999999
 49
-66.38169599999997
 53
110.556
 43
1414.729520892408
 44
-1344.826470384137
 45
7.999983985686347
 46
-20.00000737816968
 79
     2
 49
0.34176
 49
-33.83425599999999
 53
78.69010000000002
 43
1413.009520892408
 44
-1344.826470384137
 45
3.999990528646421
 46
16.0000030089238
 79
     2
 49
0.20396
 49
-20.19211599999999
 53
14.0362
 43
1413.049520892409
 44
-1344.626470384137
 45
-12.00000218395895
 46
-3.999992229444982
 79
     2
 49
0.8246199999999999
 49
-15.6678
 53
353.9909999999999
 43
1413.849520892408
 44
-1344.426470384137
 45
-39.99999900362416
 46
3.999997269927365
 79
     2
 49
0.7642
 49
-75.655692
 53
236.3099
 43
1413.409520892408
 44
-1342.346470384137
 45
4.000005338028763
 46
7.999998231084641
 79
     2
 49
0.576888
 49
-13.845316
 53
186.8428
 43
1413.089520892408
 44
-1342.826470384137
 45
-67.99999746191417
 46
-8.000031991699044
 79
     2
 49
1.007176
 49
-99.71025199999999
 53
119.0545999999999
 43
1412.089520892408
 44
-1342.946470384137
 45
16.00000010879712
 46
-28.00000153827874
 79
     2
 49
0.4118240000000001
 49
-40.770696
 53
90.0
 43
1411.889520892408
 44
-1342.586470384137
 45
3.999999999999999
 46
4.0
 79
     2
 49
0.24
 49
-3.759999999999999
 53
59.7436
 43
1413.929520892408
 44
-1344.306470384137
 45
-15.99997954721077
 46
-28.00000982341893
 79
     2
 49
0.5556960000000001
 49
-55.01408000000001
 53
131.9871999999999
 43
1414.209520892408
 44
-1343.826470384137
 45
-31.99999292863264
 46
36.00000536642899
 79
     2
 49
1.076287999999999
 49
-52.73820799999999
 53
180.0
 43
1413.489520892408
 44
-1343.026470384137
 45
-4.0
 46
4.0
 79
     2
 49
1.04
 49
-2.959999999999999
 53
214.6951999999999
 43
1412.449520892408
 44
-1343.026470384137
 45
39.9999770359501
 46
28.00003443837783
 79
     2
 49
0.632456
 49
-62.613096
 53
285.9453999999999
 43
1411.929520892408
 44
-1343.386470384137
 45
3.999999557185524
 46
-16.0000005066086
 79
     2
 49
0.5824080000000001
 49
-28.538032
 53
332.354
 43
1412.089520892408
 44
-1343.946470384137
 45
75.99998322871837
 46
-40.00003085267671
 79
     2
 49
0.9482599999999999
 49
-93.87789599999999
 53
4.573900000000003
 43
1412.929520892408
 44
-1344.386470384137
 45
52.00000223324853
 46
3.999979204644335
 79
     2
 49
1.003195999999998
 49
-99.31629599999993
 47
0.2232566699257212
 98
        1
 10
670.6554825880825
 20
403.6724198241745
  0
LINE
  5
43B
330
1F
100
AcDbEntity
  8
0
100
AcDbLine
 10
660.9335699314704
 20
395.6746649436643
 30
0.0
 11
660.8055739437741
 21
408.0918588920544
 31
0.0
  0
LINE
  5
43C
330
1F
100
AcDbEntity
  8
0
 62
     0
100
AcDbLine
 10
642.2766599581535
 20
406.156302737988
 30
0.0
 11
651.7596582359921
 21
424.1021703174481
 31
0.0
  0
LINE
  5
43D
330
1F
100
AcDbEntity
  8
0
 62
     0
100
AcDbLine
 10
665.4176916723045
 20
409.1745297331238
 30
0.0
 11
677.3107722082986
 21
431.6812983897825
 31
0.0
  0
LINE
  5
43E
330
1F
100
AcDbEntity
  8
0
  6
DASHED
100
AcDbLine
 10
684.1036579321107
 20
403.203082898522
 30
0.0
 11
660.3920220702197
 21
448.2115057190323
 31
0.0
  0
LINE
  5
43F
330
1F
100
AcDbEntity
  8
0
 62
     0
100
AcDbLine
 10
652.7382217115054
 20
405.5668032321525
 30
0.0
 11
664.6313022474995
 21
428.0735718888113
 31
0.0
  0
LINE
  5
440
330
1F
100
AcDbEntity
  8
0
100
AcDbLine
 10
684.1036579321107
 20
403.203082898522
 30
0.0
 11
678.6402233683097
 21
413.5735429685062
 31
0.0
  0
LINE
  5
441
330
1F
100
AcDbEntity
  8
0
 62
     0
100
AcDbLine
 10
716.904267718334
 20
425.0601360185767
 30
0.0
 11
728.7973482543281
 21
447.5669046752354
 31
0.0
  0
LINE
  5
442
330
1F
100
AcDbEntity
  8
0
 62
     0
100
AcDbLine
 10
691.1609796953191
 20
417.1173328758502
 30
0.0
 11
703.0540602313135
 21
439.624101532509
 31
0.0
  0
LINE
  5
443
330
1F
100
AcDbEntity
  8
0
 62
     0
100
AcDbLine
 10
704.0326237068265
 20
421.0887344472134
 30
0.0
 11
715.9257042428207
 21
443.5955031038722
 31
0.0
  0
LINE
  5
444
330
1F
100
AcDbEntity
  8
0
 62
     0
100
AcDbLine
 10
729.7759117298414
 20
429.0315375899399
 30
0.0
 11
741.6689922658356
 21
451.5383062465986
 31
0.0
  0
LINE
  5
449
330
1F
100
AcDbEntity
  8
0
 62
     0
100
AcDbLine
 10
909.9789278909447
 20
484.6311595890251
 30
0.0
 11
921.8720084269389
 21
507.1379282456837
 31
0.0
  0
LINE
  5
44B
330
1F
100
AcDbEntity
  8
0
 62
     0
100
AcDbLine
 10
794.1341317873782
 20
448.8885454467561
 30
0.0
 11
806.0272123233724
 21
471.3953141034148
 31
0.0
  0
LINE
  5
44C
330
1F
100
AcDbEntity
  8
0
 62
     0
100
AcDbLine
 10
768.3908437643635
 20
440.9457423040296
 30
0.0
 11
780.2839243003577
 21
463.4525109606884
 31
0.0
  0
LINE
  5
44D
330
1F
100
AcDbEntity
  8
0
 62
     0
100
AcDbLine
 10
781.2624877758707
 20
444.9171438753928
 30
0.0
 11
793.155568311865
 21
467.4239125320516
 31
0.0
  0
LINE
  5
44F
330
1F
100
AcDbEntity
  8
0
 62
     0
100
AcDbLine
 10
807.0057757988857
 20
452.8599470181193
 30
0.0
 11
818.8988563348798
 21
475.3667156747781
 31
0.0
  0
LINE
  5
452
330
1F
100
AcDbEntity
  8
0
 62
     0
100
AcDbLine
 10
832.7490638219003
 20
460.8027501608457
 30
0.0
 11
844.6421443578945
 21
483.3095188175043
 31
0.0
  0
LINE
  5
453
330
1F
100
AcDbEntity
  8
0
 62
     0
100
AcDbLine
 10
819.8774198103929
 20
456.8313485894825
 30
0.0
 11
831.7705003463871
 21
479.3381172461413
 31
0.0
  0
LINE
  5
454
330
1F
100
AcDbEntity
  8
0
 62
     0
100
AcDbLine
 10
871.3639958564224
 20
472.7169548749352
 30
0.0
 11
883.2570763924165
 21
495.2237235315942
 31
0.0
  0
LINE
  5
455
330
1F
100
AcDbEntity
  8
0
 62
     0
100
AcDbLine
 10
845.6207078334077
 20
464.7741517322088
 30
0.0
 11
857.5137883694019
 21
487.2809203888677
 31
0.0
  0
LINE
  5
456
330
1F
100
AcDbEntity
  8
0
 62
     0
100
AcDbLine
 10
858.492351844915
 20
468.7455533035723
 30
0.0
 11
870.3854323809094
 21
491.2523219602308
 31
0.0
  0
LINE
  5
457
330
1F
100
AcDbEntity
  8
0
 62
     0
100
AcDbLine
 10
897.1072838794373
 20
480.6597580176616
 30
0.0
 11
909.0003644154315
 21
503.1665266743207
 31
0.0
  0
LINE
  5
458
330
1F
100
AcDbEntity
  8
0
 62
     0
100
AcDbLine
 10
884.2356398679298
 20
476.6883564462987
 30
0.0
 11
896.1287204039241
 21
499.1951251029572
 31
0.0
  0
LINE
  5
459
330
1F
100
AcDbEntity
  8
0
 62
     0
100
AcDbLine
 10
935.7222159139592
 20
492.5739627317514
 30
0.0
 11
945.6165260378112
 21
511.2982073293396
 31
0.0
  0
LINE
  5
45A
330
1F
100
AcDbEntity
  8
0
 62
     0
100
AcDbLine
 10
922.850571902452
 20
488.6025611603882
 30
0.0
 11
934.7436524384461
 21
511.1093298170471
 31
0.0
  0
LINE
  5
49E
330
1F
100
AcDbEntity
  8
0
100
AcDbLine
 10
509.2639768815691
 20
127.1735296158622
 30
0.0
 11
509.2639768815691
 21
284.8320070601353
 31
0.0
  0
LINE
  5
4A0
330
1F
100
AcDbEntity
  8
0
100
AcDbLine
 10
559.2639768815691
 20
284.8320070601353
 30
0.0
 11
559.2639768815691
 21
127.1126734243953
 31
0.0
  0
LINE
  5
4A1
330
1F
100
AcDbEntity
  8
0
100
AcDbLine
 10
559.2639768815691
 20
127.1126734243953
 30
0.0
 11
509.2639768815691
 21
127.1735296158622
 31
0.0
  0
LINE
  5
4A3
330
1F
100
AcDbEntity
  8
0
100
AcDbLine
 10
559.4343740914639
 20
267.1125697271814
 30
0.0
 11
509.434374091464
 21
267.1734259186482
 31
0.0
  0
LWPOLYLINE
  5
4A7
330
1F
100
AcDbEntity
  8
hüdroiso
 48
0.5
100
AcDbPolyline
 90
        3
 70
     0
 43
0.0
 10
118.6165260378111
 20
411.7539401609509
 10
534.4343740914639
 20
283.6413212343875
 10
945.6165260378112
 20
410.3655599707904
  0
LWPOLYLINE
  5
4C2
330
1F
100
AcDbEntity
  8
neelu alusplekk
370
    53
100
AcDbPolyline
 90
        6
 70
     0
 43
0.0
 10
534.4732910625899
 20
277.0286470819282
 10
713.5353350871538
 20
337.1050205947887
 42
-0.4500330299192566
 10
714.832887144003
 20
336.3585415151003
 10
714.8737470354352
 20
336.1600089549651
 42
-0.3810458885813204
 10
714.3733088829061
 20
335.296313284452
 10
707.8834644111144
 20
333.1634289135078
  0
LWPOLYLINE
  5
4C4
330
1F
100
AcDbEntity
  8
neelu alusplekk
370
    53
100
AcDbPolyline
 90
        6
 70
     0
 43
0.0
 10
534.3954571203379
 20
277.0286470819282
 10
355.333413095774
 20
337.1050205947887
 42
0.4500330299192566
 10
354.0358610389248
 20
336.3585415151003
 10
353.9950011474926
 20
336.1600089549651
 42
0.3810458885813204
 10
354.4954393000217
 20
335.296313284452
 10
360.9852837718134
 20
333.1634289135078
  0
VIEWPORT
  5
32
330
1B
100
AcDbEntity
 67
     1
  8
0
100
AcDbViewport
 10
126.3324053945375
 20
113.4380328417195
 30
0.0
 40
398.8445511265296
 41
258.2848301824473
 68
     1
 69
     1
 12
126.3324053945375
 22
113.4380328417195
 13
0.0
 23
0.0
 14
10.0
 24
10.0
 15
10.0
 25
10.0
 16
0.0
 26
0.0
 36
1.0
 17
0.0
 27
0.0
 37
0.0
 42
50.0
 43
0.0
 44
0.0
 45
258.2848301824473
 50
0.0
 51
0.0
 72
   100
 90
    32800
  1

281
     0
 71
     1
 74
     0
110
0.0
120
0.0
130
0.0
111
1.0
121
0.0
131
0.0
112
0.0
122
1.0
132
0.0
 79
     0
146
0.0
  0
VIEWPORT
  5
34
330
1B
100
AcDbEntity
 67
     1
  8
vaateväli
100
AcDbViewport
 10
170.6182973423303
 20
104.5337138743166
 30
0.0
 40
221.1475933443314
 41
142.9937572572799
 68
     2
 69
     2
 12
531.0055730239845
 22
368.6456032621965
 13
0.0
 23
0.0
 14
10.0
 24
10.0
 15
10.0
 25
10.0
 16
0.0
 26
0.0
 36
1.0
 17
0.0
 27
0.0
 37
0.0
 42
50.0
 43
0.0
 44
0.0
 45
571.9750290291199
 50
0.0
 51
0.0
 72
   100
 90
    32864
  1

281
     0
 71
     1
 74
     0
110
0.0
120
0.0
130
0.0
111
1.0
121
0.0
131
0.0
112
0.0
122
1.0
132
0.0
 79
     0
146
0.0
  0
MTEXT
  5
2A2
330
1B
100
AcDbEntity
 67
     1
  8
kiri
100
AcDbMText
 10
5.624510004779153
 20
20.4335415053136
 30
0.0
 40
3.0
 41
235.0999999999999
 71
     1
 72
     5
  1
{\fArial|b0|i0|c186|p34;NB!!! Antud sõlmed on soovituslikud \Pning tuleks viia kooskõlla vastavalt ülejäänud projekti konstruktiivsete lahendustega.}
  7
ARIAL
 73
     1
 44
1.0
  0
LWPOLYLINE
  5
2A3
330
1B
100
AcDbEntity
 67
     1
  8
kiri
100
AcDbPolyline
 90
        5
 70
     1
 43
0.0
 10
162.0662332931033
 20
23.87083610205001
 10
218.9918271276028
 20
23.87083610205001
 10
286.5439320302484
 20
23.87083610205001
 10
286.5439320302484
 20
3.870836102050019
 10
162.0662332931033
 20
3.870836102050012
  0
LWPOLYLINE
  5
2A4
330
1B
100
AcDbEntity
 67
     1
  8
kiri
100
AcDbPolyline
 90
        4
 70
     1
 43
0.0
 10
3.54393203024847
 20
3.870836102050134
 10
3.543932030248583
 20
199.87083610205
 10
286.5439320302485
 20
199.87083610205
 10
286.5439320302484
 20
3.87083610205002
  0
MTEXT
  5
2A5
330
1B
100
AcDbEntity
 67
     1
  8
kiri
100
AcDbMText
 10
235.2185557857467
 20
22.30395590001568
 30
0.0
 40
2.0
 41
67.0
 71
     1
 72
     5
  1
{\fArial|b0|i0|c186|p34;Neelusõlm aluslaudiseta}
 73
     1
 44
1.0
  0
LINE
  5
2A6
330
1B
100
AcDbEntity
 67
     1
  8
kiri
100
AcDbLine
 10
286.5439320302484
 20
18.87083610205001
 30
0.0
 11
218.9918271276028
 21
18.87083610205001
 31
0.0
  0
LINE
  5
2A7
330
1B
100
AcDbEntity
 67
     1
  8
kiri
100
AcDbLine
 10
286.5439320302484
 20
8.420833161606417
 30
0.0
 11
253.7295854332235
 21
8.420833161606417
 31
0.0
  0
LINE
  5
2A8
330
1B
100
AcDbEntity
 67
     1
  8
kiri
100
AcDbLine
 10
286.5439320302484
 20
13.21986440642842
 30
0.0
 11
253.7295854332235
 21
13.21986440642842
 31
0.0
  0
MTEXT
  5
2A9
330
1B
100
AcDbEntity
 67
     1
  8
kiri
100
AcDbMText
 10
219.953749652409
 20
17.97469636857931
 30
0.0
 40
2.0
 41
30.0
 71
     1
 72
     5
  1
{\fArial|b0|i0|c186|p34;Lafarge Tekkin OÜ\PRävala pst 8C \PTallinn\PEesti}
 73
     1
 44
1.0
  0
LINE
  5
2AA
330
1B
100
AcDbEntity
 67
     1
  8
kiri
 48
10.0
100
AcDbLine
 10
218.9918271276028
 20
23.87083610205001
 30
0.0
 11
218.9918271276028
 21
3.870836102050012
 31
0.0
  0
LINE
  5
2AB
330
1B
100
AcDbEntity
 67
     1
  8
kiri
100
AcDbLine
 10
253.7295854332235
 20
18.87083610205001
 30
0.0
 11
253.7295854332235
 21
3.870836102050012
 31
0.0
  0
MTEXT
  5
2AC
330
1B
100
AcDbEntity
 67
     1
  8
kiri
100
AcDbMText
 10
257.243696172947
 20
7.044415300631491
 30
0.0
 40
2.0
 41
29.0
 71
     1
 72
     5
  1
{\fArial|b0|i0|c186|p34;Aasta 2004}
 73
     1
 44
1.0
  0
MTEXT
  5
2AD
330
1B
100
AcDbEntity
 67
     1
  8
kiri
100
AcDbMText
 10
257.5560469012584
 20
11.75225981621291
 30
0.0
 40
2.0
 41
29.0
 71
     1
 72
     5
  1
{\fArial|b0|i0|c186|p34;Mõõtkava 1:4}
 73
     1
 44
1.0
  0
OLE2FRAME
  5
47D
330
1B
100
AcDbEntity
 67
     1
  8
0
100
AcDbOle2Frame
 70
     2
  3
Bitmap Image
 10
162.6453662222693
 20
23.54523786200331
 30
0.0
 11
218.3061863328498
 21
4.679385879336564
 31
0.0
 71
     2
 72
     1
 73
     1
 90
    24192
310
8155E05210D7A654644060D861B5948B3740000000000000000050C24747CC49
310
6B4060D861B5948B3740000000000000000050C24747CC496B40807594EEB0B7
310
12400000000000000000E05210D7A6546440807594EEB0B71240000000000000
310
00004818AE0800000000000100000100000001000000000001000000005E0000
310
D0CF11E0A1B11AE1000000000000000000000000000000003E000300FEFF0900
310
0600000000000000000000000100000001000000000000000010000002000000
310
01000000FEFFFFFF0000000000000000FFFFFFFFFFFFFFFFFFFFFFFFFFFFFFFF
310
FFFFFFFFFFFFFFFFFFFFFFFFFFFFFFFFFFFFFFFFFFFFFFFFFFFFFFFFFFFFFFFF
310
FFFFFFFFFFFFFFFFFFFFFFFFFFFFFFFFFFFFFFFFFFFFFFFFFFFFFFFFFFFFFFFF
310
FFFFFFFFFFFFFFFFFFFFFFFFFFFFFFFFFFFFFFFFFFFFFFFFFFFFFFFFFFFFFFFF
310
FFFFFFFFFFFFFFFFFFFFFFFFFFFFFFFFFFFFFFFFFFFFFFFFFFFFFFFFFFFFFFFF
310
FFFFFFFFFFFFFFFFFFFFFFFFFFFFFFFFFFFFFFFFFFFFFFFFFFFFFFFFFFFFFFFF
310
FFFFFFFFFFFFFFFFFFFFFFFFFFFFFFFFFFFFFFFFFFFFFFFFFFFFFFFFFFFFFFFF
310
FFFFFFFFFFFFFFFFFFFFFFFFFFFFFFFFFFFFFFFFFFFFFFFFFFFFFFFFFFFFFFFF
310
FFFFFFFFFFFFFFFFFFFFFFFFFFFFFFFFFFFFFFFFFFFFFFFFFFFFFFFFFFFFFFFF
310
FFFFFFFFFFFFFFFFFFFFFFFFFFFFFFFFFFFFFFFFFFFFFFFFFFFFFFFFFFFFFFFF
310
FFFFFFFFFFFFFFFFFFFFFFFFFFFFFFFFFFFFFFFFFFFFFFFFFFFFFFFFFFFFFFFF
310
FFFFFFFFFFFFFFFFFFFFFFFFFFFFFFFFFFFFFFFFFFFFFFFFFFFFFFFFFFFFFFFF
310
FFFFFFFFFFFFFFFFFFFFFFFFFFFFFFFFFFFFFFFFFFFFFFFFFFFFFFFFFFFFFFFF
310
FFFFFFFFFFFFFFFFFFFFFFFFFFFFFFFFFFFFFFFFFFFFFFFFFFFFFFFFFFFFFFFF
310
FDFFFFFF2D000000FEFFFFFFFEFFFFFF05000000060000000700000008000000
310
090000000A0000000B0000000C0000000D0000000E0000000F00000010000000
310
1100000012000000130000001400000015000000160000001700000018000000
310
190000001A0000001B0000001C0000001D0000001E0000001F00000020000000
310
2100000022000000230000002400000025000000260000002700000028000000
310
290000002A0000002B0000002C000000FEFFFFFFFEFFFFFFFFFFFFFFFFFFFFFF
310
FFFFFFFFFFFFFFFFFFFFFFFFFFFFFFFFFFFFFFFFFFFFFFFFFFFFFFFFFFFFFFFF
310
FFFFFFFFFFFFFFFFFFFFFFFFFFFFFFFFFFFFFFFFFFFFFFFFFFFFFFFFFFFFFFFF
310
FFFFFFFFFFFFFFFFFFFFFFFFFFFFFFFFFFFFFFFFFFFFFFFFFFFFFFFFFFFFFFFF
310
FFFFFFFFFFFFFFFFFFFFFFFFFFFFFFFFFFFFFFFFFFFFFFFFFFFFFFFFFFFFFFFF
310
FFFFFFFFFFFFFFFFFFFFFFFFFFFFFFFFFFFFFFFFFFFFFFFFFFFFFFFFFFFFFFFF
310
FFFFFFFFFFFFFFFFFFFFFFFFFFFFFFFFFFFFFFFFFFFFFFFFFFFFFFFFFFFFFFFF
310
FFFFFFFFFFFFFFFFFFFFFFFFFFFFFFFFFFFFFFFFFFFFFFFFFFFFFFFFFFFFFFFF
310
FFFFFFFFFFFFFFFFFFFFFFFFFFFFFFFFFFFFFFFFFFFFFFFFFFFFFFFFFFFFFFFF
310
FFFFFFFFFFFFFFFFFFFFFFFFFFFFFFFFFFFFFFFFFFFFFFFFFFFFFFFFFFFFFFFF
310
FFFFFFFFFFFFFFFFFFFFFFFFFFFFFFFFFFFFFFFFFFFFFFFFFFFFFFFFFFFFFFFF
310
52006F006F007400200045006E00740072007900000000000000000000000000
310
0000000000000000000000000000000000000000000000000000000000000000
310
16000500FFFFFFFFFFFFFFFF020000000A00030000000000C000000000000046
310
0000000000000000000000006099D36115D2C401030000000001000000000000
310
01004F006C006500000000000000000000000000000000000000000000000000
310
0000000000000000000000000000000000000000000000000000000000000000
310
0A000201FFFFFFFFFFFFFFFFFFFFFFFF00000000000000000000000000000000
310
0000000000000000000000000000000000000000000000001400000000000000
310
010043006F006D0070004F0062006A0000000000000000000000000000000000
310
0000000000000000000000000000000000000000000000000000000000000000
310
120002010100000003000000FFFFFFFF00000000000000000000000000000000
310
0000000000000000000000000000000000000000010000004D00000000000000
310
01004F006C006500310030004E00610074006900760065000000000000000000
310
0000000000000000000000000000000000000000000000000000000000000000
310
1A000201FFFFFFFF04000000FFFFFFFF00000000000000000000000000000000
310
000000000000000000000000000000000000000004000000C451000000000000
310
FEFFFFFF02000000FEFFFFFFFEFFFFFFFFFFFFFFFFFFFFFFFFFFFFFFFFFFFFFF
310
FFFFFFFFFFFFFFFFFFFFFFFFFFFFFFFFFFFFFFFFFFFFFFFFFFFFFFFFFFFFFFFF
310
FFFFFFFFFFFFFFFFFFFFFFFFFFFFFFFFFFFFFFFFFFFFFFFFFFFFFFFFFFFFFFFF
310
FFFFFFFFFFFFFFFFFFFFFFFFFFFFFFFFFFFFFFFFFFFFFFFFFFFFFFFFFFFFFFFF
310
FFFFFFFFFFFFFFFFFFFFFFFFFFFFFFFFFFFFFFFFFFFFFFFFFFFFFFFFFFFFFFFF
310
FFFFFFFFFFFFFFFFFFFFFFFFFFFFFFFFFFFFFFFFFFFFFFFFFFFFFFFFFFFFFFFF
310
FFFFFFFFFFFFFFFFFFFFFFFFFFFFFFFFFFFFFFFFFFFFFFFFFFFFFFFFFFFFFFFF
310
FFFFFFFFFFFFFFFFFFFFFFFFFFFFFFFFFFFFFFFFFFFFFFFFFFFFFFFFFFFFFFFF
310
FFFFFFFFFFFFFFFFFFFFFFFFFFFFFFFFFFFFFFFFFFFFFFFFFFFFFFFFFFFFFFFF
310
FFFFFFFFFFFFFFFFFFFFFFFFFFFFFFFFFFFFFFFFFFFFFFFFFFFFFFFFFFFFFFFF
310
FFFFFFFFFFFFFFFFFFFFFFFFFFFFFFFFFFFFFFFFFFFFFFFFFFFFFFFFFFFFFFFF
310
FFFFFFFFFFFFFFFFFFFFFFFFFFFFFFFFFFFFFFFFFFFFFFFFFFFFFFFFFFFFFFFF
310
FFFFFFFFFFFFFFFFFFFFFFFFFFFFFFFFFFFFFFFFFFFFFFFFFFFFFFFFFFFFFFFF
310
FFFFFFFFFFFFFFFFFFFFFFFFFFFFFFFFFFFFFFFFFFFFFFFFFFFFFFFFFFFFFFFF
310
FFFFFFFFFFFFFFFFFFFFFFFFFFFFFFFFFFFFFFFFFFFFFFFFFFFFFFFFFFFFFFFF
310
FFFFFFFFFFFFFFFFFFFFFFFFFFFFFFFFFFFFFFFFFFFFFFFFFFFFFFFFFFFFFFFF
310
0100000200000000000000000000000000000000D8AD1A00C41000002A010000
310
CE1000002B010000E01000002C010000EC1000002D010000041100002E010000
310
0100FEFF030A0000FFFFFFFF0A00030000000000C00000000000004607000000
310
5042727573680007000000504272757368000700000050427275736800F439B2
310
71000000000000000000000000010000D611000039010000F21100003A010000
310
FC1100003B010000061200003C010000461200003D0100005C1200003E010000
310
010000000C010000761200004001000080120000410100008812000042010000
310
A412000043010000CC12000044010000E012000045010000EC12000046010000
310
04130000470100001C130000480100002A130000490100003C1300004A010000
310
4C1300004B010000581300004C0100006C1300004D010000781300004E010000
310
881300004F010000A213000050010000CA13000051010000DE13000052010000
310
F213000053010000FE1300005401000004140000550100000814000056010000
310
261400005701000032140000580100004614000059010000561400005A010000
310
6A1400005B010000741400005C010000801400005D010000921400005E010000
310
9C1400005F010000A814000060010000AE14000061010000BA14000062010000
310
DC14000063010000E614000064010000F4140000650100000015000066010000
310
C0510000424DA6510000000000003604000028000000EB000000540000000100
310
080000000000704D0000C40E0000C40E00000000000000000000FFFFFF00CCFF
310
FF0099FFFF0066FFFF0033FFFF0000FFFF00FFCCFF00CCCCFF0099CCFF0066CC
310
FF0033CCFF0000CCFF00FF99FF00CC99FF009999FF006699FF003399FF000099
310
FF00FF66FF00CC66FF009966FF006666FF003366FF000066FF00FF33FF00CC33
310
FF009933FF006633FF003333FF000033FF00FF00FF00CC00FF009900FF006600
310
FF003300FF000000FF00FFFFCC00CCFFCC0099FFCC0066FFCC0033FFCC0000FF
310
CC00FFCCCC00CCCCCC0099CCCC0066CCCC0033CCCC0000CCCC00FF99CC00CC99
310
CC009999CC006699CC003399CC000099CC00FF66CC00CC66CC009966CC006666
310
CC003366CC000066CC00FF33CC00CC33CC009933CC006633CC003333CC000033
310
CC00FF00CC00CC00CC009900CC006600CC003300CC000000CC00FFFF9900CCFF
310
990099FF990066FF990033FF990000FF9900FFCC9900CCCC990099CC990066CC
310
990033CC990000CC9900FF999900CC9999009999990066999900339999000099
310
9900FF669900CC66990099669900666699003366990000669900FF339900CC33
310
990099339900663399003333990000339900FF009900CC009900990099006600
310
99003300990000009900FFFF6600CCFF660099FF660066FF660033FF660000FF
310
6600FFCC6600CCCC660099CC660066CC660033CC660000CC6600FF996600CC99
310
660099996600669966003399660000996600FF666600CC666600996666006666
310
66003366660000666600FF336600CC3366009933660066336600333366000033
310
6600FF006600CC00660099006600660066003300660000006600FFFF3300CCFF
310
330099FF330066FF330033FF330000FF3300FFCC3300CCCC330099CC330066CC
310
330033CC330000CC3300FF993300CC9933009999330066993300339933000099
310
3300FF663300CC66330099663300666633003366330000663300FF333300CC33
310
330099333300663333003333330000333300FF003300CC003300990033006600
310
33003300330000003300FFFF0000CCFF000099FF000066FF000033FF000000FF
310
0000FFCC0000CCCC000099CC000066CC000033CC000000CC0000FF990000CC99
310
000099990000669900003399000000990000FF660000CC660000996600006666
310
00003366000000660000FF330000CC3300009933000066330000333300000033
310
0000FF000000CC00000099000000660000003300000000000000201F23002120
310
24002120230044850000438500004384000020202300FFFFFF00000000000000
310
0000000000000000000000000000000000000000000000000000000000000000
310
0000000000000000000000000000000000000000000000000000000000000000
310
0000000000000000000000000000000000000000000000000000000000000000
310
0000000000000000000000000000000000000000000000000000000000000000
310
0000000000000000000000000000000000000000000000000000000000000000
310
0000000000000000000000000000000000000000000000000000000000000000
310
0000000000000000000000000000000000000000000000000000000000000000
310
0000000000000000000000000000000000000000000000000000000000000000
310
0000000000000000000000000000000000000000000000000000000000000000
310
0000000000000000000000000000000000000000000000000000000000000000
310
0000000000000000000000000000000000000000000000000000000000000000
310
0000000000000000000000000000000000000000000000000000000000000000
310
0000000000000000000000000000000000000000000000000000000000000000
310
0000000000000000000000000000000000000000000000000000000000000000
310
0000000000000000000000000000000000000000000000000000000000000000
310
0000000000000000000000000000000000000000000000000000000000000000
310
0000000000000000000000000000000000000000000000000000000000000000
310
0000000000000000000000000000000000000000000000000000000000000000
310
0000000000000000000000000000000000000000000000000000000000000000
310
0000000000000000000000000000000000000000000000000000000000000000
310
0000000000000000000000000000000000000000000000000000000000000000
310
0000000000000000000000000000000000000000000000000000000000000000
310
0000000000000000000000000000000000000000000000000000000000000000
310
0000000000000000000000000000000000000000000000000000000000000000
310
0000000000000000000000000000000000000000000000000000000000000000
310
0000000000000000000000000000000000000000000000000000000000000000
310
0000000000000000000000000000000000000000000000000000000000000000
310
0000000000000000000000000000000000000000000000000000000000000000
310
0000000000000000000000000000000000000000000000000000000000000000
310
0000000000000000000000000000000000000000000000000000000000000000
310
0000000000000000000000000000000000000000000000000000000000000000
310
0000000000000000000000000000000000000000000000000000000000000000
310
0000000000000000000000000000000000000000000000000000000000000000
310
0000000000000000000000000000000000000000000000000000000000000000
310
0000000000000000000000000000000000000000000000000000000000000000
310
0000000000000000000000000000000000000000000000000000000000000000
310
0000000000000000000000000000000000000000000000000000000000000000
310
0000000000000000000000000000000000000000000000000000000000000000
310
0000000000000000000000000000000000000000000000000000000000000000
310
0000000000000000000000000000000000000000000000000000000000000000
310
0000000000000000000000000000000000000000000000000000000000000000
310
0000000000000000000000000000000000000000000000000000000000000000
310
0000000000000000000000000000000000000000000000000000000000000000
310
0000000000000000000000000000000000000000000000000000000000000000
310
0000000000000000000000000000000000000000000000000000000000000000
310
0000000000000000000000000000000000000000000000000000000000000000
310
0000000000000000000000000000000000000000000000000000000000000000
310
0000000000000000000000000000000000000000000000000000000000000000
310
0000000000000000000000000000000000000000000000000000000000000000
310
0000000000000000000000000000000000000000000000000000000000000000
310
0000000000000000000000000000000000000000000000000000000000000000
310
0000000000000000000000000000000000000000000000000000000000000000
310
0000000000000000000000000000000000000000000000000000000000000000
310
0000000000000000000000000000000000000000000000000000000000000000
310
0000000000000000000000000000000000000000000000000000000000000000
310
0000000000000000000000000000000000000000000000000000000000000000
310
0000000000000000000000000000000000000000000000000000000000000000
310
0000000000000000000000000000000000000000000000000000000000000000
310
0000000000000000000000000000000000000000000000000000000000000000
310
0000000000000000000000000000000000000000000000000000000000000000
310
0000000000000000000000000000000000000000000000000000000000000000
310
0000000000000000000000000000000000000000000000000000000000000000
310
0000000000000000000000000000000000000000000000000000000000000000
310
000000DBDBDCDBDCDCDBDCDBDBDBDCDCDBDCDBDBDBDBDBDCDBDBDBDBDCDBDBDD
310
DBDCDBDBDBDBDCDBDCDCDCDBDBDCDBDBDCDC0000000000000000000000000000
310
00000000000000000000000000000000000000000000000000000000DADAD8D8
310
D8000000000000DAD8D8D8D8DADED8DEDA000000DADEDAD8000000D8D8D8DAD8
310
000000DEDADAD8000000D8D8D8D8D8000000D8D8D8D8D800000000D8D8D80000
310
0000DAD8DADED800000000000000000000000000000000000000000000000000
310
0000000000000000000000000000000000000000000000000000000000000000
310
000000000000000000000000000000DBDCDBDBDBDBDCDDDBDBDBDDDCDBDCDCDC
310
DCDDDDDCDDDDDBDCDCDBDCDBDBDBDBDDDBDBDDDBDBDBDBDDDCDCDBDBDBDCDB00
310
0000000000000000000000000000000000000000000000000000000000000000
310
0000000000000000D8D8DAD8DA000000000000D8D8D8D8D8DAD9DED8DE000000
310
DED8DED8000000D8D8D8D8DA000000D8D8D8D8000000DADAD8DED8000000D8D8
310
D8D8D800000000D9DADE000000D8D8D8D8D9D800000000000000000000000000
310
0000000000000000000000000000000000000000000000000000000000000000
310
00000000000000000000000000000000000000000000000000000000DCDBDDDB
310
DCDCDBDBDCDBDCDBDBDBDBDBDBDBDCDBDBDCDBDBDCDDDBDCDBDBDBDBDBDCDBDC
310
DCDCDDDCDBDCDCDCDBDCDB000000000000000000000000000000000000000000
310
0000000000000000000000000000000000000000D8D8DED8D8000000000000D9
310
DED8D8000000000000000000D8D8D8DA0000D8DAD8D8D800000000DAD8DAD800
310
00D8D8D8D8DE00000000D8DED8D8DA00000000DADAD8000000D8D8DAD8DADA00
310
0000000000000000000000000000000000000000000000000000000000000000
310
0000000000000000000000000000000000000000000000000000000000000000
310
0000000000000000DCDBDBDBDBDBDBDBDCDCDCDBDBDBDCDDDBDCDBDBDBDBDCDB
310
DBDCDBDDDCDBDCDBDBDCDCDCDCDDDCDCDCDCDDDCDBDCDBDB0000000000000000
310
0000000000000000000000000000000000000000000000000000000000000000
310
D8D8DED8D8000000000000D8D8D8D8000000000000000000DED8D8D800DEDED8
310
D8D80000000000D8DAD8D900DAD8DEDED80000000000D8D8DED8D800000000D8
310
D8D80000D8D8D8D8D8DAD9000000000000000000000000000000000000000000
310
0000000000000000000000000000000000000000000000000000000000000000
310
000000000000000000000000000000000000000000DCDCDBDBDCDBDCDBDCDBDC
310
DCDBDCDCDBDCDBDDDDDBDDDCDBDBDBDCDCDCDBDDDCDBDBDBDBDBDDDBDBDBDCDC
310
DBDBDBDB00000000000000000000000000000000000000000000000000000000
310
000000000000000000000000DAD8D8D8D8000000000000D8DED9D90000000000
310
00000000D8D8D8DAD8D8D8DED8000000000000D8DED8D8D8D8D8D8D800000000
310
0000D8D8DEDAD800000000D8DEDA0000D8DED8DED8D8D8000000000000000000
310
0000000000000000000000000000000000000000000000000000000000000000
310
0000000000000000000000000000000000000000000000000000000000000000
310
00DBDCDBDBDBDBDBDBDBDBDBDBDCDCDCDBDBDBDCDCDCDBDBDBDCDCDCDBDBDBDB
310
DCDCDCDBDBDCDCDCDCDDDCDBDBDBDBDB00000000000000000000000000000000
310
000000000000000000000000000000000000000000000000D8DAD8D8D8000000
310
000000D8DEDED9D8D8D8D8DE00000000D8D8D8DED8D8D8D800000000000000D8
310
DED8D8DAD9DAD900000000000000D8D8D8D8DE00000000DED8DE00D8D8D8D800
310
DED8DA0000000000000000000000000000000000000000000000000000000000
310
0000000000000000000000000000000000000000000000000000000000000000
310
00000000000000000000000000DDDBDCDBDBDBDBDBDDDBDCDBDBDCDCDCDDDBDB
310
DBDBDCDBDBDCDBDBDCDCDCDBDCDDDCDBDBDBDBDBDCDBDBDCDCDCDBDBDC000000
310
0000000000000000000000000000000000000000000000000000000000000000
310
00000000D8D8D8D8D8000000000000DAD8D8DEDADADEDEDA00000000D8DAD8DE
310
D8DED8D800000000000000D8D8D8D8D8D8D8DA00000000000000D8D8DAD8D800
310
000000D8D8D800DAD8D8DE00DADAD80000000000000000000000000000000000
310
0000000000000000000000000000000000000000000000000000000000000000
310
0000000000000000000000000000000000000000000000000000DCDCDCDCDDDC
310
DCDBDBDDDCDCDBDCDCDBDBDBDCDCDCDCDBDBDCDBDBDCDBDBDCDBDCDCDBDCDBDC
310
DCDBDBDBDBDDDCDCDC0000000000000000000000000000000000000000000000
310
00000000000000000000000000000000D8D9D8DAD8000000000000D8DED8D800
310
0000000000000000DEDAD8DEDED8DADAD8000000000000D8D9DED8DAD8D8D8D8
310
000000000000DED8D8D8D800000000DAD8D8DED8D8D80000D8D8D80000000000
310
0000000000000000000000000000000000000000000000000000000000000000
310
0000000000000000000000000000000000000000000000000000000000000000
310
000000000000DCDDDBDCDDDBDBDBDCDCDDDCDBDCDCDCDCDBDBDCDDDBDCDBDBDB
310
DBDCDCDCDCDBDDDCDBDCDBDDDBDCDDDBDBDBDCDCDCDB00000000000000000000
310
00000000000000000000000000000000000000000000000000000000D8D8D8DA
310
DE000000000000DADAD8D8000000000000000000DED8DAD800D8D8DEDA000000
310
000000D8D8D8D800D8D8D8DA000000000000DEDED8D8D800000000D8D8D8D8D8
310
DE000000DED8DE00000000000000000000000000000000000000000000000000
310
0000000000000000000000000000000000000000000000000000000000000000
310
00000000000000000000000000000000000000DCDCDCDCDCDBDCDBDCDCDCDCDB
310
DBDBDBDBDBDCDBDBDDDCDBDBDBDBDBDDDBDCDCDBDBDDDBDCDCDBDCDBDBDDDBDC
310
DBDC000000000000000000000000000000000000000000000000000000000000
310
000000000000DED8DEDAD8D8D8D8D800000000D8D8D8D8D8DED8DAD800000000
310
DED8DAD80000D8DED8D80000000000D8D8D8D80000D9D8D8D80000000000D8DA
310
D8D8D800000000D8DEDAD8DEDA000000DEDADA00000000000000000000000000
310
0000000000000000000000000000000000000000000000000000000000000000
310
00000000000000000000000000000000000000000000000000000000000000DB
310
DCDCDBDCDCDBDDDCDBDBDBDDDBDBDCDBDBDCDCDBDBDBDCDBDBDBDBDDDBDCDCDB
310
DCDDDBDBDDDBDBDBDCDBDBDBDBDB000000000000000000000000000000000000
310
0000000000000000000000000000000000D8D8D8D8D8D8D8D8D8D8DA000000DA
310
DADAD8D8DED8DED8D9000000D8D8D8D8000000D8D9DEDA00000000DED8DED800
310
0000DADAD8DE00000000D8DEDAD8D800000000DED8D8D8D800000000DAD8DE00
310
0000000000000000000000000000000000000000000000000000000000000000
310
0000000000000000000000000000000000000000000000000000000000000000
310
000000000000000000000000DBDCDBDBDCDBDDDBDBDBDBDBDCDBDBDBDBDBDCDB
310
DBDDDCDBDBDBDCDB000000000000000000000000000000000000000000000000
310
0000000000000000000000000000000000000000000000000000000000D8D8D8
310
D8D8D8D8DAD8D8D8000000D8DAD8DED8DEDADAD8D8000000DED8D8D9000000D8
310
D8D8DED8000000D8D8D9D8000000DED8D8D8D8000000D8DADAD9D800000000D8
310
D8D8D8D800000000DED8D8000000000000000000000000000000000000000000
310
0000000000000000000000000000000000000000000000000000000000000000
310
000000000000000000000000000000000000000000000000DBDBDBDCDCDCDCDB
310
DDDCDCDCDCDBDBDBDBDBDBDBDBDBDCDBDCDBDDDC000000000000000000000000
310
0000000000000000000000000000000000000000000000000000000000000000
310
0000000000000000000000000000000000000000000000000000000000000000
310
0000000000000000000000000000000000000000000000000000000000000000
310
0000000000000000000000000000000000000000000000000000000000000000
310
0000000000000000000000000000000000000000000000000000000000000000
310
0000000000000000000000000000000000000000000000000000000000000000
310
0000000000DBDCDCDBDBDBDBDBDCDCDBDCDBDBDCDCDDDBDBDCDBDBDBDCDCDBDC
310
DB00000000000000000000000000000000000000000000000000000000000000
310
0000000000000000000000000000000000000000000000000000000000000000
310
0000000000000000000000000000000000000000000000000000000000000000
310
0000000000000000000000000000000000000000000000000000000000000000
310
0000000000000000000000000000000000000000000000000000000000000000
310
0000000000000000000000000000000000000000000000000000000000000000
310
0000000000000000000000000000000000DCDDDBDBDCDBDCDBDBDDDBDBDBDDDC
310
DCDBDBDBDCDBDCDCDBDCDCDBDC00000000000000000000000000000000000000
310
0000000000000000000000000000000000000000000000000000000000000000
310
0000000000000000000000000000000000000000000000000000000000000000
310
0000000000000000000000000000000000000000000000000000000000000000
310
0000000000000000000000000000000000000000000000000000000000000000
310
0000000000000000000000000000000000000000000000000000000000000000
310
0000000000000000000000000000000000000000000000000000000000DCDBDC
310
DCDBDCDBDBDBDCDBDCDBDDDBDCDBDBDBDCDBDBDCDCDBDCDCDCDB000000000000
310
0000000000000000000000000000000000000000000000000000000000000000
310
0000000000000000000000000000000000000000000000000000000000000000
310
0000000000000000000000000000000000000000000000000000000000000000
310
0000000000000000000000000000000000000000000000000000000000000000
310
0000000000000000000000000000000000000000000000000000000000000000
310
0000000000000000000000000000000000000000000000000000000000000000
310
00000000000000000000DCDBDCDCDBDDDCDBDBDCDBDCDBDBDCDCDCDCDBDBDBDB
310
DDDBDCDCDBDB0000000000000000000000000000000000000000000000000000
310
0000000000000000000000000000000000000000000000000000000000000000
310
0000000000000000000000000000000000000000000000000000000000000000
310
0000000000000000000000000000000000000000000000000000000000000000
310
0000000000000000000000000000000000000000000000000000000000000000
310
0000000000000000000000000000000000000000000000000000000000000000
310
00000000000000000000000000000000000000000000DBDCDBDCDCDBDBDBDCDC
310
DBDBDCDCDBDBDCDBDBDBDBDBDCDCDCDBDBDB0000000000000000000000000000
310
0000000000000000000000000000000000000000000000000000000000000000
310
0000000000000000000000000000000000000000000000000000000000000000
310
0000000000000000000000000000000000000000000000000000000000000000
310
0000000000000000000000000000000000000000000000000000000000000000
310
0000000000000000000000000000000000000000000000000000000000000000
310
0000000000000000000000000000000000000000000000000000000000000000
310
000000DBDBDBDBDBDCDBDBDCDBDBDCDBDBDCDBDCDBDBDBDCDCDCDBDCDCDBDD00
310
000000D7D7D7D7D7D7D7D7D7D7D7D7D7D7D7D7D7D7D7D7D7D7D7D7D7D7D7D7D7
310
D7D7D7D7D7D7D7D7D7D7D7D7D7D7D7D7D7D7D7D7D7D7D7D7D7D7D7D7D7D7D7D7
310
D7D7D7D7D7D7D7D7D7D7D7D7D7D7D7D7D7D7D7D7D7D7D7D7D7D7D7D7D7D7D7D7
310
D7D7D7D7D7D7D7D7D7D7D7D7D7D7D7D7D7D7D7D7D7D7D7D7D7D7D7D7D7D7D7D7
310
D7D7D7D7D7D7D7D7D7D7D7D7D7D7D7D7D7D7D7D7D7D7D7D7D7D7D7D7D7D7D7D7
310
D7D7D7D7D7D7D7D7D7D7D7D7D7D7000000000000000000000000000000000000
310
000000000000000000000000000000DCDBDCDBDCDBDDDCDBDBDBDCDBDBDDDBDB
310
DDDCDCDBDDDBDCDBDDDCDB00000000D7D7D7D7D7D7D7D7D7D7D7D7D7D7D7D7D7
310
D7D7D7D7D7D7D7D7D7D7D7D7D7D7D7D7D7D7D7D7D7D7D7D7D7D7D7D7D7D7D7D7
310
D7D7D7D7D7D7D7D7D7D7D7D7D7D7D7D7D7D7D7D7D7D7D7D7D7D7D7D7D7D7D7D7
310
D7D7D7D7D7D7D7D7D7D7D7D7D7D7D7D7D7D7D7D7D7D7D7D7D7D7D7D7D7D7D7D7
310
D7D7D7D7D7D7D7D7D7D7D7D7D7D7D7D7D7D7D7D7D7D7D7D7D7D7D7D7D7D7D7D7
310
D7D7D7D7D7D7D7D7D7D7D7D7D7D7D7D7D7D7D7D7D7D7D7D7D7D7000000000000
310
00000000000000000000000000000000000000000000000000000000DBDBDBDD
310
DCDBDBDDDBDBDBDBDCDCDBDBDCDCDBDBDCDCDBDBDBDCDBDB0000000000000000
310
0000000000000000000000000000000000000000000000000000000000000000
310
0000000000000000000000000000000000000000000000000000000000000000
310
0000000000000000000000000000000000000000000000000000000000000000
310
0000000000000000000000000000000000000000000000000000000000000000
310
0000000000000000000000000000000000000000000000000000000000000000
310
0000000000000000000000000000000000000000000000000000000000000000
310
0000000000000000DCDCDBDCDCDBDDDBDCDBDBDBDCDBDCDCDBDBDBDCDCDBDBDB
310
DCDCDBDC00000000000000000000000000000000000000000000000000000000
310
0000000000000000000000000000000000000000000000000000000000000000
310
0000000000000000000000000000000000000000000000000000000000000000
310
0000000000000000000000000000000000000000000000000000000000000000
310
0000000000000000000000000000000000000000000000000000000000000000
310
0000000000000000000000000000000000000000000000000000000000000000
310
0000000000000000000000000000000000000000DBDBDBDBDBDCDDDCDBDBDBDB
310
DCDCDBDCDBDBDCDCDBDCDBDCDBDCDCDBDC000000000000000000000000000000
310
0000000000000000000000000000000000000000000000000000000000000000
310
0000000000000000000000000000000000000000000000000000000000000000
310
0000000000000000000000000000000000000000000000000000000000000000
310
0000000000000000000000000000000000000000000000000000000000000000
310
0000000000000000000000000000000000000000000000000000000000000000
310
0000000000000000000000000000000000000000000000000000000000000000
310
00DCDBDBDBDCDCDBDCDCDBDCDCDBDCDCDCDCDCDBDBDCDBDDDCDBDBDCDC000000
310
0000000000000000000000000000000000000000000000000000000000000000
310
0000000000000000000000000000000000000000000000000000000000000000
310
0000000000000000000000000000000000000000000000000000000000000000
310
0000000000000000000000000000000000000000000000000000000000000000
310
0000000000000000000000000000000000000000000000000000000000000000
310
0000000000000000000000000000000000000000000000000000000000000000
310
00000000000000000000000000DCDBDBDBDDDBDCDCDCDBDCDBDBDBDBDBDBDBDB
310
DBDCDCDBDBDDDBDBDC0000000000000000000000000000000000000000000000
310
0000000000000000000000000000000000000000000000000000000000000000
310
0000000000000000000000000000000000000000000000000000000000000000
310
0000000000000000000000000000000000000000000000000000000000000000
310
0000000000000000000000000000000000000000000000000000000000000000
310
0000000000000000000000000000000000000000000000000000000000000000
310
0000000000000000000000000000000000000000000000000000DCDCDCDCDCDC
310
DBDBDBDBDBDBDBDBDBDBDCDBDBDCDCDDDBDCDCDCDB0000000000000000000000
310
0000000000000000000000000000000000000000000000000000000000000000
310
0000000000000000000000000000000000000000000000000000000000000000
310
0000000000000000000000000000000000000000000000000000000000000000
310
000000000000000000000000000000000000000000000000000000000000D8DE
310
D8D8D8DE00000000000000000000000000000000000000000000000000000000
310
0000000000000000000000000000000000000000000000000000000000000000
310
000000000000DBDCDBDBDBDBDBDBDBDBDBDCDDDCDCDBDBDBDBDBDBDBDCDBDBDC
310
DC00D8D8D8D8DEDEDED8D8D8DAD8D8DADAD8D8D8D8D8DAD8D8D8DAD8D9D80000
310
0000000000000000D8D8D8DAD8D8DAD8D80000DED9D8D8DED8D8D8DE00000000
310
000000000000DAD8DED8DED8D8D8D800000000000000000000D8DADAD8D8DED8
310
D8D80000D8D8DADEDEDED8D8D8D80000000000DAD8D8D8D8DAD8D8D800000000
310
0000000000D8D8D8D8DED8D8D8D8DED8D8D9DADED80000000000DAD8D8D8D8D8
310
DAD8DADED8D8D8D8DAD8D8D8D8D8D80000000000000000000000000000000000
310
00000000000000000000000000000000000000DBDBDBDCDCDBDCDBDBDBDCDBDC
310
DCDCDBDBDBDBDBDCDBDCDBDCDB00D8D9DADED8DEDAD8D8D8D8D8DAD8D8D8DEDE
310
DEDEDED8D8DAD8D8DADE000000000000000000D8D8DED8DED8D8D8D8DE0000D8
310
D8D8D8DED8D8D8D800000000000000000000DEDED8D8DADAD8DADA0000000000
310
00000000D8D8DEDADED8D8DEDADE0000D8DADAD9D8D9D8D8D8D800000000D8D8
310
D8DAD8D8D8D8D8D800000000000000DAD8DAD8D8D8DADAD8D8D8DED8D8DEDEDE
310
D8D800000000DED8DEDED8DAD8D8D8D8D8D8D8D8D8DED8D8D9DEDE0000000000
310
00000000000000000000000000000000000000000000000000000000000000DB
310
DBDBDBDBDCDBDCDBDBDCDCDCDBDCDDDDDCDBDCDBDCDCDCDDDB00D8D8DED8D8D8
310
DADEDED8D8DED8D8D8D8D8DAD800D8DED8D8DED8D8DED80000000000000000D8
310
D8D8DEDED8D8DED8000000D8D8D8D8D8DED8D8D80000000000000000000000D8
310
DEDADED8D8D8DED80000000000000000D8D8D8DAD8D8D8D8DA000000D8D8DEDA
310
DED8DED8DADE00000000DEDADED8D8DED8D8DE00000000000000D8DED8D8DEDE
310
D8D8D8D8D8D8DADAD8D8D8D8D8D800000000D8DED8D8D8D8D8DED8DAD9D8DEDA
310
D8D8D8DED8D8D800000000000000000000000000000000000000000000000000
310
000000000000000000000000DBDCDBDCDCDBDBDBDCDBDBDBDBDBDCDCDCDCDCDB
310
DCDCDCDBDB00D8D8DEDED8DAD8D8D8D9D8D8D8D8D8D8D8DED800D8D8DEDED8D8
310
D8D8D800000000000000DAD8D8D8DEDED8DEDED8000000DAD8DED8D8D8D8D8D8
310
0000000000000000000000D8D8DED8DED8D8D8D800000000000000D8D8D8D8D8
310
D9D8D9DAD8000000D8D8D8D8DAD8DED8D8D800000000D8D8DAD8DAD8D8DAD800
310
0000000000D8D8DED8D8DED8DAD8D8DEDED8DAD8D8D8D8D8DADE00000000D8D8
310
D8D8DEDEDED8D8D8D8D8D8DED8D8D8D8D8D8DA00000000000000000000000000
310
000000000000000000000000000000000000000000000000DBDCDCDBDBDBDCDC
310
DBDDDCDBDCDBDCDBDDDBDCDBDBDCDCDBDD00DAD8D8DED8D8D8D9D8D8D8D8D8DE
310
DAD8D8D8D80000D8D8D8D9D8D8D8D8D8DADAD8D8D8D8DED8D8D8D8D8D8DEDA00
310
000000D8DAD8D8D8D8D8D8DE000000000000000000000000D8D8DEDADADAD8D8
310
DADEDAD8D8D8DED8D8D8D8DAD8DED8D800000000D9D8D8D8D8D8D8D8D8D80000
310
0000D9D8D8D8DADED8D8DE0000000000DEDAD8D8D8D8D8D8D8D9DED8D8D8D8D9
310
DADAD8D8D9DE00000000DEDED8D8DED8D8D8D8D9D8D8D8D8DEDED8DEDED80000
310
0000000000000000000000000000000000000000000000000000000000000000
310
00000000DBDCDCDBDCDBDBDDDBDCDCDCDCDBDBDBDCDCDBDCDBDBDBDBDB00D8D8
310
D8DEDED8D8D8D8D8D8D8DED8D8D8DED8D80000D8D8D8D8D8D8DEDED8D8D8D8DA
310
D8D8DAD8D8D8DADAD8DAD800000000DADAD8D8DED8D8DADA0000000000000000
310
00000000D8D8D8D8D8D8D8DAD8DADEDADEDED8D8D8D8D8D8D8D8DED800000000
310
D8D8DADEDED8DED8D8D8000000DAD8D8D8DED8D8D8D8D800000000D8D8D8D8DE
310
DED8DAD8DA0000000000DADADEDEDAD8D8D800000000D8D8D8DED9DAD8D8D900
310
0000000000000000000000000000000000000000000000000000000000000000
310
0000000000000000000000000000000000DCDCDBDBDBDBDBDBDBDBDCDBDCDBDC
310
DBDBDCDCDBDBDCDCDC00DEDADAD9D8DADAD8D8DA000000000000000000000000
310
DED8DEDEDED8D8DADED8DED8D8DED8DAD8D8D8DED8DE0000000000D8DEDED8D9
310
D8D8DEDED8DAD8D8D8D8DEDED8D8000000DADEDED8D9DED8D8D8D8DAD8D8D8D8
310
D8DED8D8D8D8DA0000000000D8D8DAD8D8D8D8D9DADAD8D8D8D8D8D8DADED8D8
310
D8D80000000000DAD8DEDED8DED8D8D8000000000000DAD8DED8D8DED8DA0000
310
0000D9DED8DEDAD8D8D8D8000000000000000000000000000000000000000000
310
0000000000000000000000000000000000000000000000000000000000DDDBDB
310
DCDBDCDBDBDCDBDBDCDBDBDCDBDCDBDCDBDCDDDBDB00D8D8DED8D9DEDADED8D8
310
000000000000000000000000D8D8D8D8D8D8D8DEDAD8D8D8D8D8D8D8D8D8D8D8
310
DED80000000000D8D8D8DED8D8D9DED8D8D8D8DAD8DED8DEDADED80000D8D8D8
310
DEDED8DAD8DEDEDED8DAD8D8D8D8D8D8D8D8DA0000000000D8D8D8D8DED9D8D8
310
DED8D8D8DEDAD8D8D8D8D9DED8000000000000D8DAD8D8D8D8DEDED800000000
310
D8D8DED8D8D8D8D8D8D800000000DED8D9D8DAD8DADEDED8D9D8DADEDAD8D8D8
310
DEDA000000000000000000000000000000000000000000000000000000000000
310
00000000000000000000DBDBDBDBDBDBDCDCDBDBDBDBDCDCDDDBDCDCDBDDDBDC
310
DB00D9D8D8D8D8D8D8D8D8D8000000000000000000000000D8D8D8D8D8D8D8D8
310
DAD8D8DED8D8D8D8D8D8D8D8DED80000000000DED8D8D8D8D8D9DADEDEDED8DE
310
DED8D8D8D8DED80000D9D9D8DEDED8D8D8D8D8D8D8D8DED9DADED8D8D8D8D800
310
00000000D8D8DED8DADED8D9DADAD8D8DED8D8D8DAD8DED8000000000000D8DA
310
DED8D8D8D8D8D8D800000000D8D8D8D8D8DEDED8D9D800000000DEDED8DED8D8
310
D9D8D8DEDADED8D8D8D8D8D8D8D8000000000000000000000000000000000000
310
00000000000000000000000000000000000000000000DCDBDBDBDBDBDBDCDBDD
310
DCDCDBDCDBDDDBDCDCDCDCDCDB00D8D8D8D8D8D8D8D8D8DA0000000000000000
310
0000000000DED8DAD8D8D8D8D800000000D8D8DED8D8D8D8D9000000000000D8
310
D8DED8DEDED8D8D8DED8D8DED8D8D8DED8DED8000000DED8D9D8D8DED8D90000
310
0000D8D8D8D8D8DEDED8000000000000DEDADED8D8D8DED8D8DEDED8DED8D8DE
310
D8D8D8D8D80000000000D8D8DEDAD8DAD8D8DED800000000DEDAD8D8DAD8DED8
310
DED800000000D8D8D8D8DAD8DED8D8D8D8D8DED8D8D8D8DEDADA000000000000
310
0000000000000000000000000000000000000000000000000000000000000000
310
000000DBDBDBDBDCDBDBDCDBDBDBDCDBDBDCDDDBDCDBDBDBDB00D8D8D8D8DADE
310
D8DEDAD800000000000000000000000000D8D8D8DED8D8D9DE000000DAD8D8D8
310
D8DED8D9D8000000000000D8DAD8D8D8D8DEDED8D8D8DED9D8D8D8D9D8DED800
310
0000D9D8D8DAD8DAD8DE000000D8D8D8D8D8D8D8D8DA000000000000DED8DAD8
310
D8D8D8D8D8D8DED8D8D8D8D8D8D8D8DAD8D800000000D8D8D8D8D8DEDAD8DED8
310
00000000D8D8D8D8D8DAD8D8D80000000000D8DED8DAD8D8DAD8D8D8DADAD8D8
310
D8D8D8D8D8D80000000000000000000000000000000000000000000000000000
310
000000000000000000000000000000DCDCDBDCDBDBDBDBDCDCDBDBDBDBDCDBDC
310
DDDCDBDBDB00D8D8DED8D8D8D8D8D8D80000000000000000000000000000D8D8
310
DED8DEDEDED80000DED8DED8D8D8DEDE00000000000000D8DED8D8DADADEDEDA
310
000000000000000000000000000000D8D9D8D8D8DADAD80000D9D9D8D8D8DED8
310
D800000000000000D8D8DED8D8D8D8D8DE0000000000DAD8D8DAD8DED8D8D800
310
0000D8D8D8DADAD8D8DAD8D8000000000000000000000000000000000000D8D8
310
D8D8D8D8D8D8D8D9DAD8D8D8DEDED8D8D8D80000000000000000000000000000
310
00000000000000000000000000000000000000000000000000000000DDDCDCDB
310
DBDBDDDCDCDCDBDCDBDBDCDBDCDDDBDBDB00D8D8D8DED8DEDEDAD8DA00000000
310
00000000000000000000D8DED9D8D8D8D8D90000DAD9DEDEDAD8D8D800000000
310
000000D8DED9D8DAD8DADADA000000000000000000000000000000D8D8D8D8D8
310
D8D8DE0000D8DED8D8D8D8D8D800000000000000D8D8D8D8D8D8DAD9D8000000
310
0000D9DADED8D8DED8DEDE00000000DAD8DAD8D8D8D9DAD9D800000000000000
310
00000000000000000000D8DEDAD8DED8D8DED800000000000000000000000000
310
0000000000000000000000000000000000000000000000000000000000000000
310
0000000000000000DCDCDCDDDBDBDBDCDCDBDBDBDDDBDCDCDBDDDBDDDD00D8D8
310
DEDAD9D8DEDEDEDA0000000000000000000000000000D8D8D8DEDADED8D800DA
310
D8D8D8D8D8D8D80000000000000000D8D8DAD8D8D8D8DAD80000000000000000
310
00000000000000D9D8D8DEDAD9DED8DAD8D8D8D8DADED9D80000000000000000
310
D8D8D8D8D8DED8D8D80000000000D8D9D8D8D8D8DED8DED8000000DED8DED8D8
310
D8D8D8D8D8D800000000000000000000D80000000000D8DAD8D8D8D9DAD8D800
310
0000000000000000000000000000000000000000000000000000000000000000
310
0000000000000000000000000000000000000000DBDCDCDBDBDCDBDCDBDCDDDC
310
DBDCDCDBDDDBDBDBDB00DEDAD8DED8D8DED8D8D8000000000000000000000000
310
000000DAD8DED8D8D8DEDEDAD8DAD8D8D8D9DE0000000000000000D8DADADEDA
310
DED8D8D9D8D8D8DAD8DADAD8D8DED80000000000D8DED8D8DAD8DADAD8D8DAD8
310
D8D8D8DE0000000000000000D8DADEDED8D8D8D8DED8DED8D8D8D8D8D8D8D9DA
310
DAD8D8DE00000000D8D8D8D8D8D8DED8D8DAD8D8DED8D8D8D8DED8D8D8000000
310
0000D8D8D8D8D9DADAD8DAD8D8D8D8DEDAD8D9D8D8D800000000000000000000
310
0000000000000000000000000000000000000000000000000000000000000000
310
00DBDBDDDBDCDBDBDCDBDDDBDBDBDBDBDDDBDCDCDB00D8D8DAD8DED8DED8D9DE
310
000000000000000000000000000000D8D8D8D8D8DAD8D8D8D8D8D8D8D8D8DE00
310
00000000000000D8DED8DEDAD8D9D8D8D8DEDED8D8D8D8DADED8D80000000000
310
D8D8D8D8D8D8D8D8DAD8D8DADED8D8DE0000000000000000D8D8D8DED8D8D8DE
310
D8D8D8D8D8D8D8D8DAD8D8D8DED8D8000000000000D8D8D8D8D8DED8D8D8D9D8
310
D8D8D8DAD8D8D9D8DE0000000000DED8DED8D8D8D8D8D8D8D8D8D8D8DED8D8D8
310
D8D8000000000000000000000000000000000000000000000000000000000000
310
00000000000000000000000000DBDBDBDBDCDBDBDBDBDBDBDBDCDBDDDBDCDBDB
310
DC00D8D8D8D8D8D8DED8D8D800000000000000000000000000000000D8DAD8DA
310
DAD8D8D8D8D8D8D8D8D8000000000000000000DED8D8D8D8DAD8D8D8DED8D8D8
310
DED8D8D8D8D8D8000000000000DEDED8D8D8DADAD9DEDEDED8D8DE0000000000
310
00000000D8D8D8D8D8DAD9D8DED8DAD9D8D8D8D8D8D8D8DED8D8D80000000000
310
0000D8D8D8DEDED8D8DED8D8D8D8D8D8DAD8D8D8D80000000000D8D9DADED8D8
310
D8D8DAD8D8D8D8D8DEDAD8D8D8D8000000000000000000000000000000000000
310
0000000000000000000000000000000000000000000000000000DCDCDCDBDBDC
310
DBDBDBDBDCDBDBDCDBDCDBDBDB00DED8D8D8D8D8D8D8D8D80000000000000000
310
0000000000000000D8D8D8D9D8D9DADEDAD8D8D8D8D8000000000000000000D8
310
DEDADAD8D8D9D8D8D9D8D8D8D8D8D8DEDAD8DA000000000000DAD9D8D8D8D8D8
310
D8DAD8DAD8DED8000000000000000000D8D8DED8D8D8DED8DED8D8DADADEDAD8
310
DAD8D8D8D8D8000000000000000000DAD8D8D8D8D8DED8D8D8D8D8DADEDADAD8
310
DA0000000000D8D8D8D8D9D9D8D8D8DED8D8DEDED8D8D8DED8D8000000000000
310
0000000000000000000000000000000000000000000000000000000000000000
310
000000000000DCDCDBDBDCDDDBDBDBDCDBDBDCDBDBDBDCDDDB00D8DED8D8D8D8
310
D8D8D8D80000000000000000000000000000000000D8D8D8D9DED8D8D8DAD8D8
310
DA00000000000000000000D8D8D8D8D8DED8DEDADADAD8DED8D8DED8DED8D800
310
000000000000D8D8D8DED8D8D8D8D8D8D8D800000000000000000000DED8D8DA
310
D9D8DED8D8D8D8D8D8DED8D8D8D8D8000000000000000000000000000000D8D8
310
D8DAD8D8D8D8DEDAD8D8D8DED80000000000D8D8D8D8DEDED8D8D8DEDAD8D8D8
310
DED8DED8D8D80000000000000000000000000000000000000000000000000000
310
00000000000000000000000000000000000000DDDBDBDCDBDBDCDBDBDBDDDCDB
310
DBDBDDDCDB000000000000000000000000000000000000000000000000000000
310
0000000000000000000000000000000000000000000000000000000000000000
310
0000000000000000000000000000000000000000000000000000000000000000
310
0000000000000000000000000000000000000000000000000000000000000000
310
0000000000000000000000000000000000000000000000000000000000000000
310
0000000000000000000000000000000000000000000000000000000000000000
310
00000000000000000000000000000000000000000000000000000000000000DC
310
DCDBDBDBDDDCDCDCDBDCDBDCDBDCDCDCDBDCDBDBDBDBDBDBDBDBDD0000000000
310
0000000000000000000000000000000000000000000000000000000000000000
310
0000000000000000000000000000000000000000000000000000000000000000
310
0000000000000000000000000000000000000000000000000000000000000000
310
0000000000000000000000000000000000000000000000000000000000000000
310
0000000000000000000000000000000000000000000000000000000000000000
310
0000000000000000000000000000000000000000000000000000000000000000
310
0000000000000000000000DBDBDBDBDBDBDBDDDBDCDBDCDCDCDCDBDCDCDBDBDB
310
DBDCDCDBDBDBDCDB000000000000000000000000000000000000000000000000
310
0000000000000000000000000000000000000000000000000000000000000000
310
0000000000000000000000000000000000000000000000000000000000000000
310
0000000000000000000000000000000000000000000000000000000000000000
310
0000000000000000000000000000000000000000000000000000000000000000
310
0000000000000000000000000000000000000000000000000000000000000000
310
000000000000000000000000000000000000000000000000DCDCDDDCDBDCDBDB
310
DCDBDBDBDBDCDBDBDBDCDCDCDBDCDBDCDBDDDBDC000000000000000000000000
310
0000000000000000000000000000000000000000000000000000000000000000
310
0000000000000000000000000000000000000000000000000000000000000000
310
0000000000000000000000000000000000000000000000000000000000000000
310
0000000000000000000000000000000000000000000000000000000000000000
310
0000000000000000000000000000000000000000000000000000000000000000
310
0000000000000000000000000000000000000000000000000000000000000000
310
00000000DCDBDDDBDCDCDCDDDBDCDBDCDBDBDBDBDBDCDCDBDCDBDCDBDBDBDCDC
310
DB00000000000000000000000000000000000000000000000000000000000000
310
0000000000000000000000000000000000000000000000000000000000000000
310
0000000000000000000000000000000000000000000000000000000000000000
310
0000000000000000000000000000000000000000000000000000000000000000
310
0000000000000000000000000000000000000000000000000000000000000000
310
0000000000000000000000000000000000000000000000000000000000000000
310
0000000000000000000000000000000000DCDBDBDCDBDCDBDBDCDBDBDDDCDCDB
310
DBDCDBDBDBDCDCDBDCDBDCDCDB00000000000000000000000000000000000000
310
0000000000000000000000000000000000000000000000000000000000000000
310
0000000000000000000000000000000000000000000000000000000000000000
310
0000000000000000000000000000000000000000000000000000000000000000
310
0000000000000000000000000000000000000000000000000000000000000000
310
0000000000000000000000000000000000000000000000000000000000000000
310
0000000000000000000000000000000000000000000000000000000000DCDDDB
310
DCDCDBDBDBDCDBDCDCDBDDDCDCDBDBDBDBDBDCDCDCDBDBDBDB00000000000000
310
0000000000000000000000000000000000000000000000000000000000000000
310
0000000000000000000000000000000000000000000000000000000000000000
310
0000000000000000000000000000000000000000000000000000000000000000
310
0000000000000000000000000000000000000000000000000000000000000000
310
0000000000000000000000000000000000000000000000000000000000000000
310
0000000000000000000000000000000000000000000000000000000000000000
310
00000000000000000000DBDBDCDBDBDBDCDBDBDBDCDBDCDDDCDCDBDCDDDDDBDC
310
DBDBDCDCDBDC0000000000000000000000000000000000000000000000000000
310
0000000000000000000000000000000000000000000000000000000000000000
310
0000000000000000000000000000000000000000000000000000000000000000
310
0000000000000000000000000000000000000000000000000000000000000000
310
0000000000000000000000000000000000000000000000000000000000000000
310
0000000000000000000000000000000000000000000000000000000000000000
310
00000000000000000000000000000000000000000000DBDBDBDCDBDDDCDBDCDB
310
DBDCDBDCDBDCDBDCDBDCDBDBDBDBDCDBDBDB0000000000000000000000000000
310
0000000000000000000000000000000000000000000000000000000000000000
310
0000000000000000000000000000000000000000000000000000000000000000
310
0000000000000000000000000000000000000000000000000000000000000000
310
0000000000000000000000000000000000000000000000000000000000000000
310
0000000000000000000000000000000000000000000000000000000000000000
310
0000000000000000000000000000000000000000000000000000000000000000
310
000000DCDCDBDBDCDBDCDDDCDCDBDCDBDCDBDBDBDCDCDCDCDBDDDBDDDCDCDC00
310
0000000000000000000000000000000000000000000000000000000000000000
310
0000000000000000000000000000000000000000000000000000000000000000
310
0000000000000000000000000000000000000000000000000000000000000000
310
0000000000000000000000000000000000000000000000000000000000000000
310
0000000000000000000000000000000000000000000000000000000000000000
310
0000000000000000000000000000000000000000000000000000000000000000
310
000000000000000000000000000000DCDCDBDDDCDBDCDBDCDDDBDBDCDCDBDBDB
310
DBDCDBDBDBDCDCDBDCDCDB000000000000000000000000000000000000000000
310
0000000000000000000000000000000000000000000000000000000000000000
310
0000000000000000000000000000000000000000000000000000000000000000
310
0000000000000000000000000000000000000000000000000000000000000000
310
0000000000000000000000000000000000000000000000000000000000000000
310
0000000000000000000000000000000000000000000000000000000000000000
310
000000000000000000000000000000000000000000000000000000DCDBDBDCDB
310
DCDDDBDCDDDDDCDBDBDBDBDBDCDBDCDCDBDCDCDBDCDCDBDC0000000000000000
310
0000000000000000000000000000000000000000000000000000000000000000
310
0000000000000000000000000000000000000000000000000000000000000000
310
0000000000000000000000000000000000000000000000000000000000000000
310
0000000000000000000000000000000000000000000000000000000000000000
310
0000000000000000000000000000000000000000000000000000000000000000
310
0000000000000000000000000000000000000000000000000000000000000000
310
0000000000000000DCDBDBDCDCDBDBDCDBDBDBDCDCDDDDDBDDDCDDDCDBDBDCDB
310
DBDBDDDB00000000000000000000000000000000000000000000000000000000
310
0000000000000000000000000000000000000000000000000000000000000000
310
0000000000000000000000000000000000000000000000000000000000000000
310
0000000000000000000000000000000000000000000000000000000000000000
310
0000000000000000000000000000000000000000000000000000000000000000
310
0000000000000000000000000000000000000000000000000000000000000000
310
0000000000000000000000000000000000000000DBDBDCDBDBDDDCDBDCDCDBDC
310
DCDCDCDBDBDDDCDCDCDCDBDCDBDBDBDB00000000000000000000000000000000
310
0000000000000000000000000000000000000000000000000000000000000000
310
0000000000000000000000000000000000000000000000000000000000000000
310
0000000000000000000000000000000000000000000000000000000000000000
310
0000000000000000000000000000000000000000000000000000000000000000
310
0000000000000000000000000000000000000000000000000000000000000000
310
0000000000000000000000000000000000000000000000000000000000000000
310
00DCDCDBDDDCDBDCDBDCDCDCDBDBDCDBDDDCDCDCDCDCDDDCDCDCDBDCDC000000
310
0000000000000000000000000000000000000000000000000000000000000000
310
0000000000000000000000000000000000000000000000000000000000000000
310
0000000000000000000000000000000000000000000000000000000000000000
310
0000000000000000000000000000000000000000000000000000000000000000
310
0000000000000000000000000000000000000000000000000000000000000000
310
0000000000000000000000000000000000000000000000000000000000000000
310
00000000000000000000000000DBDCDBDBDBDBDCDCDCDCDCDDDCDBDBDBDBDCDC
310
DCDCDBDBDBDBDCDCDC0000000000000000000000000000000000000000000000
310
0000000000000000000000000000000000000000000000000000000000000000
310
0000000000000000000000000000000000000000000000000000000000000000
310
0000000000000000000000000000000000000000000000000000000000000000
310
0000000000000000000000000000000000000000000000000000000000000000
310
0000000000000000000000000000000000000000000000000000000000000000
310
0000000000000000000000000000000000000000000000000000DCDCDCDDDBDD
310
DCDBDBDBDCDCDCDBDCDBDBDBDBDDDBDCDCDCDBDCDBDB00000000000000000000
310
0000000000000000000000000000000000000000000000000000000000000000
310
0000000000000000000000000000000000000000000000000000000000000000
310
0000000000000000000000000000000000000000000000000000000000000000
310
0000000000000000000000000000000000000000000000000000000000000000
310
0000000000000000000000000000000000000000000000000000000000000000
310
0000000000000000000000000000000000000000000000000000000000000000
310
000000000000DBDCDCDCDCDCDCDBDBDCDDDBDCDDDCDBDCDBDCDBDBDBDCDBDBDB
310
DDDB000000000000000000000000000000000000000000000000000000000000
310
0000000000000000000000000000000000000000000000000000000000000000
310
0000000000000000000000000000000000000000000000000000000000000000
310
0000000000000000000000000000000000000000000000000000000000000000
310
0000000000000000000000000000000000000000000000000000000000000000
310
0000000000000000000000000000000000000000000000000000000000000000
310
00000000000000000000000000000000000000DCDBDBDCDBDDDCDBDCDCDBDBDB
310
DBDCDBDBDCDCDBDBDCDBDBDCDCDCDC0000000000000000000000000000000000
310
0000000000000000000000000000000000000000000000000000000000000000
310
0000000000000000000000000000000000000000000000000000000000000000
310
0000000000000000000000000000000000000000000000000000000000000000
310
0000000000000000000000000000000000000000000000000000000000000000
310
0000000000000000000000000000000000000000000000000000000000000000
310
00000000000000000000000000000000000000000000000000000000000000DC
310
DBDBDBDBDBDBDCDBDCDDDBDBDBDCDCDBDCDBDBDCDBDBDBDCDBDDDC0000000000
310
0000000000000000000000000000000000000000000000000000000000000000
310
0000000000000000000000000000000000000000000000000000000000000000
310
0000000000000000000000000000000000000000000000000000000000000000
310
0000000000000000000000000000000000000000000000000000000000000000
310
0000000000000000000000000000000000000000000000000000000000000000
310
0000000000000000000000000000000000000000000000000000000000000000
310
0000000000000000000000DBDBDCDCDCDBDBDCDBDCDCDBDCDCDBDBDBDCDBDCDB
310
DBDBDBDCDBDBDCDB000000000000000000000000000000000000000000000000
310
0000000000000000000000000000000000000000000000000000000000000000
310
0000000000000000000000000000000000000000000000000000000000000000
310
0000000000000000000000000000000000000000000000000000000000000000
310
0000000000000000000000000000000000000000000000000000000000000000
310
0000000000000000000000000000000000000000000000000000000000000000
310
000000000000000000000000000000000000000000000000DBDCDCDBDBDBDCDB
310
DCDBDBDCDDDBDBDCDBDBDBDCDCDBDCDBDBDBDBDC000000000000000000000000
310
0000000000000000000000000000000000000000000000000000000000000000
310
0000000000000000000000000000000000000000000000000000000000000000
310
0000000000000000000000000000000000000000000000000000000000000000
310
0000000000000000000000000000000000000000000000000000000000000000
310
0000000000000000000000000000000000000000000000000000000000000000
310
0000000000000000000000000000000000000000000000000000000000000000
310
00000000DBDCDBDCDCDBDCDBDBDBDCDCDBDCDBDCDBDBDBDCDCDBDCDBDBDCDBDB
310
0000000000000000000000000000000000000000000000000000000000000000
310
0000000000000000000000000000000000000000000000000000000000000000
310
0000000000000000000000000000000000000000000000000000000000000000
310
0000000000000000000000000000000000000000000000000000000000000000
310
0000000000000000000000000000000000000000000000000000000000000000
310
0000000000000000000000000000000000000000000000000000000000000000
310
0000000000000000000000000000000000DDDBDCDBDBDCDCDDDCDBDBDBDBDCDD
310
DDDBDBDDDCDCDCDCDBDBDDDBDD00000000000000000000000000000000000000
310
0000000000000000000000000000000000000000000000000000000000000000
310
0000000000000000000000000000000000000000000000000000000000000000
310
0000000000000000000000000000000000000000000000000000000000000000
310
0000000000000000000000000000000000000000000000000000000000000000
310
0000000000000000000000000000000000000000000000000000000000000000
310
0000000000000000000000000000000000000000000000000000000000DCDBDB
310
DCDDDDDCDDDBDCDBDCDBDBDBDCDBDBDBDBDCDCDCDBDCDCDCDB00000000000000
310
0000000000000000000000000000000000000000000000000000000000000000
310
0000000000000000000000000000000000000000000000000000000000000000
310
0000000000000000000000000000000000000000000000000000000000000000
310
0000000000000000000000000000000000000000000000000000000000000000
310
0000000000000000000000000000000000000000000000000000000000000000
310
0000000000000000000000000000000000000000000000000000000000000000
310
00000000000000000000DCDBDBDDDBDBDBDBDCDDDBDCDCDCDCDDDBDCDBDBDBDC
310
DBDCDBDBDCDB0000000000000000000000000000000000000000000000000000
310
0000000000000000000000000000000000000000000000000000000000000000
310
0000000000000000000000000000000000000000000000000000000000000000
310
0000000000000000000000000000000000000000000000000000000000000000
310
0000000000000000000000000000000000000000000000000000000000000000
310
0000000000000000000000000000000000000000000000000000000000000000
310
0000000000000000000000000000000000000000000000000000000000000000
310
0000000000000000000000000000000000000000000000000000000000000000
310
0000000000000000000000000000000000000000000000000000000000000000
310
0000000000000000000000000000000000000000000000000000000000000000
310
0000000000000000000000000000000000000000000000000000000000000000
310
0000000000000000000000000000000000000000000000000000000000000000
310
0000000000000000000000000000000000000000000000000000000000000000
310
0000000000000000000000000000000000000000000000000000000000000000
310
0000000000000000000000000000000000000000000000000000000000000000
310
0000000000000000000000000000000000000000000000000000000000000000
310
0000000000000000000000000000000000000000000000000000000000000000
310
0000000000000000000000000000000000000000000000000000000000000000
310
0000000000000000000000000000000000000000000000000000000000000000
310
0000000000000000000000000000000000000000000000000000000000000000
310
0000000000000000000000000000000000000000000000000000000000000000
310
0000000000000000000000000000000000000000000000000000000000000000
310
0000000000000000000000000000000000000000000000000000000000000000
310
0000000000000000000000000000000000000000000000000000000000000000
310
0000000000000000000000000000000000000000000000000000000000000000
310
0000000000000000000000000000000000000000000000000000000000000000
310
0000000000000000000000000000000000000000000000000000000000000000
310
0000000000000000000000000000000000000000000000000000000000000000
310
0000000000000000000000000000000000000000000000000000000000000000
310
0000000000000000000000000000000000000000000000000000000000000000
310
0000000000000000000000000000000000000000000000000000000000000000
310
0000000000000000000000000000000000000000000000000000000000000000
310
0000000000000000000000000000000000000000000000000000000000000000
310
0000000000000000000000000000000000000000000000000000000000000000
310
0000000000000000000000000000000000000000000000000000000000000000
310
0000000000000000000000000000000000000000000000000000000000000000
310
0000000000000000000000000000000000000000000000000000000000000000
310
0000000000000000000000000000000000000000000000000000000000000000
310
0000000000000000000000000000000000000000000000000000000000000000
310
0000000000000000000000000000000000000000000000000000000000000000
310
0000000000000000000000000000000000000000000000000000000000000000
310
0000000000000000000000000000000000000000000000000000000000000000
310
0000000000000000000000000000000000000000000000000000000000000000
310
0000000000000000000000000000000000000000000000000000000000000000
310
0000000000000000000000000000000000000000000000000000000000000000
310
01004F006C006500310030004900740065006D004E0061006D00650000000000
310
0000000000000000000000000000000000000000000000000000000000000000
310
1E000200FFFFFFFFFFFFFFFFFFFFFFFF00000000000000000000000000000000
310
0000000000000000000000000000000000000000030000000500000000000000
310
0000000000000000000000000000000000000000000000000000000000000000
310
0000000000000000000000000000000000000000000000000000000000000000
310
00000000FFFFFFFFFFFFFFFFFFFFFFFF00000000000000000000000000000000
310
0000000000000000000000000000000000000000000000000000000000000000
310
0000000000000000000000000000000000000000000000000000000000000000
310
0000000000000000000000000000000000000000000000000000000000000000
310
00000000FFFFFFFFFFFFFFFFFFFFFFFF00000000000000000000000000000000
310
0000000000000000000000000000000000000000000000000000000000000000
310
0000000000000000000000000000000000000000000000000000000000000000
310
0000000000000000000000000000000000000000000000000000000000000000
310
00000000FFFFFFFFFFFFFFFFFFFFFFFF00000000000000000000000000000000
310
0000000000000000000000000000000000000000000000000000000000000000
  1
OLE
  0
IMAGE
  5
495
330
1B
100
AcDbEntity
 67
     1
  8
0
 92
      140
310
8C0000000100000084000000060000000500000000E6B84E355E2040C873D0D423CE5C40000000000000000003E6B84E355E2040E43968EAD18868400000000000000000C01CD7A9C60B5B40E43968EAD18868400000000000000000C01CD7A9C60B5B40C873D0D423CE5C40000000000000000000E6B84E355E2040C873D0
310
D423CE5C400000000000000000
100
AcDbRasterImage
 90
        0
 10
8.184000454016313
 20
115.2209369693438
 30
0.0
 11
0.0244140625
 21
0.0
 31
0.0
 12
0.0
 22
0.0244140625
 32
0.0
 13
4096.0
 23
3320.0
340
493
 70
     7
280
     0
281
    50
282
    50
283
     0
360
494
 71
     1
 91
        2
 14
-0.5
 24
-0.5
 14
4095.5
 24
3319.5
  0
LINE
  5
4CF
330
1B
100
AcDbEntity
 67
     1
  8
kiri
100
AcDbLine
 10
171.3425935559675
 20
48.46081596281186
 30
0.0
 11
179.0658290112397
 21
37.20567362370781
 31
0.0
  0
LINE
  5
4D0
330
1B
100
AcDbEntity
 67
     1
  8
kiri
100
AcDbLine
 10
179.0658290112397
 20
37.20567362370781
 30
0.0
 11
214.3030909668863
 21
37.20567362370781
 31
0.0
  0
LINE
  5
4D1
330
1B
100
AcDbEntity
 67
     1
  8
kiri
100
AcDbLine
 10
132.1286601450227
 20
70.43523368192246
 30
0.0
 11
125.0425566678709
 21
48.70075694110278
 31
0.0
  0
LINE
  5
4D2
330
1B
100
AcDbEntity
 67
     1
  8
kiri
100
AcDbLine
 10
125.0425566678709
 20
48.70075694110278
 30
0.0
 11
103.6503837985138
 21
48.70075694110278
 31
0.0
  0
LINE
  5
4D3
330
1B
100
AcDbEntity
 67
     1
  8
kiri
100
AcDbLine
 10
149.0830128633482
 20
89.13902151835708
 30
0.0
 11
133.0608008194518
 21
82.79085676833672
 31
0.0
  0
LINE
  5
4D4
330
1B
100
AcDbEntity
 67
     1
  8
kiri
100
AcDbLine
 10
133.0608008194518
 20
82.79085676833672
 30
0.0
 11
98.70675000347535
 21
82.79085676833672
 31
0.0
  0
LINE
  5
4D5
330
1B
100
AcDbEntity
 67
     1
  8
kiri
100
AcDbLine
 10
222.8732666024936
 20
99.12317320941472
 30
0.0
 11
225.5999324800786
 21
89.76289219399502
 31
0.0
  0
LINE
  5
4D6
330
1B
100
AcDbEntity
 67
     1
  8
kiri
100
AcDbLine
 10
225.5999324800786
 20
89.76289219399502
 30
0.0
 11
273.7043398226353
 21
89.76289219399502
 31
0.0
  0
LINE
  5
4D7
330
1B
100
AcDbEntity
 67
     1
  8
kiri
100
AcDbLine
 10
117.947606076964
 20
131.8264536941471
 30
0.0
 11
125.4578508205679
 21
154.8308194415425
 31
0.0
  0
LINE
  5
4D8
330
1B
100
AcDbEntity
 67
     1
  8
kiri
100
AcDbLine
 10
125.4578508205679
 20
154.8308194415425
 30
0.0
 11
161.9284785009272
 21
154.8308194415425
 31
0.0
  0
LINE
  5
4DA
330
1B
100
AcDbEntity
 67
     1
  8
kiri
100
AcDbLine
 10
205.289071364347
 20
113.6804631208955
 30
0.0
 11
204.6868367023365
 21
147.4299634606861
 31
0.0
  0
LINE
  5
4DB
330
1B
100
AcDbEntity
 67
     1
  8
kiri
100
AcDbLine
 10
204.6868367023365
 20
147.4299634606861
 30
0.0
 11
244.2684997624991
 21
147.4299634606861
 31
0.0
  0
LINE
  5
4DC
330
1B
100
AcDbEntity
 67
     1
  8
kiri
100
AcDbLine
 10
213.898012014694
 20
98.42769767693477
 30
0.0
 11
217.3868998162483
 21
78.92394712441433
 31
0.0
  0
LINE
  5
4DD
330
1B
100
AcDbEntity
 67
     1
  8
kiri
100
AcDbLine
 10
217.3868998162483
 20
78.92394712441433
 30
0.0
 11
247.9116590146733
 21
78.92394712441433
 31
0.0
  0
LINE
  5
4DE
330
1B
100
AcDbEntity
 67
     1
  8
kiri
100
AcDbLine
 10
154.192260594762
 20
93.45838334563401
 30
0.0
 11
154.192260594762
 21
106.0697022470747
 31
0.0
  0
LINE
  5
4DF
330
1B
100
AcDbEntity
 67
     1
  8
kiri
100
AcDbLine
 10
154.192260594762
 20
106.0697022470747
 30
0.0
 11
179.3047346927969
 21
106.0697022470747
 31
0.0
  0
LINE
  5
4E0
330
1B
100
AcDbEntity
 67
     1
  8
kiri
100
AcDbLine
 10
118.8455949979071
 20
111.2276774815695
 30
0.0
 11
105.2686608448405
 21
93.07669688154835
 31
0.0
  0
LINE
  5
4E1
330
1B
100
AcDbEntity
 67
     1
  8
kiri
100
AcDbLine
 10
105.2686608448405
 20
93.07669688154835
 30
0.0
 11
83.48630214856155
 21
93.07669688154835
 31
0.0
  0
TEXT
  5
4E2
330
1B
100
AcDbEntity
 67
     1
  8
kiri
100
AcDbText
 10
126.9221825877107
 20
154.8308194415425
 30
0.0
 40
2.5
  1
Betoonkivikatus
100
AcDbText
  0
TEXT
  5
4E3
330
1B
100
AcDbEntity
 67
     1
  8
kiri
100
AcDbText
 10
207.5650330365212
 20
147.4299634606861
 30
0.0
 40
2.5
  1
Neeluplekitihend
100
AcDbText
  0
TEXT
  5
4E4
330
1B
100
AcDbEntity
 67
     1
  8
kiri
100
AcDbText
 10
156.1377273126506
 20
106.0697022470747
 30
0.0
 40
2.5
  1
Neeluplekk
100
AcDbText
  0
TEXT
  5
4E5
330
1B
100
AcDbEntity
 67
     1
  8
kiri
100
AcDbText
 10
227.9453380855371
 20
89.76289219399502
 30
0.0
 40
2.5
  1
Mittehingav aluskate
100
AcDbText
  0
TEXT
  5
4E6
330
1B
100
AcDbEntity
 67
     1
  8
kiri
100
AcDbText
 10
238.1928738667802
 20
85.77518124613749
 30
0.0
 40
2.5
  1
Spanflex Fleece
100
AcDbText
  0
TEXT
  5
4E7
330
1B
100
AcDbEntity
 67
     1
  8
kiri
100
AcDbText
 10
219.6452344533426
 20
78.92394712441433
 30
0.0
 40
2.5
  1
Tuulutusliist
100
AcDbText
  0
TEXT
  5
4E8
330
1B
100
AcDbEntity
 67
     1
  8
kiri
100
AcDbText
 10
182.2136056554621
 20
37.20567362370781
 30
0.0
 40
2.5
  1
Neelusarikas
100
AcDbText
  0
TEXT
  5
4E9
330
1B
100
AcDbEntity
 67
     1
  8
kiri
100
AcDbText
 10
105.8833809495735
 20
48.70075694110278
 30
0.0
 40
2.5
  1
Sarikas
100
AcDbText
  0
TEXT
  5
4EA
330
1B
100
AcDbEntity
 67
     1
  8
kiri
100
AcDbText
 10
99.981036875742
 20
82.79085676833672
 30
0.0
 40
2.5
  1
Neelualusplekk
100
AcDbText
  0
TEXT
  5
4EB
330
1B
100
AcDbEntity
 67
     1
  8
kiri
100
AcDbText
 10
86.26907309518527
 20
93.07669688154835
 30
0.0
 40
2.5
  1
Pikiroov
100
AcDbText
  0
LINE
  5
4EC
330
1B
100
AcDbEntity
 67
     1
  8
kiri
100
AcDbLine
 10
237.2040901232545
 20
85.46806659994212
 30
0.0
 11
273.7043398226353
 21
85.46806659994212
 31
0.0
  0
MTEXT
  5
50C
330
1B
100
AcDbEntity
 67
     1
  8
kiri
100
AcDbMText
 10
257.5560469012584
 20
16.85646473989185
 30
0.0
 40
2.0
 41
29.0
 71
     1
 72
     5
  1
{\fArial|b0|i0|c186|p34;A4 paber}
 73
     1
 44
1.0
  0
ENDSEC
  0
SECTION
  2
OBJECTS
  0
DICTIONARY
  5
C
330
0
100
AcDbDictionary
281
     1
  3
ACAD_GROUP
350
D
  3
ACAD_IMAGE_DICT
350
289
  3
ACAD_IMAGE_VARS
350
28C
  3
ACAD_LAYOUT
350
1A
  3
ACAD_MLINESTYLE
350
17
  3
ACAD_PLOTSETTINGS
350
19
  3
ACAD_PLOTSTYLENAME
350
E
  3
AcDbVariableDictionary
350
2C
  0
DICTIONARY
  5
35
330
2
100
AcDbDictionary
280
     1
281
     1
  3
ACAD_LAYERFILTERS
360
36
  3
ACAD_LAYERSTATES
360
283
  0
IMAGEDEF_REACTOR
  5
494
330
495
100
AcDbRasterImageDefReactor
 90
        2
330
495
  0
DICTIONARY
  5
D
102
{ACAD_REACTORS
330
C
102
}
330
C
100
AcDbDictionary
281
     1
  0
DICTIONARY
  5
289
102
{ACAD_REACTORS
330
C
102
}
330
C
100
AcDbDictionary
281
     1
  3
5
350
493
  0
RASTERVARIABLES
  5
28C
102
{ACAD_REACTORS
330
C
102
}
330
C
100
AcDbRasterVariables
 90
        0
 70
     1
 71
     1
 72
     1
  0
DICTIONARY
  5
1A
102
{ACAD_REACTORS
330
C
102
}
330
C
100
AcDbDictionary
281
     1
  3
A4
350
1E
  3
Layout2
350
26
  3
Model
350
22
  0
DICTIONARY
  5
17
102
{ACAD_REACTORS
330
C
102
}
330
C
100
AcDbDictionary
281
     1
  3
Standard
350
18
  0
DICTIONARY
  5
19
102
{ACAD_REACTORS
330
C
102
}
330
C
100
AcDbDictionary
281
     1
  0
ACDBDICTIONARYWDFLT
  5
E
102
{ACAD_REACTORS
330
C
102
}
330
C
100
AcDbDictionary
281
     1
  3
Normal
350
F
100
AcDbDictionaryWithDefault
340
F
  0
DICTIONARY
  5
2C
102
{ACAD_REACTORS
330
C
102
}
330
C
100
AcDbDictionary
281
     1
  3
DIMASSOC
350
2E
  3
HIDETEXT
350
2D
  0
DICTIONARY
  5
36
102
{ACAD_REACTORS
330
35
102
}
330
35
100
AcDbDictionary
280
     1
281
     1
  3
# Arhitektuur
360
37
  3
# Asend
360
38
  3
# Asendiplaan
360
39
  3
# Elekter
360
3A
  3
# Kõik kihid
360
3B
  3
# Küte-vent
360
3C
  3
# Planeering
360
3D
  3
# Sisekujundus
360
3E
  3
# Soojus
360
3F
  3
# Tehnoloogia
360
40
  3
# Topo
360
41
  3
# Topo-geodeesia
360
42
  3
# Tugiplaan
360
43
  3
# Vertikaal-teed
360
44
  3
# Vesi-kanal
360
45
  3
$$$
360
46
  3
$F-
360
47
  3
-
360
48
  3
-------
360
49
  3
-50
360
4A
  3
-_
360
4B
  3
-p
360
4C
  3
0
360
4D
  3
000
360
4E
  3
009
360
4F
  3
00_
360
50
  3
01
360
51
  3
013
360
52
  3
018
360
53
  3
02
360
54
  3
025
360
55
  3
030
360
56
  3
032
360
57
  3
032G
360
58
  3
035
360
59
  3
050
360
5A
  3
070
360
5B
  3
0_
360
5C
  3
0aikstas
360
5D
  3
0k
360
5E
  3
0korrus
360
5F
  3
1
360
60
  3
1 GA
360
61
  3
1 korrus
360
62
  3
1-
360
63
  3
100
360
64
  3
120
360
65
  3
121
360
66
  3
1343
360
67
  3
1784
360
68
  3
1784frst
360
69
  3
1784frst$0$
360
6A
  3
1784sec5
360
6B
  3
1947
360
6C
  3
1aukstas
360
6D
  3
1GRID
360
6E
  3
1k
360
6F
  3
1korrus
360
70
  3
1puse
360
71
  3
1V
360
72
  3
2
360
73
  3
2 KORRUS
360
74
  3
2 SPACE PLAN
360
75
  3
200
360
76
  3
218
360
77
  3
220g
360
78
  3
250
360
79
  3
2AUKSTAS
360
7A
  3
2d
360
7B
  3
2DPLAN
360
7C
  3
2k
360
7D
  3
2puse
360
7E
  3
3 CEILING
360
7F
  3
300
360
80
  3
300-1
360
81
  3
3845-000
360
82
  3
4
360
83
  3
4 ELECTRIC
360
84
  3
4021
360
85
  3
5 DEMO
360
86
  3
6 LAYER 1
360
87
  3
7 LAYER 2
360
88
  3
720
360
89
  3
720g
360
8A
  3
8
360
8B
  3
9
360
8C
  3
96
360
8D
  3
_4021
360
8E
  3
__E1
360
8F
  3
__E2
360
90
  3
__E3
360
91
  3
__E6
360
92
  3
_all
360
93
  3
_arch
360
94
  3
_AXIS
360
95
  3
_BORT
360
96
  3
_BR
360
97
  3
_Building 3
360
98
  3
_color6
360
99
  3
_DIM
360
9A
  3
_External Works
360
9B
  3
_first
360
9C
  3
_First Floor
360
9D
  3
_ground
360
9E
  3
_Ground Floor
360
9F
  3
_h
360
A0
  3
_Hatching
360
A1
  3
_KOORD
360
A2
  3
_New
360
A3
  3
_OP
360
A4
  3
_OP14
360
A5
  3
_OP15
360
A6
  3
_OP6
360
A7
  3
_PARK
360
A8
  3
_PARK4
360
A9
  3
_PIKET
360
AA
  3
_PS
360
AB
  3
_Removed
360
AC
  3
_roof
360
AD
  3
_SECTION
360
AE
  3
_SOL
360
AF
  3
_SUP
360
B0
  3
_Text
360
B1
  3
_WIN
360
B2
  3
_Without text
360
B3
  3
A
360
B4
  3
A layers
360
B5
  3
a-
360
B6
  3
A-12101
360
B7
  3
A0-FRAME
360
B8
  3
A000D
360
B9
  3
A032G
360
BA
  3
a2
360
BB
  3
a210h
360
BC
  3
a210h-50
360
BD
  3
a3
360
BE
  3
a9
360
BF
  3
AA
360
C0
  3
aadressid
360
C1
  3
adler
360
C2
  3
AJUTINE
360
C3
  3
ALEV07
360
C4
  3
ALL
360
C5
  3
all on
360
C6
  3
alles met_
360
C7
  3
ALLTEXT
360
C8
  3
ANGARS
360
C9
  3
Antras
360
CA
  3
AR
360
CB
  3
ar_bwl
360
CC
  3
ar_grd
360
CD
  3
AR_GRID
360
CE
  3
arch
360
CF
  3
Architecture
360
D0
  3
AREA
360
D1
  3
Arhitecture
360
D2
  3
ARM
360
D3
  3
as
360
D4
  3
Asend
360
D5
  3
asendiplaan
360
D6
  3
AUDITORIA
360
D7
  3
ax
360
D8
  3
B
360
D9
  3
BACK BAR
360
DA
  3
BACKBAR
360
DB
  3
BANQ'S
360
DC
  3
BAR
360
DD
  3
bar-top
360
DE
  3
bb
360
DF
  3
BDPF5R
360
E0
  3
BENCH
360
E1
  3
BHWB
360
E2
  3
blue
360
E3
  3
BOUNARY
360
E4
  3
BOUNDARY
360
E5
  3
boundry-of
360
E6
  3
BUILDERS WORK
360
E7
  3
BUILDERS-WORK
360
E8
  3
BULKHEAD
360
E9
  3
BV-LEASE
360
EA
  3
bw
360
EB
  3
bzik
360
EC
  3
c
360
ED
  3
C-
360
EE
  3
C1
360
EF
  3
CANOPY
360
F0
  3
CART
360
F1
  3
CC
360
F2
  3
Ceiling
360
F3
  3
CEILING LAYOUT
360
F4
  3
CEILING PLAN
360
F5
  3
cfp layers
360
F6
  3
CLAD
360
F7
  3
coloour
360
F8
  3
colour
360
F9
  3
COLOURS
360
FA
  3
CONC
360
FB
  3
CONCR
360
FC
  3
CONSERVITORY
360
FD
  3
CORIAN
360
FE
  3
cu dem
360
FF
  3
cu s2
360
100
  3
cub
360
101
  3
CURRENT
360
102
  3
CURVED GLASS
360
103
  3
curved walkway
360
104
  3
CYAN
360
105
  3
D
360
106
  3
D1
360
107
  3
D_
360
108
  3
dalaje
360
109
  3
das
360
10A
  3
DAVE
360
10B
  3
demolition
360
10C
  3
demolition work
360
10D
  3
dfd
360
10E
  3
dim
360
10F
  3
dim11
360
110
  3
dim12
360
111
  3
Dimensions
360
112
  3
dims
360
113
  3
DN
360
114
  3
DOM
360
115
  3
Don't plot
360
116
  3
DOOR
360
117
  3
Drain
360
118
  3
drains
360
119
  3
DSD
360
11A
  3
Ductwork
360
11B
  3
E - LAYERS
360
11C
  3
E1
360
11D
  3
E2
360
11E
  3
E3
360
11F
  3
E4
360
120
  3
EDDIE
360
121
  3
EI PLOTI
360
122
  3
eiplo
360
123
  3
EIplot
360
124
  3
EKSEN
360
125
  3
ELEC
360
126
  3
ELEVATION
360
127
  3
elevations
360
128
  3
endview
360
129
  3
entrance
360
12A
  3
esam
360
12B
  3
et trykkida välja
360
12C
  3
exg imported
360
12D
  3
EXISTING
360
12E
  3
F
360
12F
  3
FEATURE
360
130
  3
FENCE
360
131
  3
FINISH
360
132
  3
finishes
360
133
  3
FINISHES PLAN
360
134
  3
FINISHES PLANS
360
135
  3
FIRE
360
136
  3
FIRE PLAN
360
137
  3
Fire strategy
360
138
  3
FIRST FLOOR
360
139
  3
First to Roof
360
13A
  3
FLAT GLASS
360
13B
  3
FLOOR
360
13C
  3
FLOOR PLAN
360
13D
  3
FR
360
13E
  3
Fragment 2
360
13F
  3
freeze
360
140
  3
FROS CUR VPORT
360
141
  3
FROZ
360
142
  3
FROZ CUR VPORT
360
143
  3
FROZ IN CURENT
360
144
  3
frozen
360
145
  3
frozen Layers
360
146
  3
FRZ
360
147
  3
Furniture
360
148
  3
furntext
360
149
  3
furntext1
360
14A
  3
furntext2
360
14B
  3
furntext3
360
14C
  3
FY
360
14D
  3
g
360
14E
  3
GA
360
14F
  3
ga plan
360
150
  3
GAMCO
360
151
  3
General
360
152
  3
geo
360
153
  3
geodeesia
360
154
  3
git
360
155
  3
GLASS
360
156
  3
GLASS RACK
360
157
  3
gondola
360
158
  3
gp
360
159
  3
gp- ära
360
15A
  3
GREEN
360
15B
  3
GREET
360
15C
  3
grey
360
15D
  3
grid
360
15E
  3
GRID 0FF
360
15F
  3
grids
360
160
  3
gridtext102
360
161
  3
grnd
360
162
  3
GROUND FLOOR
360
163
  3
Ground to First
360
164
  3
Ground to Roof
360
165
  3
HAIRDRESSER
360
166
  3
haljastus
360
167
  3
hand
360
168
  3
HARDWARE
360
169
  3
HAT
360
16A
  3
hatch
360
16B
  3
hatch-off
360
16C
  3
hoonestuskava
360
16D
  3
HVAC
360
16E
  3
iden
360
16F
  3
INDICATE THICK LINE OF BULKHEAD
360
170
  3
insulation
360
171
  3
jack
360
172
  3
JBHGVHG
360
173
  3
JETO
360
174
  3
jhd
360
175
  3
John-Harrison
360
176
  3
JOINERE SETTING OUT
360
177
  3
KASUTUSEL
360
178
  3
katus
360
179
  3
KATUSEPLAAN
360
17A
  3
KAYDIRAKLAR
360
17B
  3
kaylar
360
17C
  3
KENARLAR
360
17D
  3
kiitoks
360
17E
  3
KINNI
360
17F
  3
KIRJANURK
360
180
  3
kitas
360
181
  3
KITCHEN
360
182
  3
KITCHEN PLAN
360
183
  3
KITCHEN SETTING OUT
360
184
  3
KONSOLLAR
360
185
  3
Koondvõrk
360
186
  3
koord
360
187
  3
kr
360
188
  3
L
360
189
  3
LABIEKARTOJUMS
360
18A
  3
LAHTI
360
18B
  3
Layer off
360
18C
  3
LIBRARY
360
18D
  3
licencing
360
18E
  3
lift
360
18F
  3
LIGHT
360
190
  3
Lighting
360
191
  3
liik
360
192
  3
LINII
360
193
  3
lk
360
194
  3
LOBBY
360
195
  3
LOBBY AND OFFICE
360
196
  3
LOCK
360
197
  3
locked
360
198
  3
LUKKU
360
199
  3
LÕIGE
360
19A
  3
M1
360
19B
  3
magenta
360
19C
  3
Magna2000
360
19D
  3
MDM1
360
19E
  3
mech
360
19F
  3
MECHANICAL
360
1A0
  3
MEMBRANE
360
1A1
  3
moje
360
1A2
  3
N
360
1A3
  3
N_
360
1A4
  3
ncw
360
1A5
  3
NERO
360
1A6
  3
No Nums
360
1A7
  3
nofurn
360
1A8
  3
nofurn1
360
1A9
  3
nofurn2
360
1AA
  3
NON XREF DEPENDANTS
360
1AB
  3
Nosuc
360
1AC
  3
npl
360
1AD
  3
nurgapu
360
1AE
  3
nõrkvool
360
1AF
  3
off
360
1B0
  3
OFFICE
360
1B1
  3
OFFICE FIRST FLOOR
360
1B2
  3
on
360
1B3
  3
on and thawed
360
1B4
  3
onlayers
360
1B5
  3
OP1
360
1B6
  3
OP2
360
1B7
  3
option 1
360
1B8
  3
option 2
360
1B9
  3
Option1
360
1BA
  3
option4
360
1BB
  3
Option5
360
1BC
  3
ORIGINAL
360
1BD
  3
out
360
1BE
  3
Outer
360
1BF
  3
outline
360
1C0
  3
P
360
1C1
  3
P - LAYERS
360
1C2
  3
P _
360
1C3
  3
P-LAYERS
360
1C4
  3
PH
360
1C5
  3
phase 1
360
1C6
  3
PHEALTH
360
1C7
  3
PHIL
360
1C8
  3
Piepl
360
1C9
  3
PIPE
360
1CA
  3
pipes
360
1CB
  3
Pipes1
360
1CC
  3
Pipework
360
1CD
  3
pirmas
360
1CE
  3
PIZZA
360
1CF
  3
pk 2d-plan
360
1D0
  3
pl
360
1D1
  3
PL1
360
1D2
  3
PLAKALAR
360
1D3
  3
planas
360
1D4
  3
PLINTH
360
1D5
  3
PLINTHS
360
1D6
  3
PLO
360
1D7
  3
plot
360
1D8
  3
plumbing
360
1D9
  3
PN
360
1DA
  3
PN_N
360
1DB
  3
PN_P
360
1DC
  3
porch
360
1DD
  3
Power
360
1DE
  3
PR
360
1DF
  3
PR-TRASSID
360
1E0
  3
prep
360
1E1
  3
primary
360
1E2
  3
proj
360
1E3
  3
proj-trassid
360
1E4
  3
PROP
360
1E5
  3
prop builders work
360
1E6
  3
proposed
360
1E7
  3
ps
360
1E8
  3
PU
360
1E9
  3
qq
360
1EA
  3
r
360
1EB
  3
R0
360
1EC
  3
R1
360
1ED
  3
R2
360
1EE
  3
R3
360
1EF
  3
rack
360
1F0
  3
RCP
360
1F1
  3
RED
360
1F2
  3
reds
360
1F3
  3
ref ceiling
360
1F4
  3
ref ceiling 1
360
1F5
  3
REFLECTED CEILING PLAN
360
1F6
  3
REI ainult
360
1F7
  3
RELECTED CEILING PLAN 012
360
1F8
  3
REST
360
1F9
  3
restaurant
360
1FA
  3
rev
360
1FB
  3
Revs
360
1FC
  3
ROHELINE
360
1FD
  3
ROOFLIGHT
360
1FE
  3
rsfl
360
1FF
  3
s
360
200
  3
S - LAYERS
360
201
  3
s 1
360
202
  3
saldymas
360
203
  3
san
360
204
  3
SANDSTONE
360
205
  3
sanitary
360
206
  3
SCALE 100 TEXT
360
207
  3
SCALE 200 TEXT
360
208
  3
SCALE 50 TEXT
360
209
  3
screed plan
360
20A
  3
SEC
360
20B
  3
secondary
360
20C
  3
section
360
20D
  3
SELF SERVICE
360
20E
  3
servery
360
20F
  3
SERVICES
360
210
  3
SF
360
211
  3
shadow
360
212
  3
shadow-off
360
213
  3
SHELF
360
214
  3
SHELVES
360
215
  3
shema
360
216
  3
sienos
360
217
  3
SIGNAGE
360
218
  3
SINBLU
360
219
  3
Sinergy
360
21A
  3
SININE
360
21B
  3
SININE1
360
21C
  3
SIT
360
21D
  3
SITE
360
21E
  3
siyah
360
21F
  3
skersinis
360
220
  3
solid
360
221
  3
solid fills
360
222
  3
SPIRAL
360
223
  3
SPOTLIGHTS
360
224
  3
stairs
360
225
  3
standard
360
226
  3
stoły
360
227
  3
Stru
360
228
  3
Structure
360
229
  3
STRUT
360
22A
  3
STUBS
360
22B
  3
SUFLATORI
360
22C
  3
surv
360
22D
  3
SURVEY
360
22E
  3
Susanne
360
22F
  3
SWEET
360
230
  3
SYNERGY
360
231
  3
T1
360
232
  3
TABLE
360
233
  3
tags
360
234
  3
TEACH
360
235
  3
test
360
236
  3
TEXT
360
237
  3
TH
360
238
  3
thaw
360
239
  3
thawed
360
23A
  3
THP
360
23B
  3
tjp
360
23C
  3
tone
360
23D
  3
TOP
360
23E
  3
Topo
360
23F
  3
tr
360
240
  3
trassid
360
241
  3
trassid-txt
360
242
  3
tree
360
243
  3
tu_
360
244
  3
Tugiplaan
360
245
  3
txt
360
246
  3
UFR
360
247
  3
UNITA
360
248
  3
UNITB
360
249
  3
UNITC
360
24A
  3
UP
360
24B
  3
UPLO
360
24C
  3
upper
360
24D
  3
uus
360
24E
  3
v31
360
24F
  3
VAADE
360
250
  3
Valgus
360
251
  3
varem-proj-trassid
360
252
  3
Vertikaal
360
253
  3
vertikalinis
360
254
  3
viewports
360
255
  3
VK
360
256
  3
vor
360
257
  3
vormistus
360
258
  3
vpl
360
259
  3
VS_01
360
25A
  3
VS_02
360
25B
  3
VS_03
360
25C
  3
VS_04
360
25D
  3
VS_05
360
25E
  3
VS_06
360
25F
  3
VS_07
360
260
  3
VS_08
360
261
  3
VS_09
360
262
  3
VS_10
360
263
  3
VS_11
360
264
  3
VS_12
360
265
  3
VS_13
360
266
  3
VS_14
360
267
  3
VS_15
360
268
  3
VS_16
360
269
  3
VS_17
360
26A
  3
VS_18
360
26B
  3
VS_19
360
26C
  3
VS_20
360
26D
  3
W
360
26E
  3
W.M.T.
360
26F
  3
WADE
360
270
  3
waiter
360
271
  3
WALL
360
272
  3
Walls
360
273
  3
white
360
274
  3
white color
360
275
  3
whs-zebra-issue
360
276
  3
window
360
277
  3
WINEBIN
360
278
  3
winebins
360
279
  3
WORK
360
27A
  3
X
360
27B
  3
xerf
360
27C
  3
XREF
360
27D
  3
xref-of
360
27E
  3
XREFID
360
27F
  3
YARDIMLAR
360
280
  3
YUZEYLER
360
281
  0
DICTIONARY
  5
283
102
{ACAD_REACTORS
330
35
102
}
330
35
100
AcDbDictionary
281
     1
  0
IMAGEDEF
  5
493
102
{ACAD_REACTORS
330
289
330
494
102
}
330
289
100
AcDbRasterImageDef
 90
        0
  1
E:\est\PILDID\5.JPG
 10
4096.0
 20
3320.0
 11
0.000244140625
 21
0.000244140625
280
     1
281
     0
  0
LAYOUT
  5
1E
102
{ACAD_REACTORS
330
1A
102
}
330
1A
100
AcDbPlotSettings
  1

  2
CutePDF Writer
  4
A4
  6

 40
3.174999952316284
 41
3.174999952316284
 42
3.175003051757812
 43
3.17498779296875
 44
209.8886566162109
 45
297.0530090332031
 46
0.0
 47
0.0
 48
0.0
 49
0.0
140
0.0
141
0.0
142
1.0
143
1.0
 70
   688
 72
     1
 73
     1
 74
     5
  7
monochrome.ctb
 75
    16
147
1.0
148
0.0
149
0.0
100
AcDbLayout
  1
A4
 70
     1
 71
     1
 10
-3.17498779296875
 20
-3.174999952316284
 11
293.8780212402343
 21
206.7136566638946
 12
0.0
 22
0.0
 32
0.0
 14
3.524297991773778
 24
3.864418074508137
 34
-0.0015258207003583
 15
286.5441631492834
 25
199.8824116526475
 35
0.0000000349246037
146
0.0
 13
0.0
 23
0.0
 33
0.0
 16
1.0
 26
0.0
 36
0.0
 17
0.0
 27
1.0
 37
0.0
 76
     0
330
1B
331
32
  0
LAYOUT
  5
26
102
{ACAD_REACTORS
330
1A
102
}
330
1A
100
AcDbPlotSettings
  1

  2
CutePDF Writer
  4

  6

 40
0.0
 41
0.0
 42
0.0
 43
0.0
 44
0.0
 45
0.0
 46
0.0
 47
0.0
 48
0.0
 49
0.0
140
0.0
141
0.0
142
1.0
143
1.0
 70
   688
 72
     0
 73
     0
 74
     5
  7
monochrome.ctb
 75
    16
147
1.0
148
0.0
149
0.0
100
AcDbLayout
  1
Layout2
 70
     1
 71
     2
 10
0.0
 20
0.0
 11
12.0
 21
9.0
 12
0.0
 22
0.0
 32
0.0
 14
0.0
 24
0.0
 34
0.0
 15
0.0
 25
0.0
 35
0.0
146
0.0
 13
0.0
 23
0.0
 33
0.0
 16
1.0
 26
0.0
 36
0.0
 17
0.0
 27
1.0
 37
0.0
 76
     0
330
23
  0
LAYOUT
  5
22
102
{ACAD_REACTORS
330
1A
102
}
330
1A
100
AcDbPlotSettings
  1

  2
CutePDF Writer
  4

  6

 40
0.0
 41
0.0
 42
0.0
 43
0.0
 44
0.0
 45
0.0
 46
0.0
 47
0.0
 48
0.0
 49
0.0
140
0.0
141
0.0
142
1.0
143
1.0
 70
  1712
 72
     0
 73
     0
 74
     0
  7
monochrome.ctb
 75
     0
147
1.0
148
0.0
149
0.0
100
AcDbLayout
  1
Model
 70
     1
 71
     0
 10
0.0
 20
0.0
 11
12.0
 21
9.0
 12
0.0
 22
0.0
 32
0.0
 14
0.0
 24
0.0
 34
0.0
 15
0.0
 25
0.0
 35
0.0
146
0.0
 13
0.0
 23
0.0
 33
0.0
 16
1.0
 26
0.0
 36
0.0
 17
0.0
 27
1.0
 37
0.0
 76
     0
330
1F
  0
MLINESTYLE
  5
18
102
{ACAD_REACTORS
330
17
102
}
330
17
100
AcDbMlineStyle
  2
STANDARD
 70
     0
  3

 62
   256
 51
90.0
 52
90.0
 71
     2
 49
0.5
 62
   256
  6
BYLAYER
 49
-0.5
 62
   256
  6
BYLAYER
  0
ACDBPLACEHOLDER
  5
F
102
{ACAD_REACTORS
330
E
102
}
330
E
  0
DICTIONARYVAR
  5
2E
102
{ACAD_REACTORS
330
2C
102
}
330
2C
100
DictionaryVariables
280
     0
  1
2
  0
DICTIONARYVAR
  5
2D
102
{ACAD_REACTORS
330
2C
102
}
330
2C
100
DictionaryVariables
280
     0
  1
1
  0
XRECORD
  5
37
102
{ACAD_REACTORS
330
36
102
}
330
36
100
AcDbXrecord
280
     1
  1
# Arhitektuur
  1
Ar*
  1
*
  1
*
 70
     0
  1
*
  1
*
  0
XRECORD
  5
38
102
{ACAD_REACTORS
330
36
102
}
330
36
100
AcDbXrecord
280
     1
  1
# Asend
  1
GP*
  1
*
  1
*
 70
     0
  1
*
  1
*
  0
XRECORD
  5
39
102
{ACAD_REACTORS
330
36
102
}
330
36
100
AcDbXrecord
280
     1
  1
# Asendiplaan
  1
GP*
  1
*
  1
*
 70
     0
  1
*
  1
*
  0
XRECORD
  5
3A
102
{ACAD_REACTORS
330
36
102
}
330
36
100
AcDbXrecord
280
     1
  1
# Elekter
  1
El*
  1
*
  1
*
 70
     0
  1
*
  1
*
  0
XRECORD
  5
3B
102
{ACAD_REACTORS
330
36
102
}
330
36
100
AcDbXrecord
280
     1
  1
# Kõik kihid
  1
*
  1
*
  1
*
 70
     0
  1
*
  1
*
  0
XRECORD
  5
3C
102
{ACAD_REACTORS
330
36
102
}
330
36
100
AcDbXrecord
280
     1
  1
# Küte-vent
  1
KV*
  1
*
  1
*
 70
     0
  1
*
  1
*
  0
XRECORD
  5
3D
102
{ACAD_REACTORS
330
36
102
}
330
36
100
AcDbXrecord
280
     1
  1
# Planeering
  1
*
  1
*
  1
*
 70
     0
  1
*
  1
*
  0
XRECORD
  5
3E
102
{ACAD_REACTORS
330
36
102
}
330
36
100
AcDbXrecord
280
     1
  1
# Sisekujundus
  1
As*
  1
*
  1
*
 70
     1
  1
*
  1
*
  0
XRECORD
  5
3F
102
{ACAD_REACTORS
330
36
102
}
330
36
100
AcDbXrecord
280
     1
  1
# Soojus
  1
SV*
  1
*
  1
*
 70
     0
  1
*
  1
*
  0
XRECORD
  5
40
102
{ACAD_REACTORS
330
36
102
}
330
36
100
AcDbXrecord
280
     1
  1
# Tehnoloogia
  1
Th*
  1
*
  1
*
 70
     1
  1
*
  1
*
  0
XRECORD
  5
41
102
{ACAD_REACTORS
330
36
102
}
330
36
100
AcDbXrecord
280
     1
  1
# Topo
  1
TG*
  1
*
  1
*
 70
     0
  1
*
  1
*
  0
XRECORD
  5
42
102
{ACAD_REACTORS
330
36
102
}
330
36
100
AcDbXrecord
280
     1
  1
# Topo-geodeesia
  1
Tg-*
  1
*
  1
*
 70
     1
  1
*
  1
*
  0
XRECORD
  5
43
102
{ACAD_REACTORS
330
36
102
}
330
36
100
AcDbXrecord
280
     1
  1
# Tugiplaan
  1
*
  1
*
  1
*
 70
     0
  1
*
  1
*
  0
XRECORD
  5
44
102
{ACAD_REACTORS
330
36
102
}
330
36
100
AcDbXrecord
280
     1
  1
# Vertikaal-teed
  1
VP*
  1
*
  1
*
 70
     0
  1
*
  1
*
  0
XRECORD
  5
45
102
{ACAD_REACTORS
330
36
102
}
330
36
100
AcDbXrecord
280
     1
  1
# Vesi-kanal
  1
VK*
  1
*
  1
*
 70
     1
  1
*
  1
*
  0
XRECORD
  5
46
102
{ACAD_REACTORS
330
36
102
}
330
36
100
AcDbXrecord
280
     1
  1
$$$
  1
###
  1
*
  1
*
 70
     0
  1
*
  1
*
  0
XRECORD
  5
47
102
{ACAD_REACTORS
330
36
102
}
330
36
100
AcDbXrecord
280
     1
  1
$F-
  1
option4*
  1
*
  1
*
 70
     0
  1
*
  1
*
  0
XRECORD
  5
48
102
{ACAD_REACTORS
330
36
102
}
330
36
100
AcDbXrecord
280
     1
  1
-
  1
-*
  1
*
  1
*
 70
     0
  1
*
  1
*
  0
XRECORD
  5
49
102
{ACAD_REACTORS
330
36
102
}
330
36
100
AcDbXrecord
280
     1
  1
-------
  1
-*
  1
*
  1
*
 70
     0
  1
*
  1
*
  0
XRECORD
  5
4A
102
{ACAD_REACTORS
330
36
102
}
330
36
100
AcDbXrecord
280
     1
  1
-50
  1
*-50
  1
*
  1
*
 70
     0
  1
*
  1
*
  0
XRECORD
  5
4B
102
{ACAD_REACTORS
330
36
102
}
330
36
100
AcDbXrecord
280
     1
  1
-_
  1
-_*
  1
*
  1
*
 70
     0
  1
*
  1
*
  0
XRECORD
  5
4C
102
{ACAD_REACTORS
330
36
102
}
330
36
100
AcDbXrecord
280
     1
  1
-p
  1
*-p*
  1
*
  1
*
 70
     0
  1
*
  1
*
  0
XRECORD
  5
4D
102
{ACAD_REACTORS
330
36
102
}
330
36
100
AcDbXrecord
280
     1
  1
0
  1
0*
  1
*
  1
*
 70
     0
  1
*
  1
*
  0
XRECORD
  5
4E
102
{ACAD_REACTORS
330
36
102
}
330
36
100
AcDbXrecord
280
     1
  1
000
  1
*000
  1
*
  1
*
 70
     0
  1
*
  1
*
  0
XRECORD
  5
4F
102
{ACAD_REACTORS
330
36
102
}
330
36
100
AcDbXrecord
280
     1
  1
009
  1
*009
  1
*
  1
*
 70
     0
  1
*
  1
*
  0
XRECORD
  5
50
102
{ACAD_REACTORS
330
36
102
}
330
36
100
AcDbXrecord
280
     1
  1
00_
  1
00_*
  1
*
  1
*
 70
     0
  1
*
  1
*
  0
XRECORD
  5
51
102
{ACAD_REACTORS
330
36
102
}
330
36
100
AcDbXrecord
280
     1
  1
01
  1
*01*
  1
*
  1
*
 70
     0
  1
*
  1
*
  0
XRECORD
  5
52
102
{ACAD_REACTORS
330
36
102
}
330
36
100
AcDbXrecord
280
     1
  1
013
  1
*013
  1
*
  1
*
 70
     0
  1
*
  1
*
  0
XRECORD
  5
53
102
{ACAD_REACTORS
330
36
102
}
330
36
100
AcDbXrecord
280
     1
  1
018
  1
*018
  1
*
  1
*
 70
     0
  1
*
  1
*
  0
XRECORD
  5
54
102
{ACAD_REACTORS
330
36
102
}
330
36
100
AcDbXrecord
280
     1
  1
02
  1
*02*
  1
*
  1
*
 70
     0
  1
*
  1
*
  0
XRECORD
  5
55
102
{ACAD_REACTORS
330
36
102
}
330
36
100
AcDbXrecord
280
     1
  1
025
  1
*025
  1
*
  1
*
 70
     0
  1
*
  1
*
  0
XRECORD
  5
56
102
{ACAD_REACTORS
330
36
102
}
330
36
100
AcDbXrecord
280
     1
  1
030
  1
a03*
  1
*
  1
*
 70
     0
  1
*
  1
*
  0
XRECORD
  5
57
102
{ACAD_REACTORS
330
36
102
}
330
36
100
AcDbXrecord
280
     1
  1
032
  1
*032*
  1
*
  1
*
 70
     0
  1
*
  1
*
  0
XRECORD
  5
58
102
{ACAD_REACTORS
330
36
102
}
330
36
100
AcDbXrecord
280
     1
  1
032G
  1
*032G*
  1
*
  1
*
 70
     0
  1
*
  1
*
  0
XRECORD
  5
59
102
{ACAD_REACTORS
330
36
102
}
330
36
100
AcDbXrecord
280
     1
  1
035
  1
*035
  1
*
  1
*
 70
     0
  1
*
  1
*
  0
XRECORD
  5
5A
102
{ACAD_REACTORS
330
36
102
}
330
36
100
AcDbXrecord
280
     1
  1
050
  1
*050
  1
*
  1
*
 70
     0
  1
*
  1
*
  0
XRECORD
  5
5B
102
{ACAD_REACTORS
330
36
102
}
330
36
100
AcDbXrecord
280
     1
  1
070
  1
*070
  1
*
  1
*
 70
     0
  1
*
  1
*
  0
XRECORD
  5
5C
102
{ACAD_REACTORS
330
36
102
}
330
36
100
AcDbXrecord
280
     1
  1
0_
  1
0_*
  1
*
  1
*
 70
     0
  1
*
  1
*
  0
XRECORD
  5
5D
102
{ACAD_REACTORS
330
36
102
}
330
36
100
AcDbXrecord
280
     1
  1
0aikstas
  1
*0a*,ASYS,*Tar*
  1
*
  1
*
 70
     0
  1
*
  1
*
  0
XRECORD
  5
5E
102
{ACAD_REACTORS
330
36
102
}
330
36
100
AcDbXrecord
280
     1
  1
0k
  1
0k*
  1
*
  1
*
 70
     0
  1
*
  1
*
  0
XRECORD
  5
5F
102
{ACAD_REACTORS
330
36
102
}
330
36
100
AcDbXrecord
280
     1
  1
0korrus
  1
0k *
  1
*
  1
*
 70
     0
  1
*
  1
*
  0
XRECORD
  5
60
102
{ACAD_REACTORS
330
36
102
}
330
36
100
AcDbXrecord
280
     1
  1
1
  1
1aPlonos,1aSiena
  1
*
  1
*
 70
     0
  1
*
  1
*
  0
XRECORD
  5
61
102
{ACAD_REACTORS
330
36
102
}
330
36
100
AcDbXrecord
280
     1
  1
1 GA
  1
??????_G??????
  1
*
  1
*
 70
     0
  1
*
  1
*
  0
XRECORD
  5
62
102
{ACAD_REACTORS
330
36
102
}
330
36
100
AcDbXrecord
280
     1
  1
1 korrus
  1
0k *
  1
*
  1
*
 70
  3415
  1
*
  1
*
  0
XRECORD
  5
63
102
{ACAD_REACTORS
330
36
102
}
330
36
100
AcDbXrecord
280
     1
  1
1-
  1
elec
  1
*
  1
*
 70
     0
  1
*
  1
*
  0
XRECORD
  5
64
102
{ACAD_REACTORS
330
36
102
}
330
36
100
AcDbXrecord
280
     1
  1
100
  1
*
  1
*
  1
*
 70
     0
  1
*
  1
*
  0
XRECORD
  5
65
102
{ACAD_REACTORS
330
36
102
}
330
36
100
AcDbXrecord
280
     1
  1
120
  1
*|*
  1
*
  1
*
 70
     0
  1
*
  1
*
  0
XRECORD
  5
66
102
{ACAD_REACTORS
330
36
102
}
330
36
100
AcDbXrecord
280
     1
  1
121
  1
*
  1
*
  1
*
 70
    16
  1
*
  1
*
  0
XRECORD
  5
67
102
{ACAD_REACTORS
330
36
102
}
330
36
100
AcDbXrecord
280
     1
  1
1343
  1
1343-*
  1
*
  1
*
 70
     0
  1
*
  1
*
  0
XRECORD
  5
68
102
{ACAD_REACTORS
330
36
102
}
330
36
100
AcDbXrecord
280
     1
  1
1784
  1
1784*
  1
*
  1
*
 70
     0
  1
*
  1
*
  0
XRECORD
  5
69
102
{ACAD_REACTORS
330
36
102
}
330
36
100
AcDbXrecord
280
     1
  1
1784frst
  1
*
  1
*
  1
*
 70
     0
  1
*
  1
*
  0
XRECORD
  5
6A
102
{ACAD_REACTORS
330
36
102
}
330
36
100
AcDbXrecord
280
     1
  1
1784frst$0$
  1
1784frst$0$*
  1
*
  1
*
 70
     0
  1
*
  1
*
  0
XRECORD
  5
6B
102
{ACAD_REACTORS
330
36
102
}
330
36
100
AcDbXrecord
280
     1
  1
1784sec5
  1
1784sec5*
  1
*
  1
*
 70
     0
  1
*
  1
*
  0
XRECORD
  5
6C
102
{ACAD_REACTORS
330
36
102
}
330
36
100
AcDbXrecord
280
     1
  1
1947
  1
1947*
  1
*
  1
*
 70
     0
  1
*
  1
*
  0
XRECORD
  5
6D
102
{ACAD_REACTORS
330
36
102
}
330
36
100
AcDbXrecord
280
     1
  1
1aukstas
  1
*1a*,ASYS,*Tar*
  1
*
  1
*
 70
     0
  1
*
  1
*
  0
XRECORD
  5
6E
102
{ACAD_REACTORS
330
36
102
}
330
36
100
AcDbXrecord
280
     1
  1
1GRID
  1
*
  1
*
  1
*
 70
    16
  1
*
  1
*
  0
XRECORD
  5
6F
102
{ACAD_REACTORS
330
36
102
}
330
36
100
AcDbXrecord
280
     1
  1
1k
  1
1k*
  1
*
  1
*
 70
     0
  1
*
  1
*
  0
XRECORD
  5
70
102
{ACAD_REACTORS
330
36
102
}
330
36
100
AcDbXrecord
280
     1
  1
1korrus
  1
1k*
  1
*
  1
*
 70
     0
  1
*
  1
*
  0
XRECORD
  5
71
102
{ACAD_REACTORS
330
36
102
}
330
36
100
AcDbXrecord
280
     1
  1
1puse
  1
1_6*
  1
*
  1
*
 70
     0
  1
*
  1
*
  0
XRECORD
  5
72
102
{ACAD_REACTORS
330
36
102
}
330
36
100
AcDbXrecord
280
     1
  1
1V
  1
*
  1
*
  1
*
 70
     4
  1
*
  1
*
  0
XRECORD
  5
73
102
{ACAD_REACTORS
330
36
102
}
330
36
100
AcDbXrecord
280
     1
  1
2
  1
2*
  1
*
  1
*
 70
     0
  1
*
  1
*
  0
XRECORD
  5
74
102
{ACAD_REACTORS
330
36
102
}
330
36
100
AcDbXrecord
280
     1
  1
2 KORRUS
  1
2K *
  1
*
  1
*
 70
     0
  1
*
  1
*
  0
XRECORD
  5
75
102
{ACAD_REACTORS
330
36
102
}
330
36
100
AcDbXrecord
280
     1
  1
2 SPACE PLAN
  1
??????_?S?????
  1
*
  1
*
 70
     0
  1
*
  1
*
  0
XRECORD
  5
76
102
{ACAD_REACTORS
330
36
102
}
330
36
100
AcDbXrecord
280
     1
  1
200
  1
*
  1
*
  1
*
 70
    16
  1
*
  1
*
  0
XRECORD
  5
77
102
{ACAD_REACTORS
330
36
102
}
330
36
100
AcDbXrecord
280
     1
  1
218
  1
*218*
  1
*
  1
*
 70
     0
  1
*
  1
*
  0
XRECORD
  5
78
102
{ACAD_REACTORS
330
36
102
}
330
36
100
AcDbXrecord
280
     1
  1
220g
  1
*220*
  1
*
  1
*
 70
     0
  1
*
  1
*
  0
XRECORD
  5
79
102
{ACAD_REACTORS
330
36
102
}
330
36
100
AcDbXrecord
280
     1
  1
250
  1
*
  1
*
  1
*
 70
    16
  1
*
  1
*
  0
XRECORD
  5
7A
102
{ACAD_REACTORS
330
36
102
}
330
36
100
AcDbXrecord
280
     1
  1
2AUKSTAS
  1
*2a*,ASYS,*Tar*
  1
*
  1
*
 70
     0
  1
*
  1
*
  0
XRECORD
  5
7B
102
{ACAD_REACTORS
330
36
102
}
330
36
100
AcDbXrecord
280
     1
  1
2d
  1
*
  1
*
  1
*
 70
  3072
  1
*
  1
*
  0
XRECORD
  5
7C
102
{ACAD_REACTORS
330
36
102
}
330
36
100
AcDbXrecord
280
     1
  1
2DPLAN
  1
2D*
  1
*
  1
*
 70
     0
  1
*
  1
*
  0
XRECORD
  5
7D
102
{ACAD_REACTORS
330
36
102
}
330
36
100
AcDbXrecord
280
     1
  1
2k
  1
2k*
  1
*
  1
*
 70
     0
  1
*
  1
*
  0
XRECORD
  5
7E
102
{ACAD_REACTORS
330
36
102
}
330
36
100
AcDbXrecord
280
     1
  1
2puse
  1
11*
  1
*
  1
*
 70
     0
  1
*
  1
*
  0
XRECORD
  5
7F
102
{ACAD_REACTORS
330
36
102
}
330
36
100
AcDbXrecord
280
     1
  1
3 CEILING
  1
??????_??C????
  1
*
  1
*
 70
     0
  1
*
  1
*
  0
XRECORD
  5
80
102
{ACAD_REACTORS
330
36
102
}
330
36
100
AcDbXrecord
280
     1
  1
300
  1
*
  1
*
  1
*
 70
    16
  1
*
  1
*
  0
XRECORD
  5
81
102
{ACAD_REACTORS
330
36
102
}
330
36
100
AcDbXrecord
280
     1
  1
300-1
  1
*
  1
*
  1
*
 70
    16
  1
*
  1
*
  0
XRECORD
  5
82
102
{ACAD_REACTORS
330
36
102
}
330
36
100
AcDbXrecord
280
     1
  1
3845-000
  1
22-external-walls----------------------------------------
  1
*
  1
*
 70
     1
  1
*
  1
*
  0
XRECORD
  5
83
102
{ACAD_REACTORS
330
36
102
}
330
36
100
AcDbXrecord
280
     1
  1
4
  1
*521*
  1
*
  1
*
 70
     0
  1
*
  1
*
  0
XRECORD
  5
84
102
{ACAD_REACTORS
330
36
102
}
330
36
100
AcDbXrecord
280
     1
  1
4 ELECTRIC
  1
??????_???E???
  1
*
  1
*
 70
     0
  1
*
  1
*
  0
XRECORD
  5
85
102
{ACAD_REACTORS
330
36
102
}
330
36
100
AcDbXrecord
280
     1
  1
4021
  1
4021*
  1
*
  1
*
 70
     0
  1
*
  1
*
  0
XRECORD
  5
86
102
{ACAD_REACTORS
330
36
102
}
330
36
100
AcDbXrecord
280
     1
  1
5 DEMO
  1
??????_????D??
  1
*
  1
*
 70
     0
  1
*
  1
*
  0
XRECORD
  5
87
102
{ACAD_REACTORS
330
36
102
}
330
36
100
AcDbXrecord
280
     1
  1
6 LAYER 1
  1
??????_?????1?
  1
*
  1
*
 70
     0
  1
*
  1
*
  0
XRECORD
  5
88
102
{ACAD_REACTORS
330
36
102
}
330
36
100
AcDbXrecord
280
     1
  1
7 LAYER 2
  1
??????_??????2
  1
*
  1
*
 70
     0
  1
*
  1
*
  0
XRECORD
  5
89
102
{ACAD_REACTORS
330
36
102
}
330
36
100
AcDbXrecord
280
     1
  1
720
  1
*720g*
  1
*
  1
*
 70
     0
  1
*
  1
*
  0
XRECORD
  5
8A
102
{ACAD_REACTORS
330
36
102
}
330
36
100
AcDbXrecord
280
     1
  1
720g
  1
*720*
  1
*
  1
*
 70
     0
  1
*
  1
*
  0
XRECORD
  5
8B
102
{ACAD_REACTORS
330
36
102
}
330
36
100
AcDbXrecord
280
     1
  1
8
  1
*
  1
8
  1
*
 70
     0
  1
*
  1
*
  0
XRECORD
  5
8C
102
{ACAD_REACTORS
330
36
102
}
330
36
100
AcDbXrecord
280
     1
  1
9
  1
*
  1
9
  1
*
 70
     0
  1
*
  1
*
  0
XRECORD
  5
8D
102
{ACAD_REACTORS
330
36
102
}
330
36
100
AcDbXrecord
280
     1
  1
96
  1
*96
  1
*
  1
*
 70
     0
  1
*
  1
*
  0
XRECORD
  5
8E
102
{ACAD_REACTORS
330
36
102
}
330
36
100
AcDbXrecord
280
     1
  1
_4021
  1
*4021*
  1
*
  1
*
 70
     0
  1
*
  1
*
  0
XRECORD
  5
8F
102
{ACAD_REACTORS
330
36
102
}
330
36
100
AcDbXrecord
280
     1
  1
__E1
  1
*E1*
  1
*
  1
*
 70
     0
  1
*
  1
*
  0
XRECORD
  5
90
102
{ACAD_REACTORS
330
36
102
}
330
36
100
AcDbXrecord
280
     1
  1
__E2
  1
*E2*
  1
*
  1
*
 70
     0
  1
*
  1
*
  0
XRECORD
  5
91
102
{ACAD_REACTORS
330
36
102
}
330
36
100
AcDbXrecord
280
     1
  1
__E3
  1
*E3*
  1
*
  1
*
 70
     0
  1
*
  1
*
  0
XRECORD
  5
92
102
{ACAD_REACTORS
330
36
102
}
330
36
100
AcDbXrecord
280
     1
  1
__E6
  1
*E6*
  1
*
  1
*
 70
     0
  1
*
  1
*
  0
XRECORD
  5
93
102
{ACAD_REACTORS
330
36
102
}
330
36
100
AcDbXrecord
280
     1
  1
_all
  1
*
  1
*
  1
*
 70
     0
  1
*
  1
*
  0
XRECORD
  5
94
102
{ACAD_REACTORS
330
36
102
}
330
36
100
AcDbXrecord
280
     1
  1
_arch
  1
A-*
  1
*
  1
*
 70
     0
  1
*
  1
*
  0
XRECORD
  5
95
102
{ACAD_REACTORS
330
36
102
}
330
36
100
AcDbXrecord
280
     1
  1
_AXIS
  1
*axis*
  1
*
  1
*
 70
     0
  1
*
  1
*
  0
XRECORD
  5
96
102
{ACAD_REACTORS
330
36
102
}
330
36
100
AcDbXrecord
280
     1
  1
_BORT
  1
BORT*
  1
*
  1
*
 70
     0
  1
*
  1
*
  0
XRECORD
  5
97
102
{ACAD_REACTORS
330
36
102
}
330
36
100
AcDbXrecord
280
     1
  1
_BR
  1
*br*
  1
*
  1
*
 70
     0
  1
*
  1
*
  0
XRECORD
  5
98
102
{ACAD_REACTORS
330
36
102
}
330
36
100
AcDbXrecord
280
     1
  1
_Building 3
  1
*bld3*
  1
*
  1
*
 70
     0
  1
*
  1
*
  0
XRECORD
  5
99
102
{ACAD_REACTORS
330
36
102
}
330
36
100
AcDbXrecord
280
     1
  1
_color6
  1
*
  1
6
  1
*
 70
     0
  1
*
  1
*
  0
XRECORD
  5
9A
102
{ACAD_REACTORS
330
36
102
}
330
36
100
AcDbXrecord
280
     1
  1
_DIM
  1
*dim*
  1
*
  1
*
 70
     0
  1
*
  1
*
  0
XRECORD
  5
9B
102
{ACAD_REACTORS
330
36
102
}
330
36
100
AcDbXrecord
280
     1
  1
_External Works
  1
*o-*
  1
*
  1
*
 70
     0
  1
*
  1
*
  0
XRECORD
  5
9C
102
{ACAD_REACTORS
330
36
102
}
330
36
100
AcDbXrecord
280
     1
  1
_first
  1
*01*
  1
*
  1
*
 70
     0
  1
*
  1
*
  0
XRECORD
  5
9D
102
{ACAD_REACTORS
330
36
102
}
330
36
100
AcDbXrecord
280
     1
  1
_First Floor
  1
*01*
  1
*
  1
*
 70
     0
  1
*
  1
*
  0
XRECORD
  5
9E
102
{ACAD_REACTORS
330
36
102
}
330
36
100
AcDbXrecord
280
     1
  1
_ground
  1
*00*
  1
*
  1
*
 70
     0
  1
*
  1
*
  0
XRECORD
  5
9F
102
{ACAD_REACTORS
330
36
102
}
330
36
100
AcDbXrecord
280
     1
  1
_Ground Floor
  1
*-00*
  1
*
  1
*
 70
     0
  1
*
  1
*
  0
XRECORD
  5
A0
102
{ACAD_REACTORS
330
36
102
}
330
36
100
AcDbXrecord
280
     1
  1
_h
  1
*_H
  1
*
  1
*
 70
     0
  1
*
  1
*
  0
XRECORD
  5
A1
102
{ACAD_REACTORS
330
36
102
}
330
36
100
AcDbXrecord
280
     1
  1
_Hatching
  1
*hat*
  1
*
  1
*
 70
     0
  1
*
  1
*
  0
XRECORD
  5
A2
102
{ACAD_REACTORS
330
36
102
}
330
36
100
AcDbXrecord
280
     1
  1
_KOORD
  1
*koord*
  1
*
  1
*
 70
     0
  1
*
  1
*
  0
XRECORD
  5
A3
102
{ACAD_REACTORS
330
36
102
}
330
36
100
AcDbXrecord
280
     1
  1
_New
  1
*-N
  1
*
  1
*
 70
     0
  1
*
  1
*
  0
XRECORD
  5
A4
102
{ACAD_REACTORS
330
36
102
}
330
36
100
AcDbXrecord
280
     1
  1
_OP
  1
*op*
  1
*
  1
*
 70
     0
  1
*
  1
*
  0
XRECORD
  5
A5
102
{ACAD_REACTORS
330
36
102
}
330
36
100
AcDbXrecord
280
     1
  1
_OP14
  1
*op14*
  1
*
  1
*
 70
     0
  1
*
  1
*
  0
XRECORD
  5
A6
102
{ACAD_REACTORS
330
36
102
}
330
36
100
AcDbXrecord
280
     1
  1
_OP15
  1
*op15*
  1
*
  1
*
 70
     0
  1
*
  1
*
  0
XRECORD
  5
A7
102
{ACAD_REACTORS
330
36
102
}
330
36
100
AcDbXrecord
280
     1
  1
_OP6
  1
*op6*
  1
*
  1
*
 70
     0
  1
*
  1
*
  0
XRECORD
  5
A8
102
{ACAD_REACTORS
330
36
102
}
330
36
100
AcDbXrecord
280
     1
  1
_PARK
  1
*PARK*
  1
*
  1
*
 70
     0
  1
*
  1
*
  0
XRECORD
  5
A9
102
{ACAD_REACTORS
330
36
102
}
330
36
100
AcDbXrecord
280
     1
  1
_PARK4
  1
*PARK4*
  1
*
  1
*
 70
     0
  1
*
  1
*
  0
XRECORD
  5
AA
102
{ACAD_REACTORS
330
36
102
}
330
36
100
AcDbXrecord
280
     1
  1
_PIKET
  1
*piket*
  1
*
  1
*
 70
     0
  1
*
  1
*
  0
XRECORD
  5
AB
102
{ACAD_REACTORS
330
36
102
}
330
36
100
AcDbXrecord
280
     1
  1
_PS
  1
*ps*
  1
*
  1
*
 70
     0
  1
*
  1
*
  0
XRECORD
  5
AC
102
{ACAD_REACTORS
330
36
102
}
330
36
100
AcDbXrecord
280
     1
  1
_Removed
  1
*Rem*
  1
*
  1
*
 70
     0
  1
*
  1
*
  0
XRECORD
  5
AD
102
{ACAD_REACTORS
330
36
102
}
330
36
100
AcDbXrecord
280
     1
  1
_roof
  1
*roof*
  1
*
  1
*
 70
     0
  1
*
  1
*
  0
XRECORD
  5
AE
102
{ACAD_REACTORS
330
36
102
}
330
36
100
AcDbXrecord
280
     1
  1
_SECTION
  1
*sec*
  1
*
  1
*
 70
     0
  1
*
  1
*
  0
XRECORD
  5
AF
102
{ACAD_REACTORS
330
36
102
}
330
36
100
AcDbXrecord
280
     1
  1
_SOL
  1
*SOL*
  1
*
  1
*
 70
     0
  1
*
  1
*
  0
XRECORD
  5
B0
102
{ACAD_REACTORS
330
36
102
}
330
36
100
AcDbXrecord
280
     1
  1
_SUP
  1
*sup*
  1
*
  1
*
 70
     0
  1
*
  1
*
  0
XRECORD
  5
B1
102
{ACAD_REACTORS
330
36
102
}
330
36
100
AcDbXrecord
280
     1
  1
_Text
  1
*Text*
  1
*
  1
*
 70
     0
  1
*
  1
*
  0
XRECORD
  5
B2
102
{ACAD_REACTORS
330
36
102
}
330
36
100
AcDbXrecord
280
     1
  1
_WIN
  1
*win*
  1
*
  1
*
 70
     0
  1
*
  1
*
  0
XRECORD
  5
B3
102
{ACAD_REACTORS
330
36
102
}
330
36
100
AcDbXrecord
280
     1
  1
_Without text
  1
*text*
  1
*
  1
*
 70
     0
  1
*
  1
*
  0
XRECORD
  5
B4
102
{ACAD_REACTORS
330
36
102
}
330
36
100
AcDbXrecord
280
     1
  1
A
  1
DETAL*
  1
*
  1
*
 70
     0
  1
*
  1
*
  0
XRECORD
  5
B5
102
{ACAD_REACTORS
330
36
102
}
330
36
100
AcDbXrecord
280
     1
  1
A layers
  1
A*
  1
*
  1
*
 70
     0
  1
*
  1
*
  0
XRECORD
  5
B6
102
{ACAD_REACTORS
330
36
102
}
330
36
100
AcDbXrecord
280
     1
  1
a-
  1
a-*
  1
*
  1
*
 70
     0
  1
*
  1
*
  0
XRECORD
  5
B7
102
{ACAD_REACTORS
330
36
102
}
330
36
100
AcDbXrecord
280
     1
  1
A-12101
  1
*
  1
*
  1
*
 70
    13
  1
*
  1
*
  0
XRECORD
  5
B8
102
{ACAD_REACTORS
330
36
102
}
330
36
100
AcDbXrecord
280
     1
  1
A0-FRAME
  1
A0*
  1
*
  1
*
 70
     0
  1
*
  1
*
  0
XRECORD
  5
B9
102
{ACAD_REACTORS
330
36
102
}
330
36
100
AcDbXrecord
280
     1
  1
A000D
  1
A000D*
  1
*
  1
*
 70
     0
  1
*
  1
*
  0
XRECORD
  5
BA
102
{ACAD_REACTORS
330
36
102
}
330
36
100
AcDbXrecord
280
     1
  1
A032G
  1
*a032G
  1
*
  1
*
 70
     0
  1
*
  1
*
  0
XRECORD
  5
BB
102
{ACAD_REACTORS
330
36
102
}
330
36
100
AcDbXrecord
280
     1
  1
a2
  1
a2*
  1
*
  1
*
 70
     0
  1
*
  1
*
  0
XRECORD
  5
BC
102
{ACAD_REACTORS
330
36
102
}
330
36
100
AcDbXrecord
280
     1
  1
a210h
  1
*a210h
  1
*
  1
*
 70
     0
  1
*
  1
*
  0
XRECORD
  5
BD
102
{ACAD_REACTORS
330
36
102
}
330
36
100
AcDbXrecord
280
     1
  1
a210h-50
  1
*a210h-50
  1
*
  1
*
 70
     0
  1
*
  1
*
  0
XRECORD
  5
BE
102
{ACAD_REACTORS
330
36
102
}
330
36
100
AcDbXrecord
280
     1
  1
a3
  1
a3*
  1
*
  1
*
 70
     0
  1
*
  1
*
  0
XRECORD
  5
BF
102
{ACAD_REACTORS
330
36
102
}
330
36
100
AcDbXrecord
280
     1
  1
a9
  1
a9*
  1
*
  1
*
 70
     0
  1
*
  1
*
  0
XRECORD
  5
C0
102
{ACAD_REACTORS
330
36
102
}
330
36
100
AcDbXrecord
280
     1
  1
AA
  1
AKS,M2AKS
  1
*
  1
*
 70
     0
  1
*
  1
*
  0
XRECORD
  5
C1
102
{ACAD_REACTORS
330
36
102
}
330
36
100
AcDbXrecord
280
     1
  1
aadressid
  1
aadr*
  1
*
  1
*
 70
     0
  1
*
  1
*
  0
XRECORD
  5
C2
102
{ACAD_REACTORS
330
36
102
}
330
36
100
AcDbXrecord
280
     1
  1
adler
  1
aadler*,xre*
  1
*
  1
*
 70
     0
  1
*
  1
*
  0
XRECORD
  5
C3
102
{ACAD_REACTORS
330
36
102
}
330
36
100
AcDbXrecord
280
     1
  1
AJUTINE
  1
AJUTINE *
  1
*
  1
*
 70
     0
  1
*
  1
*
  0
XRECORD
  5
C4
102
{ACAD_REACTORS
330
36
102
}
330
36
100
AcDbXrecord
280
     1
  1
ALEV07
  1
ALEV07*
  1
*
  1
*
 70
     0
  1
*
  1
*
  0
XRECORD
  5
C5
102
{ACAD_REACTORS
330
36
102
}
330
36
100
AcDbXrecord
280
     1
  1
ALL
  1
*
  1
*
  1
*
 70
     0
  1
*
  1
*
  0
XRECORD
  5
C6
102
{ACAD_REACTORS
330
36
102
}
330
36
100
AcDbXrecord
280
     1
  1
all on
  1
*
  1
*
  1
*
 70
     1
  1
*
  1
*
  0
XRECORD
  5
C7
102
{ACAD_REACTORS
330
36
102
}
330
36
100
AcDbXrecord
280
     1
  1
alles met_
  1
*_*
  1
*
  1
*
 70
     0
  1
*
  1
*
  0
XRECORD
  5
C8
102
{ACAD_REACTORS
330
36
102
}
330
36
100
AcDbXrecord
280
     1
  1
ALLTEXT
  1
*T*
  1
*
  1
*
 70
     0
  1
*
  1
*
  0
XRECORD
  5
C9
102
{ACAD_REACTORS
330
36
102
}
330
36
100
AcDbXrecord
280
     1
  1
ANGARS
  1
*ASIS
  1
*
  1
*
 70
     0
  1
*
  1
*
  0
XRECORD
  5
CA
102
{ACAD_REACTORS
330
36
102
}
330
36
100
AcDbXrecord
280
     1
  1
Antras
  1
2*
  1
*
  1
*
 70
  1024
  1
*
  1
*
  0
XRECORD
  5
CB
102
{ACAD_REACTORS
330
36
102
}
330
36
100
AcDbXrecord
280
     1
  1
AR
  1
*
  1
*
  1
*
 70
     0
  1
*
  1
*
  0
XRECORD
  5
CC
102
{ACAD_REACTORS
330
36
102
}
330
36
100
AcDbXrecord
280
     1
  1
ar_bwl
  1
*
  1
*
  1
*
 70
     3
  1
*
  1
*
  0
XRECORD
  5
CD
102
{ACAD_REACTORS
330
36
102
}
330
36
100
AcDbXrecord
280
     1
  1
ar_grd
  1
*
  1
*
  1
*
 70
     3
  1
*
  1
*
  0
XRECORD
  5
CE
102
{ACAD_REACTORS
330
36
102
}
330
36
100
AcDbXrecord
280
     1
  1
AR_GRID
  1
*
  1
*
  1
*
 70
     3
  1
*
  1
*
  0
XRECORD
  5
CF
102
{ACAD_REACTORS
330
36
102
}
330
36
100
AcDbXrecord
280
     1
  1
arch
  1
ar*
  1
*
  1
*
 70
     0
  1
*
  1
*
  0
XRECORD
  5
D0
102
{ACAD_REACTORS
330
36
102
}
330
36
100
AcDbXrecord
280
     1
  1
Architecture
  1
A*
  1
*
  1
*
 70
     0
  1
*
  1
*
  0
XRECORD
  5
D1
102
{ACAD_REACTORS
330
36
102
}
330
36
100
AcDbXrecord
280
     1
  1
AREA
  1
*AREA*
  1
*
  1
*
 70
     0
  1
*
  1
*
  0
XRECORD
  5
D2
102
{ACAD_REACTORS
330
36
102
}
330
36
100
AcDbXrecord
280
     1
  1
Arhitecture
  1
a*
  1
*
  1
*
 70
     0
  1
*
  1
*
  0
XRECORD
  5
D3
102
{ACAD_REACTORS
330
36
102
}
330
36
100
AcDbXrecord
280
     1
  1
ARM
  1
*ARM*
  1
*
  1
*
 70
     0
  1
*
  1
*
  0
XRECORD
  5
D4
102
{ACAD_REACTORS
330
36
102
}
330
36
100
AcDbXrecord
280
     1
  1
as
  1
as*
  1
*
  1
*
 70
     0
  1
*
  1
*
  0
XRECORD
  5
D5
102
{ACAD_REACTORS
330
36
102
}
330
36
100
AcDbXrecord
280
     1
  1
Asend
  1
*
  1
*
  1
*
 70
     0
  1
*
  1
*
  0
XRECORD
  5
D6
102
{ACAD_REACTORS
330
36
102
}
330
36
100
AcDbXrecord
280
     1
  1
asendiplaan
  1
as*
  1
*
  1
*
 70
     0
  1
*
  1
*
  0
XRECORD
  5
D7
102
{ACAD_REACTORS
330
36
102
}
330
36
100
AcDbXrecord
280
     1
  1
AUDITORIA
  1
AUD*
  1
*
  1
*
 70
     0
  1
*
  1
*
  0
XRECORD
  5
D8
102
{ACAD_REACTORS
330
36
102
}
330
36
100
AcDbXrecord
280
     1
  1
ax
  1
a*
  1
*
  1
*
 70
  3072
  1
*
  1
*
  0
XRECORD
  5
D9
102
{ACAD_REACTORS
330
36
102
}
330
36
100
AcDbXrecord
280
     1
  1
B
  1
*B
  1
*
  1
*
 70
     0
  1
*
  1
*
  0
XRECORD
  5
DA
102
{ACAD_REACTORS
330
36
102
}
330
36
100
AcDbXrecord
280
     1
  1
BACK BAR
  1
BACK*
  1
*
  1
*
 70
     0
  1
*
  1
*
  0
XRECORD
  5
DB
102
{ACAD_REACTORS
330
36
102
}
330
36
100
AcDbXrecord
280
     1
  1
BACKBAR
  1
BACKBAR*,2D*
  1
*
  1
*
 70
     0
  1
*
  1
*
  0
XRECORD
  5
DC
102
{ACAD_REACTORS
330
36
102
}
330
36
100
AcDbXrecord
280
     1
  1
BANQ'S
  1
BANQ*
  1
*
  1
*
 70
     0
  1
*
  1
*
  0
XRECORD
  5
DD
102
{ACAD_REACTORS
330
36
102
}
330
36
100
AcDbXrecord
280
     1
  1
BAR
  1
BAR*
  1
*
  1
*
 70
     0
  1
*
  1
*
  0
XRECORD
  5
DE
102
{ACAD_REACTORS
330
36
102
}
330
36
100
AcDbXrecord
280
     1
  1
bar-top
  1
*
  1
*
  1
*
 70
    16
  1
*
  1
*
  0
XRECORD
  5
DF
102
{ACAD_REACTORS
330
36
102
}
330
36
100
AcDbXrecord
280
     1
  1
bb
  1
rogarpissu,block
  1
*
  1
*
 70
     0
  1
*
  1
*
  0
XRECORD
  5
E0
102
{ACAD_REACTORS
330
36
102
}
330
36
100
AcDbXrecord
280
     1
  1
BDPF5R
  1
*BDPF*5*
  1
*
  1
*
 70
     0
  1
*
  1
*
  0
XRECORD
  5
E1
102
{ACAD_REACTORS
330
36
102
}
330
36
100
AcDbXrecord
280
     1
  1
BENCH
  1
BENCH*
  1
*
  1
*
 70
     0
  1
*
  1
*
  0
XRECORD
  5
E2
102
{ACAD_REACTORS
330
36
102
}
330
36
100
AcDbXrecord
280
     1
  1
BHWB
  1
*
  1
*
  1
*
 70
     0
  1
*
  1
*
  0
XRECORD
  5
E3
102
{ACAD_REACTORS
330
36
102
}
330
36
100
AcDbXrecord
280
     1
  1
blue
  1
*
  1
blue
  1
*
 70
     0
  1
*
  1
*
  0
XRECORD
  5
E4
102
{ACAD_REACTORS
330
36
102
}
330
36
100
AcDbXrecord
280
     1
  1
BOUNARY
  1
*BOUND*
  1
*
  1
*
 70
     0
  1
*
  1
*
  0
XRECORD
  5
E5
102
{ACAD_REACTORS
330
36
102
}
330
36
100
AcDbXrecord
280
     1
  1
BOUNDARY
  1
*
  1
*
  1
*
 70
    16
  1
*
  1
*
  0
XRECORD
  5
E6
102
{ACAD_REACTORS
330
36
102
}
330
36
100
AcDbXrecord
280
     1
  1
boundry-of
  1
*boundry
  1
*
  1
*
 70
     0
  1
*
  1
*
  0
XRECORD
  5
E7
102
{ACAD_REACTORS
330
36
102
}
330
36
100
AcDbXrecord
280
     1
  1
BUILDERS WORK
  1
*
  1
*
  1
*
 70
    16
  1
*
  1
*
  0
XRECORD
  5
E8
102
{ACAD_REACTORS
330
36
102
}
330
36
100
AcDbXrecord
280
     1
  1
BUILDERS-WORK
  1
*
  1
*
  1
*
 70
    16
  1
*
  1
*
  0
XRECORD
  5
E9
102
{ACAD_REACTORS
330
36
102
}
330
36
100
AcDbXrecord
280
     1
  1
BULKHEAD
  1
*BULKHEAD*
  1
*
  1
*
 70
     0
  1
*
  1
*
  0
XRECORD
  5
EA
102
{ACAD_REACTORS
330
36
102
}
330
36
100
AcDbXrecord
280
     1
  1
BV-LEASE
  1
*
  1
*
  1
*
 70
     0
  1
*
  1
*
  0
XRECORD
  5
EB
102
{ACAD_REACTORS
330
36
102
}
330
36
100
AcDbXrecord
280
     1
  1
bw
  1
a213*
  1
*
  1
*
 70
     0
  1
*
  1
*
  0
XRECORD
  5
EC
102
{ACAD_REACTORS
330
36
102
}
330
36
100
AcDbXrecord
280
     1
  1
bzik
  1
*
  1
*
  1
*
 70
   768
  1
*
  1
*
  0
XRECORD
  5
ED
102
{ACAD_REACTORS
330
36
102
}
330
36
100
AcDbXrecord
280
     1
  1
c
  1
c-*
  1
*
  1
*
 70
     0
  1
*
  1
*
  0
XRECORD
  5
EE
102
{ACAD_REACTORS
330
36
102
}
330
36
100
AcDbXrecord
280
     1
  1
C-
  1
C-*
  1
*
  1
*
 70
     0
  1
*
  1
*
  0
XRECORD
  5
EF
102
{ACAD_REACTORS
330
36
102
}
330
36
100
AcDbXrecord
280
     1
  1
C1
  1
*C1*
  1
*
  1
*
 70
     0
  1
*
  1
*
  0
XRECORD
  5
F0
102
{ACAD_REACTORS
330
36
102
}
330
36
100
AcDbXrecord
280
     1
  1
CANOPY
  1
CANOPY*
  1
*
  1
*
 70
     0
  1
*
  1
*
  0
XRECORD
  5
F1
102
{ACAD_REACTORS
330
36
102
}
330
36
100
AcDbXrecord
280
     1
  1
CART
  1
*CART*
  1
*
  1
*
 70
     0
  1
*
  1
*
  0
XRECORD
  5
F2
102
{ACAD_REACTORS
330
36
102
}
330
36
100
AcDbXrecord
280
     1
  1
CC
  1
*
  1
*
  1
*
 70
     1
  1
*
  1
*
  0
XRECORD
  5
F3
102
{ACAD_REACTORS
330
36
102
}
330
36
100
AcDbXrecord
280
     1
  1
Ceiling
  1
*clg*
  1
*
  1
*
 70
     0
  1
*
  1
*
  0
XRECORD
  5
F4
102
{ACAD_REACTORS
330
36
102
}
330
36
100
AcDbXrecord
280
     1
  1
CEILING LAYOUT
  1
A-CLG-*
  1
*
  1
*
 70
     0
  1
*
  1
*
  0
XRECORD
  5
F5
102
{ACAD_REACTORS
330
36
102
}
330
36
100
AcDbXrecord
280
     1
  1
CEILING PLAN
  1
*
  1
*
  1
*
 70
    16
  1
*
  1
*
  0
XRECORD
  5
F6
102
{ACAD_REACTORS
330
36
102
}
330
36
100
AcDbXrecord
280
     1
  1
cfp layers
  1
A*
  1
*
  1
*
 70
     0
  1
*
  1
*
  0
XRECORD
  5
F7
102
{ACAD_REACTORS
330
36
102
}
330
36
100
AcDbXrecord
280
     1
  1
CLAD
  1
*
  1
*
  1
*
 70
     0
  1
*
  1
*
  0
XRECORD
  5
F8
102
{ACAD_REACTORS
330
36
102
}
330
36
100
AcDbXrecord
280
     1
  1
coloour
  1
col*
  1
*
  1
*
 70
     0
  1
*
  1
*
  0
XRECORD
  5
F9
102
{ACAD_REACTORS
330
36
102
}
330
36
100
AcDbXrecord
280
     1
  1
colour
  1
col*
  1
*
  1
*
 70
     0
  1
*
  1
*
  0
XRECORD
  5
FA
102
{ACAD_REACTORS
330
36
102
}
330
36
100
AcDbXrecord
280
     1
  1
COLOURS
  1
*A080*
  1
*
  1
*
 70
     0
  1
*
  1
*
  0
XRECORD
  5
FB
102
{ACAD_REACTORS
330
36
102
}
330
36
100
AcDbXrecord
280
     1
  1
CONC
  1
*CONC*
  1
*
  1
*
 70
     0
  1
*
  1
*
  0
XRECORD
  5
FC
102
{ACAD_REACTORS
330
36
102
}
330
36
100
AcDbXrecord
280
     1
  1
CONCR
  1
*CONCR*
  1
*
  1
*
 70
     0
  1
*
  1
*
  0
XRECORD
  5
FD
102
{ACAD_REACTORS
330
36
102
}
330
36
100
AcDbXrecord
280
     1
  1
CONSERVITORY
  1
CON*,2D*
  1
*
  1
*
 70
     0
  1
*
  1
*
  0
XRECORD
  5
FE
102
{ACAD_REACTORS
330
36
102
}
330
36
100
AcDbXrecord
280
     1
  1
CORIAN
  1
*CORIAN*
  1
*
  1
*
 70
     0
  1
*
  1
*
  0
XRECORD
  5
FF
102
{ACAD_REACTORS
330
36
102
}
330
36
100
AcDbXrecord
280
     1
  1
cu dem
  1
dem*
  1
*
  1
*
 70
     0
  1
*
  1
*
  0
XRECORD
  5
100
102
{ACAD_REACTORS
330
36
102
}
330
36
100
AcDbXrecord
280
     1
  1
cu s2
  1
s2*
  1
*
  1
*
 70
     0
  1
*
  1
*
  0
XRECORD
  5
101
102
{ACAD_REACTORS
330
36
102
}
330
36
100
AcDbXrecord
280
     1
  1
cub
  1
*cub*
  1
*
  1
*
 70
     0
  1
*
  1
*
  0
XRECORD
  5
102
102
{ACAD_REACTORS
330
36
102
}
330
36
100
AcDbXrecord
280
     1
  1
CURRENT
  1
*
  1
*
  1
*
 70
    16
  1
*
  1
*
  0
XRECORD
  5
103
102
{ACAD_REACTORS
330
36
102
}
330
36
100
AcDbXrecord
280
     1
  1
CURVED GLASS
  1
*CURVED*
  1
*
  1
*
 70
     0
  1
*
  1
*
  0
XRECORD
  5
104
102
{ACAD_REACTORS
330
36
102
}
330
36
100
AcDbXrecord
280
     1
  1
curved walkway
  1
curved*
  1
*
  1
*
 70
     0
  1
*
  1
*
  0
XRECORD
  5
105
102
{ACAD_REACTORS
330
36
102
}
330
36
100
AcDbXrecord
280
     1
  1
CYAN
  1
*
  1
CYAN
  1
*
 70
     0
  1
*
  1
*
  0
XRECORD
  5
106
102
{ACAD_REACTORS
330
36
102
}
330
36
100
AcDbXrecord
280
     1
  1
D
  1
DUMR
  1
*
  1
*
 70
     0
  1
*
  1
*
  0
XRECORD
  5
107
102
{ACAD_REACTORS
330
36
102
}
330
36
100
AcDbXrecord
280
     1
  1
D1
  1
*D1*
  1
*
  1
*
 70
     0
  1
*
  1
*
  0
XRECORD
  5
108
102
{ACAD_REACTORS
330
36
102
}
330
36
100
AcDbXrecord
280
     1
  1
D_
  1
D_*
  1
*
  1
*
 70
     0
  1
*
  1
*
  0
XRECORD
  5
109
102
{ACAD_REACTORS
330
36
102
}
330
36
100
AcDbXrecord
280
     1
  1
dalaje
  1
dal*
  1
*
  1
*
 70
     0
  1
*
  1
*
  0
XRECORD
  5
10A
102
{ACAD_REACTORS
330
36
102
}
330
36
100
AcDbXrecord
280
     1
  1
das
  1
*
  1
7
  1
*
 70
     0
  1
*
  1
*
  0
XRECORD
  5
10B
102
{ACAD_REACTORS
330
36
102
}
330
36
100
AcDbXrecord
280
     1
  1
DAVE
  1
*
  1
*
  1
*
 70
     0
  1
*
  1
*
  0
XRECORD
  5
10C
102
{ACAD_REACTORS
330
36
102
}
330
36
100
AcDbXrecord
280
     1
  1
demolition
  1
???????8*
  1
*
  1
*
 70
     0
  1
*
  1
*
  0
XRECORD
  5
10D
102
{ACAD_REACTORS
330
36
102
}
330
36
100
AcDbXrecord
280
     1
  1
demolition work
  1
*
  1
*
  1
*
 70
    16
  1
*
  1
*
  0
XRECORD
  5
10E
102
{ACAD_REACTORS
330
36
102
}
330
36
100
AcDbXrecord
280
     1
  1
dfd
  1
*
  1
*
  1
*
 70
     0
  1
*
  1
*
  0
XRECORD
  5
10F
102
{ACAD_REACTORS
330
36
102
}
330
36
100
AcDbXrecord
280
     1
  1
dim
  1
dim*
  1
*
  1
*
 70
     0
  1
*
  1
*
  0
XRECORD
  5
110
102
{ACAD_REACTORS
330
36
102
}
330
36
100
AcDbXrecord
280
     1
  1
dim11
  1
dim11*
  1
*
  1
*
 70
     0
  1
*
  1
*
  0
XRECORD
  5
111
102
{ACAD_REACTORS
330
36
102
}
330
36
100
AcDbXrecord
280
     1
  1
dim12
  1
dim12*
  1
*
  1
*
 70
     0
  1
*
  1
*
  0
XRECORD
  5
112
102
{ACAD_REACTORS
330
36
102
}
330
36
100
AcDbXrecord
280
     1
  1
Dimensions
  1
?????d*
  1
*
  1
*
 70
     1
  1
*
  1
*
  0
XRECORD
  5
113
102
{ACAD_REACTORS
330
36
102
}
330
36
100
AcDbXrecord
280
     1
  1
dims
  1
*dims*
  1
*
  1
*
 70
     0
  1
*
  1
*
  0
XRECORD
  5
114
102
{ACAD_REACTORS
330
36
102
}
330
36
100
AcDbXrecord
280
     1
  1
DN
  1
DN*
  1
*
  1
*
 70
     0
  1
*
  1
*
  0
XRECORD
  5
115
102
{ACAD_REACTORS
330
36
102
}
330
36
100
AcDbXrecord
280
     1
  1
DOM
  1
DOM*
  1
*
  1
*
 70
     0
  1
*
  1
*
  0
XRECORD
  5
116
102
{ACAD_REACTORS
330
36
102
}
330
36
100
AcDbXrecord
280
     1
  1
Don't plot
  1
*
  1
*
  1
*
 70
  3072
  1
*
  1
*
  0
XRECORD
  5
117
102
{ACAD_REACTORS
330
36
102
}
330
36
100
AcDbXrecord
280
     1
  1
DOOR
  1
*DOOR*
  1
*
  1
*
 70
     0
  1
*
  1
*
  0
XRECORD
  5
118
102
{ACAD_REACTORS
330
36
102
}
330
36
100
AcDbXrecord
280
     1
  1
Drain
  1
d*
  1
*
  1
*
 70
     0
  1
*
  1
*
  0
XRECORD
  5
119
102
{ACAD_REACTORS
330
36
102
}
330
36
100
AcDbXrecord
280
     1
  1
drains
  1
*dra*
  1
*
  1
*
 70
     0
  1
*
  1
*
  0
XRECORD
  5
11A
102
{ACAD_REACTORS
330
36
102
}
330
36
100
AcDbXrecord
280
     1
  1
DSD
  1
*720G*
  1
*
  1
*
 70
     0
  1
*
  1
*
  0
XRECORD
  5
11B
102
{ACAD_REACTORS
330
36
102
}
330
36
100
AcDbXrecord
280
     1
  1
Ductwork
  1
*Duct*
  1
*
  1
*
 70
     0
  1
*
  1
*
  0
XRECORD
  5
11C
102
{ACAD_REACTORS
330
36
102
}
330
36
100
AcDbXrecord
280
     1
  1
E - LAYERS
  1
*E_*
  1
*
  1
*
 70
     0
  1
*
  1
*
  0
XRECORD
  5
11D
102
{ACAD_REACTORS
330
36
102
}
330
36
100
AcDbXrecord
280
     1
  1
E1
  1
*E1*
  1
*
  1
*
 70
     0
  1
*
  1
*
  0
XRECORD
  5
11E
102
{ACAD_REACTORS
330
36
102
}
330
36
100
AcDbXrecord
280
     1
  1
E2
  1
*E2*
  1
*
  1
*
 70
     0
  1
*
  1
*
  0
XRECORD
  5
11F
102
{ACAD_REACTORS
330
36
102
}
330
36
100
AcDbXrecord
280
     1
  1
E3
  1
*E3*
  1
*
  1
*
 70
     0
  1
*
  1
*
  0
XRECORD
  5
120
102
{ACAD_REACTORS
330
36
102
}
330
36
100
AcDbXrecord
280
     1
  1
E4
  1
*E4*
  1
*
  1
*
 70
     0
  1
*
  1
*
  0
XRECORD
  5
121
102
{ACAD_REACTORS
330
36
102
}
330
36
100
AcDbXrecord
280
     1
  1
EDDIE
  1
*EDDIE*
  1
*
  1
*
 70
     0
  1
*
  1
*
  0
XRECORD
  5
122
102
{ACAD_REACTORS
330
36
102
}
330
36
100
AcDbXrecord
280
     1
  1
EI PLOTI
  1
*
  1
*
  1
*
 70
  3072
  1
*
  1
*
  0
XRECORD
  5
123
102
{ACAD_REACTORS
330
36
102
}
330
36
100
AcDbXrecord
280
     1
  1
eiplo
  1
*
  1
*
  1
*
 70
  3072
  1
*
  1
*
  0
XRECORD
  5
124
102
{ACAD_REACTORS
330
36
102
}
330
36
100
AcDbXrecord
280
     1
  1
EIplot
  1
*
  1
*
  1
*
 70
  3072
  1
*
  1
*
  0
XRECORD
  5
125
102
{ACAD_REACTORS
330
36
102
}
330
36
100
AcDbXrecord
280
     1
  1
EKSEN
  1
*EKS*
  1
*
  1
*
 70
     0
  1
*
  1
*
  0
XRECORD
  5
126
102
{ACAD_REACTORS
330
36
102
}
330
36
100
AcDbXrecord
280
     1
  1
ELEC
  1
E*
  1
*
  1
*
 70
     0
  1
*
  1
*
  0
XRECORD
  5
127
102
{ACAD_REACTORS
330
36
102
}
330
36
100
AcDbXrecord
280
     1
  1
ELEVATION
  1
ELE*
  1
*
  1
*
 70
     0
  1
*
  1
*
  0
XRECORD
  5
128
102
{ACAD_REACTORS
330
36
102
}
330
36
100
AcDbXrecord
280
     1
  1
elevations
  1
A-ELEV-*
  1
*
  1
*
 70
     0
  1
*
  1
*
  0
XRECORD
  5
129
102
{ACAD_REACTORS
330
36
102
}
330
36
100
AcDbXrecord
280
     1
  1
endview
  1
*endview*
  1
*
  1
*
 70
     0
  1
*
  1
*
  0
XRECORD
  5
12A
102
{ACAD_REACTORS
330
36
102
}
330
36
100
AcDbXrecord
280
     1
  1
entrance
  1
ent*
  1
*
  1
*
 70
     0
  1
*
  1
*
  0
XRECORD
  5
12B
102
{ACAD_REACTORS
330
36
102
}
330
36
100
AcDbXrecord
280
     1
  1
esam
  1
*
  1
*
  1
*
 70
     0
  1
*
  1
*
  0
XRECORD
  5
12C
102
{ACAD_REACTORS
330
36
102
}
330
36
100
AcDbXrecord
280
     1
  1
et trykkida välja
  1
*
  1
*
  1
*
 70
     0
  1
*
  1
*
  0
XRECORD
  5
12D
102
{ACAD_REACTORS
330
36
102
}
330
36
100
AcDbXrecord
280
     1
  1
exg imported
  1
B*
  1
*
  1
*
 70
     0
  1
*
  1
*
  0
XRECORD
  5
12E
102
{ACAD_REACTORS
330
36
102
}
330
36
100
AcDbXrecord
280
     1
  1
EXISTING
  1
EX_PLN_0
  1
*
  1
*
 70
     0
  1
*
  1
*
  0
XRECORD
  5
12F
102
{ACAD_REACTORS
330
36
102
}
330
36
100
AcDbXrecord
280
     1
  1
F
  1
*
  1
*
  1
*
 70
     4
  1
*
  1
*
  0
XRECORD
  5
130
102
{ACAD_REACTORS
330
36
102
}
330
36
100
AcDbXrecord
280
     1
  1
FEATURE
  1
FEATURE*
  1
*
  1
*
 70
     0
  1
*
  1
*
  0
XRECORD
  5
131
102
{ACAD_REACTORS
330
36
102
}
330
36
100
AcDbXrecord
280
     1
  1
FENCE
  1
*FENCE*
  1
*
  1
*
 70
     0
  1
*
  1
*
  0
XRECORD
  5
132
102
{ACAD_REACTORS
330
36
102
}
330
36
100
AcDbXrecord
280
     1
  1
FINISH
  1
*FINISH
  1
*
  1
*
 70
     0
  1
*
  1
*
  0
XRECORD
  5
133
102
{ACAD_REACTORS
330
36
102
}
330
36
100
AcDbXrecord
280
     1
  1
finishes
  1
*finishes*
  1
*
  1
*
 70
     0
  1
*
  1
*
  0
XRECORD
  5
134
102
{ACAD_REACTORS
330
36
102
}
330
36
100
AcDbXrecord
280
     1
  1
FINISHES PLAN
  1
*
  1
*
  1
*
 70
    16
  1
*
  1
*
  0
XRECORD
  5
135
102
{ACAD_REACTORS
330
36
102
}
330
36
100
AcDbXrecord
280
     1
  1
FINISHES PLANS
  1
*
  1
*
  1
*
 70
    16
  1
*
  1
*
  0
XRECORD
  5
136
102
{ACAD_REACTORS
330
36
102
}
330
36
100
AcDbXrecord
280
     1
  1
FIRE
  1
*
  1
*
  1
*
 70
    16
  1
*
  1
*
  0
XRECORD
  5
137
102
{ACAD_REACTORS
330
36
102
}
330
36
100
AcDbXrecord
280
     1
  1
FIRE PLAN
  1
*
  1
*
  1
*
 70
     4
  1
*
  1
*
  0
XRECORD
  5
138
102
{ACAD_REACTORS
330
36
102
}
330
36
100
AcDbXrecord
280
     1
  1
Fire strategy
  1
Fire*
  1
*
  1
*
 70
     0
  1
*
  1
*
  0
XRECORD
  5
139
102
{ACAD_REACTORS
330
36
102
}
330
36
100
AcDbXrecord
280
     1
  1
FIRST FLOOR
  1
*-01
  1
*
  1
*
 70
     0
  1
*
  1
*
  0
XRECORD
  5
13A
102
{ACAD_REACTORS
330
36
102
}
330
36
100
AcDbXrecord
280
     1
  1
First to Roof
  1
*F-R*
  1
*
  1
*
 70
     0
  1
*
  1
*
  0
XRECORD
  5
13B
102
{ACAD_REACTORS
330
36
102
}
330
36
100
AcDbXrecord
280
     1
  1
FLAT GLASS
  1
*FLAT*
  1
*
  1
*
 70
     0
  1
*
  1
*
  0
XRECORD
  5
13C
102
{ACAD_REACTORS
330
36
102
}
330
36
100
AcDbXrecord
280
     1
  1
FLOOR
  1
FLOOR*
  1
*
  1
*
 70
     0
  1
*
  1
*
  0
XRECORD
  5
13D
102
{ACAD_REACTORS
330
36
102
}
330
36
100
AcDbXrecord
280
     1
  1
FLOOR PLAN
  1
A-FLR-*
  1
*
  1
*
 70
     0
  1
*
  1
*
  0
XRECORD
  5
13E
102
{ACAD_REACTORS
330
36
102
}
330
36
100
AcDbXrecord
280
     1
  1
FR
  1
*
  1
*
  1
*
 70
     4
  1
*
  1
*
  0
XRECORD
  5
13F
102
{ACAD_REACTORS
330
36
102
}
330
36
100
AcDbXrecord
280
     1
  1
Fragment 2
  1
*
  1
*
  1
*
 70
     0
  1
*
  1
*
  0
XRECORD
  5
140
102
{ACAD_REACTORS
330
36
102
}
330
36
100
AcDbXrecord
280
     1
  1
freeze
  1
*
  1
*
  1
*
 70
     4
  1
*
  1
*
  0
XRECORD
  5
141
102
{ACAD_REACTORS
330
36
102
}
330
36
100
AcDbXrecord
280
     1
  1
FROS CUR VPORT
  1
LUCIEN
  1
*
  1
*
 70
    16
  1
*
  1
*
  0
XRECORD
  5
142
102
{ACAD_REACTORS
330
36
102
}
330
36
100
AcDbXrecord
280
     1
  1
FROZ
  1
*
  1
*
  1
*
 70
     4
  1
*
  1
*
  0
XRECORD
  5
143
102
{ACAD_REACTORS
330
36
102
}
330
36
100
AcDbXrecord
280
     1
  1
FROZ CUR VPORT
  1
*
  1
*
  1
*
 70
    16
  1
*
  1
*
  0
XRECORD
  5
144
102
{ACAD_REACTORS
330
36
102
}
330
36
100
AcDbXrecord
280
     1
  1
FROZ IN CURENT
  1
*
  1
*
  1
*
 70
    16
  1
*
  1
*
  0
XRECORD
  5
145
102
{ACAD_REACTORS
330
36
102
}
330
36
100
AcDbXrecord
280
     1
  1
frozen
  1
*
  1
*
  1
*
 70
     4
  1
*
  1
*
  0
XRECORD
  5
146
102
{ACAD_REACTORS
330
36
102
}
330
36
100
AcDbXrecord
280
     1
  1
frozen Layers
  1
*
  1
*
  1
*
 70
     4
  1
*
  1
*
  0
XRECORD
  5
147
102
{ACAD_REACTORS
330
36
102
}
330
36
100
AcDbXrecord
280
     1
  1
FRZ
  1
*
  1
*
  1
*
 70
     4
  1
*
  1
*
  0
XRECORD
  5
148
102
{ACAD_REACTORS
330
36
102
}
330
36
100
AcDbXrecord
280
     1
  1
Furniture
  1
f*
  1
*
  1
*
 70
     0
  1
*
  1
*
  0
XRECORD
  5
149
102
{ACAD_REACTORS
330
36
102
}
330
36
100
AcDbXrecord
280
     1
  1
furntext
  1
*t2
  1
*
  1
*
 70
     0
  1
*
  1
*
  0
XRECORD
  5
14A
102
{ACAD_REACTORS
330
36
102
}
330
36
100
AcDbXrecord
280
     1
  1
furntext1
  1
*t1
  1
*
  1
*
 70
     0
  1
*
  1
*
  0
XRECORD
  5
14B
102
{ACAD_REACTORS
330
36
102
}
330
36
100
AcDbXrecord
280
     1
  1
furntext2
  1
*t2
  1
*
  1
*
 70
     0
  1
*
  1
*
  0
XRECORD
  5
14C
102
{ACAD_REACTORS
330
36
102
}
330
36
100
AcDbXrecord
280
     1
  1
furntext3
  1
*t3
  1
*
  1
*
 70
     0
  1
*
  1
*
  0
XRECORD
  5
14D
102
{ACAD_REACTORS
330
36
102
}
330
36
100
AcDbXrecord
280
     1
  1
FY
  1
*
  1
*
  1
*
 70
     0
  1
*
  1
*
  0
XRECORD
  5
14E
102
{ACAD_REACTORS
330
36
102
}
330
36
100
AcDbXrecord
280
     1
  1
g
  1
g*
  1
*
  1
*
 70
     0
  1
*
  1
*
  0
XRECORD
  5
14F
102
{ACAD_REACTORS
330
36
102
}
330
36
100
AcDbXrecord
280
     1
  1
GA
  1
*
  1
*
  1
*
 70
     0
  1
*
  1
*
  0
XRECORD
  5
150
102
{ACAD_REACTORS
330
36
102
}
330
36
100
AcDbXrecord
280
     1
  1
ga plan
  1
*
  1
*
  1
*
 70
    16
  1
*
  1
*
  0
XRECORD
  5
151
102
{ACAD_REACTORS
330
36
102
}
330
36
100
AcDbXrecord
280
     1
  1
GAMCO
  1
GAM*
  1
*
  1
*
 70
     0
  1
*
  1
*
  0
XRECORD
  5
152
102
{ACAD_REACTORS
330
36
102
}
330
36
100
AcDbXrecord
280
     1
  1
General
  1
y*
  1
*
  1
*
 70
     0
  1
*
  1
*
  0
XRECORD
  5
153
102
{ACAD_REACTORS
330
36
102
}
330
36
100
AcDbXrecord
280
     1
  1
geo
  1
geo*
  1
*
  1
*
 70
     0
  1
*
  1
*
  0
XRECORD
  5
154
102
{ACAD_REACTORS
330
36
102
}
330
36
100
AcDbXrecord
280
     1
  1
geodeesia
  1
geo*
  1
*
  1
*
 70
     0
  1
*
  1
*
  0
XRECORD
  5
155
102
{ACAD_REACTORS
330
36
102
}
330
36
100
AcDbXrecord
280
     1
  1
git
  1
*
  1
magenta
  1
*
 70
     0
  1
*
  1
*
  0
XRECORD
  5
156
102
{ACAD_REACTORS
330
36
102
}
330
36
100
AcDbXrecord
280
     1
  1
GLASS
  1
*GLASS*
  1
*
  1
*
 70
     0
  1
*
  1
*
  0
XRECORD
  5
157
102
{ACAD_REACTORS
330
36
102
}
330
36
100
AcDbXrecord
280
     1
  1
GLASS RACK
  1
GLASSRACK*
  1
*
  1
*
 70
     0
  1
*
  1
*
  0
XRECORD
  5
158
102
{ACAD_REACTORS
330
36
102
}
330
36
100
AcDbXrecord
280
     1
  1
gondola
  1
*
  1
*
  1
*
 70
     0
  1
*
  1
*
  0
XRECORD
  5
159
102
{ACAD_REACTORS
330
36
102
}
330
36
100
AcDbXrecord
280
     1
  1
gp
  1
gp*
  1
*
  1
*
 70
     0
  1
*
  1
*
  0
XRECORD
  5
15A
102
{ACAD_REACTORS
330
36
102
}
330
36
100
AcDbXrecord
280
     1
  1
gp- ära
  1
gp
  1
*
  1
*
 70
     3
  1
*
  1
*
  0
XRECORD
  5
15B
102
{ACAD_REACTORS
330
36
102
}
330
36
100
AcDbXrecord
280
     1
  1
GREEN
  1
*
  1
GREEN
  1
*
 70
     0
  1
*
  1
*
  0
XRECORD
  5
15C
102
{ACAD_REACTORS
330
36
102
}
330
36
100
AcDbXrecord
280
     1
  1
GREET
  1
GREET*
  1
*
  1
*
 70
     0
  1
*
  1
*
  0
XRECORD
  5
15D
102
{ACAD_REACTORS
330
36
102
}
330
36
100
AcDbXrecord
280
     1
  1
grey
  1
*
  1
8
  1
*
 70
     0
  1
*
  1
*
  0
XRECORD
  5
15E
102
{ACAD_REACTORS
330
36
102
}
330
36
100
AcDbXrecord
280
     1
  1
grid
  1
1784grid-g$0$*
  1
*
  1
*
 70
     0
  1
*
  1
*
  0
XRECORD
  5
15F
102
{ACAD_REACTORS
330
36
102
}
330
36
100
AcDbXrecord
280
     1
  1
GRID 0FF
  1
*032G
  1
*
  1
*
 70
     0
  1
*
  1
*
  0
XRECORD
  5
160
102
{ACAD_REACTORS
330
36
102
}
330
36
100
AcDbXrecord
280
     1
  1
grids
  1
*032g
  1
*
  1
*
 70
     0
  1
*
  1
*
  0
XRECORD
  5
161
102
{ACAD_REACTORS
330
36
102
}
330
36
100
AcDbXrecord
280
     1
  1
gridtext102
  1
*
  1
*
  1
*
 70
     0
  1
*
  1
*
  0
XRECORD
  5
162
102
{ACAD_REACTORS
330
36
102
}
330
36
100
AcDbXrecord
280
     1
  1
grnd
  1
1784grnd$0$*
  1
*
  1
*
 70
     0
  1
*
  1
*
  0
XRECORD
  5
163
102
{ACAD_REACTORS
330
36
102
}
330
36
100
AcDbXrecord
280
     1
  1
GROUND FLOOR
  1
*-00
  1
*
  1
*
 70
     0
  1
*
  1
*
  0
XRECORD
  5
164
102
{ACAD_REACTORS
330
36
102
}
330
36
100
AcDbXrecord
280
     1
  1
Ground to First
  1
*G-F*
  1
*
  1
*
 70
     0
  1
*
  1
*
  0
XRECORD
  5
165
102
{ACAD_REACTORS
330
36
102
}
330
36
100
AcDbXrecord
280
     1
  1
Ground to Roof
  1
*G-R*
  1
*
  1
*
 70
     0
  1
*
  1
*
  0
XRECORD
  5
166
102
{ACAD_REACTORS
330
36
102
}
330
36
100
AcDbXrecord
280
     1
  1
HAIRDRESSER
  1
HD*
  1
*
  1
*
 70
     0
  1
*
  1
*
  0
XRECORD
  5
167
102
{ACAD_REACTORS
330
36
102
}
330
36
100
AcDbXrecord
280
     1
  1
haljastus
  1
ha*
  1
*
  1
*
 70
     0
  1
*
  1
*
  0
XRECORD
  5
168
102
{ACAD_REACTORS
330
36
102
}
330
36
100
AcDbXrecord
280
     1
  1
hand
  1
*rail*
  1
*
  1
*
 70
     0
  1
*
  1
*
  0
XRECORD
  5
169
102
{ACAD_REACTORS
330
36
102
}
330
36
100
AcDbXrecord
280
     1
  1
HARDWARE
  1
*HARD*
  1
*
  1
*
 70
     0
  1
*
  1
*
  0
XRECORD
  5
16A
102
{ACAD_REACTORS
330
36
102
}
330
36
100
AcDbXrecord
280
     1
  1
HAT
  1
*HAT*
  1
*
  1
*
 70
     0
  1
*
  1
*
  0
XRECORD
  5
16B
102
{ACAD_REACTORS
330
36
102
}
330
36
100
AcDbXrecord
280
     1
  1
hatch
  1
*
  1
*
  1
*
 70
    23
  1
*
  1
*
  0
XRECORD
  5
16C
102
{ACAD_REACTORS
330
36
102
}
330
36
100
AcDbXrecord
280
     1
  1
hatch-off
  1
*hatch
  1
*
  1
*
 70
     3
  1
*
  1
*
  0
XRECORD
  5
16D
102
{ACAD_REACTORS
330
36
102
}
330
36
100
AcDbXrecord
280
     1
  1
hoonestuskava
  1
hk*
  1
*
  1
*
 70
     0
  1
*
  1
*
  0
XRECORD
  5
16E
102
{ACAD_REACTORS
330
36
102
}
330
36
100
AcDbXrecord
280
     1
  1
HVAC
  1
H*
  1
*
  1
*
 70
     0
  1
*
  1
*
  0
XRECORD
  5
16F
102
{ACAD_REACTORS
330
36
102
}
330
36
100
AcDbXrecord
280
     1
  1
iden
  1
*iden
  1
*
  1
*
 70
     0
  1
*
  1
*
  0
XRECORD
  5
170
102
{ACAD_REACTORS
330
36
102
}
330
36
100
AcDbXrecord
280
     1
  1
INDICATE THICK LINE OF BULKHEAD
  1
*
  1
*
  1
*
 70
    16
  1
*
  1
*
  0
XRECORD
  5
171
102
{ACAD_REACTORS
330
36
102
}
330
36
100
AcDbXrecord
280
     1
  1
insulation
  1
*
  1
*
  1
*
 70
     0
  1
*
  1
*
  0
XRECORD
  5
172
102
{ACAD_REACTORS
330
36
102
}
330
36
100
AcDbXrecord
280
     1
  1
jack
  1
~*#
  1
*
  1
*
 70
     0
  1
*
  1
*
  0
XRECORD
  5
173
102
{ACAD_REACTORS
330
36
102
}
330
36
100
AcDbXrecord
280
     1
  1
JBHGVHG
  1
BAR*
  1
*
  1
*
 70
     0
  1
*
  1
*
  0
XRECORD
  5
174
102
{ACAD_REACTORS
330
36
102
}
330
36
100
AcDbXrecord
280
     1
  1
JETO
  1
0
  1
*
  1
*
 70
     0
  1
*
  1
*
  0
XRECORD
  5
175
102
{ACAD_REACTORS
330
36
102
}
330
36
100
AcDbXrecord
280
     1
  1
jhd
  1
jhd*
  1
*
  1
*
 70
     0
  1
*
  1
*
  0
XRECORD
  5
176
102
{ACAD_REACTORS
330
36
102
}
330
36
100
AcDbXrecord
280
     1
  1
John-Harrison
  1
W-M-T-*
  1
*
  1
*
 70
     0
  1
*
  1
*
  0
XRECORD
  5
177
102
{ACAD_REACTORS
330
36
102
}
330
36
100
AcDbXrecord
280
     1
  1
JOINERE SETTING OUT
  1
*
  1
*
  1
*
 70
    16
  1
*
  1
*
  0
XRECORD
  5
178
102
{ACAD_REACTORS
330
36
102
}
330
36
100
AcDbXrecord
280
     1
  1
KASUTUSEL
  1
*
  1
*
  1
*
 70
    13
  1
*
  1
*
  0
XRECORD
  5
179
102
{ACAD_REACTORS
330
36
102
}
330
36
100
AcDbXrecord
280
     1
  1
katus
  1
katus *
  1
*
  1
*
 70
     0
  1
*
  1
*
  0
XRECORD
  5
17A
102
{ACAD_REACTORS
330
36
102
}
330
36
100
AcDbXrecord
280
     1
  1
KATUSEPLAAN
  1
KATUS
  1
*
  1
*
 70
     0
  1
*
  1
*
  0
XRECORD
  5
17B
102
{ACAD_REACTORS
330
36
102
}
330
36
100
AcDbXrecord
280
     1
  1
KAYDIRAKLAR
  1
KAY*
  1
*
  1
*
 70
     0
  1
*
  1
*
  0
XRECORD
  5
17C
102
{ACAD_REACTORS
330
36
102
}
330
36
100
AcDbXrecord
280
     1
  1
kaylar
  1
*kay*
  1
*
  1
*
 70
     0
  1
*
  1
*
  0
XRECORD
  5
17D
102
{ACAD_REACTORS
330
36
102
}
330
36
100
AcDbXrecord
280
     1
  1
KENARLAR
  1
*KENAR
  1
*
  1
*
 70
     0
  1
*
  1
*
  0
XRECORD
  5
17E
102
{ACAD_REACTORS
330
36
102
}
330
36
100
AcDbXrecord
280
     1
  1
kiitoks
  1
kit*
  1
*
  1
*
 70
     0
  1
*
  1
*
  0
XRECORD
  5
17F
102
{ACAD_REACTORS
330
36
102
}
330
36
100
AcDbXrecord
280
     1
  1
KINNI
  1
*
  1
*
  1
*
 70
     3
  1
*
  1
*
  0
XRECORD
  5
180
102
{ACAD_REACTORS
330
36
102
}
330
36
100
AcDbXrecord
280
     1
  1
KIRJANURK
  1
KN *
  1
*
  1
*
 70
     0
  1
*
  1
*
  0
XRECORD
  5
181
102
{ACAD_REACTORS
330
36
102
}
330
36
100
AcDbXrecord
280
     1
  1
kitas
  1
k-*
  1
*
  1
*
 70
     0
  1
*
  1
*
  0
XRECORD
  5
182
102
{ACAD_REACTORS
330
36
102
}
330
36
100
AcDbXrecord
280
     1
  1
KITCHEN
  1
KITCHEN*
  1
*
  1
*
 70
     0
  1
*
  1
*
  0
XRECORD
  5
183
102
{ACAD_REACTORS
330
36
102
}
330
36
100
AcDbXrecord
280
     1
  1
KITCHEN PLAN
  1
*
  1
*
  1
*
 70
    16
  1
*
  1
*
  0
XRECORD
  5
184
102
{ACAD_REACTORS
330
36
102
}
330
36
100
AcDbXrecord
280
     1
  1
KITCHEN SETTING OUT
  1
*
  1
*
  1
*
 70
    16
  1
*
  1
*
  0
XRECORD
  5
185
102
{ACAD_REACTORS
330
36
102
}
330
36
100
AcDbXrecord
280
     1
  1
KONSOLLAR
  1
KONSOL*
  1
*
  1
*
 70
     0
  1
*
  1
*
  0
XRECORD
  5
186
102
{ACAD_REACTORS
330
36
102
}
330
36
100
AcDbXrecord
280
     1
  1
Koondvõrk
  1
*
  1
*
  1
*
 70
     0
  1
*
  1
*
  0
XRECORD
  5
187
102
{ACAD_REACTORS
330
36
102
}
330
36
100
AcDbXrecord
280
     1
  1
koord
  1
*koord*
  1
*
  1
*
 70
     0
  1
*
  1
*
  0
XRECORD
  5
188
102
{ACAD_REACTORS
330
36
102
}
330
36
100
AcDbXrecord
280
     1
  1
kr
  1
kr*
  1
*
  1
*
 70
     0
  1
*
  1
*
  0
XRECORD
  5
189
102
{ACAD_REACTORS
330
36
102
}
330
36
100
AcDbXrecord
280
     1
  1
L
  1
LUCIEN
  1
*
  1
*
 70
     0
  1
*
  1
*
  0
XRECORD
  5
18A
102
{ACAD_REACTORS
330
36
102
}
330
36
100
AcDbXrecord
280
     1
  1
LABIEKARTOJUMS
  1
LB*
  1
*
  1
*
 70
     0
  1
*
  1
*
  0
XRECORD
  5
18B
102
{ACAD_REACTORS
330
36
102
}
330
36
100
AcDbXrecord
280
     1
  1
LAHTI
  1
*
  1
*
  1
*
 70
     1
  1
*
  1
*
  0
XRECORD
  5
18C
102
{ACAD_REACTORS
330
36
102
}
330
36
100
AcDbXrecord
280
     1
  1
Layer off
  1
*
  1
*
  1
*
 70
     3
  1
*
  1
*
  0
XRECORD
  5
18D
102
{ACAD_REACTORS
330
36
102
}
330
36
100
AcDbXrecord
280
     1
  1
LIBRARY
  1
LIBRARY*
  1
*
  1
*
 70
     0
  1
*
  1
*
  0
XRECORD
  5
18E
102
{ACAD_REACTORS
330
36
102
}
330
36
100
AcDbXrecord
280
     1
  1
licencing
  1
*
  1
*
  1
*
 70
    16
  1
*
  1
*
  0
XRECORD
  5
18F
102
{ACAD_REACTORS
330
36
102
}
330
36
100
AcDbXrecord
280
     1
  1
lift
  1
lift*
  1
*
  1
*
 70
     0
  1
*
  1
*
  0
XRECORD
  5
190
102
{ACAD_REACTORS
330
36
102
}
330
36
100
AcDbXrecord
280
     1
  1
LIGHT
  1
LIGHT*
  1
*
  1
*
 70
     0
  1
*
  1
*
  0
XRECORD
  5
191
102
{ACAD_REACTORS
330
36
102
}
330
36
100
AcDbXrecord
280
     1
  1
Lighting
  1
light*
  1
*
  1
*
 70
     0
  1
*
  1
*
  0
XRECORD
  5
192
102
{ACAD_REACTORS
330
36
102
}
330
36
100
AcDbXrecord
280
     1
  1
liik
  1
liik*
  1
*
  1
*
 70
     0
  1
*
  1
*
  0
XRECORD
  5
193
102
{ACAD_REACTORS
330
36
102
}
330
36
100
AcDbXrecord
280
     1
  1
LINII
  1
LINI*
  1
*
  1
*
 70
     0
  1
*
  1
*
  0
XRECORD
  5
194
102
{ACAD_REACTORS
330
36
102
}
330
36
100
AcDbXrecord
280
     1
  1
lk
  1
*
  1
*
  1
*
 70
   256
  1
*
  1
*
  0
XRECORD
  5
195
102
{ACAD_REACTORS
330
36
102
}
330
36
100
AcDbXrecord
280
     1
  1
LOBBY
  1
LOBBY*
  1
*
  1
*
 70
     0
  1
*
  1
*
  0
XRECORD
  5
196
102
{ACAD_REACTORS
330
36
102
}
330
36
100
AcDbXrecord
280
     1
  1
LOBBY AND OFFICE
  1
LOBBY*,OFFICE
  1
*
  1
*
 70
     0
  1
*
  1
*
  0
XRECORD
  5
197
102
{ACAD_REACTORS
330
36
102
}
330
36
100
AcDbXrecord
280
     1
  1
LOCK
  1
-*
  1
*
  1
*
 70
   256
  1
*
  1
*
  0
XRECORD
  5
198
102
{ACAD_REACTORS
330
36
102
}
330
36
100
AcDbXrecord
280
     1
  1
locked
  1
*
  1
*
  1
*
 70
   256
  1
*
  1
*
  0
XRECORD
  5
199
102
{ACAD_REACTORS
330
36
102
}
330
36
100
AcDbXrecord
280
     1
  1
LUKKU
  1
*
  1
*
  1
*
 70
   257
  1
*
  1
*
  0
XRECORD
  5
19A
102
{ACAD_REACTORS
330
36
102
}
330
36
100
AcDbXrecord
280
     1
  1
LÕIGE
  1
LÕIGE *
  1
*
  1
*
 70
     0
  1
*
  1
*
  0
XRECORD
  5
19B
102
{ACAD_REACTORS
330
36
102
}
330
36
100
AcDbXrecord
280
     1
  1
M1
  1
*M1*
  1
*
  1
*
 70
     0
  1
*
  1
*
  0
XRECORD
  5
19C
102
{ACAD_REACTORS
330
36
102
}
330
36
100
AcDbXrecord
280
     1
  1
magenta
  1
*
  1
magenta
  1
*
 70
     0
  1
*
  1
*
  0
XRECORD
  5
19D
102
{ACAD_REACTORS
330
36
102
}
330
36
100
AcDbXrecord
280
     1
  1
Magna2000
  1
MAGNA2000$*
  1
*
  1
*
 70
     0
  1
*
  1
*
  0
XRECORD
  5
19E
102
{ACAD_REACTORS
330
36
102
}
330
36
100
AcDbXrecord
280
     1
  1
MDM1
  1
X0*
  1
*
  1
*
 70
   775
  1
*
  1
*
  0
XRECORD
  5
19F
102
{ACAD_REACTORS
330
36
102
}
330
36
100
AcDbXrecord
280
     1
  1
mech
  1
*mech*
  1
*
  1
*
 70
     0
  1
*
  1
*
  0
XRECORD
  5
1A0
102
{ACAD_REACTORS
330
36
102
}
330
36
100
AcDbXrecord
280
     1
  1
MECHANICAL
  1
*MECH*
  1
*
  1
*
 70
     0
  1
*
  1
*
  0
XRECORD
  5
1A1
102
{ACAD_REACTORS
330
36
102
}
330
36
100
AcDbXrecord
280
     1
  1
MEMBRANE
  1
*
  1
*
  1
*
 70
     0
  1
*
  1
*
  0
XRECORD
  5
1A2
102
{ACAD_REACTORS
330
36
102
}
330
36
100
AcDbXrecord
280
     1
  1
moje
  1
A *, PS*
  1
*
  1
*
 70
     0
  1
*
  1
*
  0
XRECORD
  5
1A3
102
{ACAD_REACTORS
330
36
102
}
330
36
100
AcDbXrecord
280
     1
  1
N
  1
N_*
  1
*
  1
*
 70
     0
  1
*
  1
*
  0
XRECORD
  5
1A4
102
{ACAD_REACTORS
330
36
102
}
330
36
100
AcDbXrecord
280
     1
  1
N_
  1
N_*
  1
*
  1
*
 70
     0
  1
*
  1
*
  0
XRECORD
  5
1A5
102
{ACAD_REACTORS
330
36
102
}
330
36
100
AcDbXrecord
280
     1
  1
ncw
  1
*
  1
*red
  1
*
 70
     0
  1
*
  1
*
  0
XRECORD
  5
1A6
102
{ACAD_REACTORS
330
36
102
}
330
36
100
AcDbXrecord
280
     1
  1
NERO
  1
NERO*
  1
*
  1
*
 70
     0
  1
*
  1
*
  0
XRECORD
  5
1A7
102
{ACAD_REACTORS
330
36
102
}
330
36
100
AcDbXrecord
280
     1
  1
No Nums
  1
~*#
  1
*
  1
*
 70
     0
  1
*
  1
*
  0
XRECORD
  5
1A8
102
{ACAD_REACTORS
330
36
102
}
330
36
100
AcDbXrecord
280
     1
  1
nofurn
  1
*_1,2,3
  1
*
  1
*
 70
     0
  1
*
  1
*
  0
XRECORD
  5
1A9
102
{ACAD_REACTORS
330
36
102
}
330
36
100
AcDbXrecord
280
     1
  1
nofurn1
  1
*_2
  1
*
  1
*
 70
     0
  1
*
  1
*
  0
XRECORD
  5
1AA
102
{ACAD_REACTORS
330
36
102
}
330
36
100
AcDbXrecord
280
     1
  1
nofurn2
  1
*_3
  1
*
  1
*
 70
     0
  1
*
  1
*
  0
XRECORD
  5
1AB
102
{ACAD_REACTORS
330
36
102
}
330
36
100
AcDbXrecord
280
     1
  1
NON XREF DEPENDANTS
  1
*DEMO*
  1
*
  1
*
 70
     0
  1
*
  1
*
  0
XRECORD
  5
1AC
102
{ACAD_REACTORS
330
36
102
}
330
36
100
AcDbXrecord
280
     1
  1
Nosuc
  1
N_*
  1
*
  1
*
 70
     0
  1
*
  1
*
  0
XRECORD
  5
1AD
102
{ACAD_REACTORS
330
36
102
}
330
36
100
AcDbXrecord
280
     1
  1
npl
  1
*
  1
*
  1
*
 70
  3072
  1
*
  1
*
  0
XRECORD
  5
1AE
102
{ACAD_REACTORS
330
36
102
}
330
36
100
AcDbXrecord
280
     1
  1
nurgapu
  1
*
  1
*
  1
*
 70
    13
  1
*
  1
*
  0
XRECORD
  5
1AF
102
{ACAD_REACTORS
330
36
102
}
330
36
100
AcDbXrecord
280
     1
  1
nõrkvool
  1
arvuti
  1
*
  1
*
 70
     0
  1
*
  1
*
  0
XRECORD
  5
1B0
102
{ACAD_REACTORS
330
36
102
}
330
36
100
AcDbXrecord
280
     1
  1
off
  1
*
  1
*
  1
*
 70
     3
  1
*
  1
*
  0
XRECORD
  5
1B1
102
{ACAD_REACTORS
330
36
102
}
330
36
100
AcDbXrecord
280
     1
  1
OFFICE
  1
*OFFICE*
  1
*
  1
*
 70
     0
  1
*
  1
*
  0
XRECORD
  5
1B2
102
{ACAD_REACTORS
330
36
102
}
330
36
100
AcDbXrecord
280
     1
  1
OFFICE FIRST FLOOR
  1
*-01
  1
*
  1
*
 70
     0
  1
*
  1
*
  0
XRECORD
  5
1B3
102
{ACAD_REACTORS
330
36
102
}
330
36
100
AcDbXrecord
280
     1
  1
on
  1
*
  1
*
  1
*
 70
     1
  1
*
  1
*
  0
XRECORD
  5
1B4
102
{ACAD_REACTORS
330
36
102
}
330
36
100
AcDbXrecord
280
     1
  1
on and thawed
  1
*
  1
*
  1
*
 70
    13
  1
*
  1
*
  0
XRECORD
  5
1B5
102
{ACAD_REACTORS
330
36
102
}
330
36
100
AcDbXrecord
280
     1
  1
onlayers
  1
*
  1
*
  1
*
 70
    13
  1
*
  1
*
  0
XRECORD
  5
1B6
102
{ACAD_REACTORS
330
36
102
}
330
36
100
AcDbXrecord
280
     1
  1
OP1
  1
*op1*
  1
*
  1
*
 70
     0
  1
*
  1
*
  0
XRECORD
  5
1B7
102
{ACAD_REACTORS
330
36
102
}
330
36
100
AcDbXrecord
280
     1
  1
OP2
  1
*op2*
  1
*
  1
*
 70
     0
  1
*
  1
*
  0
XRECORD
  5
1B8
102
{ACAD_REACTORS
330
36
102
}
330
36
100
AcDbXrecord
280
     1
  1
option 1
  1
1*
  1
*
  1
*
 70
     0
  1
*
  1
*
  0
XRECORD
  5
1B9
102
{ACAD_REACTORS
330
36
102
}
330
36
100
AcDbXrecord
280
     1
  1
option 2
  1
2*
  1
*
  1
*
 70
     0
  1
*
  1
*
  0
XRECORD
  5
1BA
102
{ACAD_REACTORS
330
36
102
}
330
36
100
AcDbXrecord
280
     1
  1
Option1
  1
A210G704_walls Internal
  1
*
  1
*
 70
     0
  1
*
  1
*
  0
XRECORD
  5
1BB
102
{ACAD_REACTORS
330
36
102
}
330
36
100
AcDbXrecord
280
     1
  1
option4
  1
option4*
  1
*
  1
*
 70
     0
  1
*
  1
*
  0
XRECORD
  5
1BC
102
{ACAD_REACTORS
330
36
102
}
330
36
100
AcDbXrecord
280
     1
  1
Option5
  1
??????05*
  1
*
  1
*
 70
     0
  1
*
  1
*
  0
XRECORD
  5
1BD
102
{ACAD_REACTORS
330
36
102
}
330
36
100
AcDbXrecord
280
     1
  1
ORIGINAL
  1
*
  1
*
  1
*
 70
    13
  1
*
  1
*
  0
XRECORD
  5
1BE
102
{ACAD_REACTORS
330
36
102
}
330
36
100
AcDbXrecord
280
     1
  1
out
  1
*out*
  1
*
  1
*
 70
     0
  1
*
  1
*
  0
XRECORD
  5
1BF
102
{ACAD_REACTORS
330
36
102
}
330
36
100
AcDbXrecord
280
     1
  1
Outer
  1
ert*
  1
*
  1
*
 70
     0
  1
*
  1
*
  0
XRECORD
  5
1C0
102
{ACAD_REACTORS
330
36
102
}
330
36
100
AcDbXrecord
280
     1
  1
outline
  1
*outline
  1
*
  1
*
 70
     0
  1
*
  1
*
  0
XRECORD
  5
1C1
102
{ACAD_REACTORS
330
36
102
}
330
36
100
AcDbXrecord
280
     1
  1
P
  1
P *
  1
*
  1
*
 70
     0
  1
*
  1
*
  0
XRECORD
  5
1C2
102
{ACAD_REACTORS
330
36
102
}
330
36
100
AcDbXrecord
280
     1
  1
P - LAYERS
  1
*P_*
  1
*
  1
*
 70
     0
  1
*
  1
*
  0
XRECORD
  5
1C3
102
{ACAD_REACTORS
330
36
102
}
330
36
100
AcDbXrecord
280
     1
  1
P _
  1
*P_*
  1
*
  1
*
 70
     0
  1
*
  1
*
  0
XRECORD
  5
1C4
102
{ACAD_REACTORS
330
36
102
}
330
36
100
AcDbXrecord
280
     1
  1
P-LAYERS
  1
*P_*
  1
*
  1
*
 70
     0
  1
*
  1
*
  0
XRECORD
  5
1C5
102
{ACAD_REACTORS
330
36
102
}
330
36
100
AcDbXrecord
280
     1
  1
PH
  1
PH*
  1
*
  1
*
 70
     0
  1
*
  1
*
  0
XRECORD
  5
1C6
102
{ACAD_REACTORS
330
36
102
}
330
36
100
AcDbXrecord
280
     1
  1
phase 1
  1
*01
  1
*
  1
*
 70
     0
  1
*
  1
*
  0
XRECORD
  5
1C7
102
{ACAD_REACTORS
330
36
102
}
330
36
100
AcDbXrecord
280
     1
  1
PHEALTH
  1
P-*
  1
*
  1
*
 70
     0
  1
*
  1
*
  0
XRECORD
  5
1C8
102
{ACAD_REACTORS
330
36
102
}
330
36
100
AcDbXrecord
280
     1
  1
PHIL
  1
*
  1
*
  1
*
 70
    16
  1
*
  1
*
  0
XRECORD
  5
1C9
102
{ACAD_REACTORS
330
36
102
}
330
36
100
AcDbXrecord
280
     1
  1
Piepl
  1
P_*
  1
*
  1
*
 70
     0
  1
*
  1
*
  0
XRECORD
  5
1CA
102
{ACAD_REACTORS
330
36
102
}
330
36
100
AcDbXrecord
280
     1
  1
PIPE
  1
P-*
  1
*
  1
*
 70
     0
  1
*
  1
*
  0
XRECORD
  5
1CB
102
{ACAD_REACTORS
330
36
102
}
330
36
100
AcDbXrecord
280
     1
  1
pipes
  1
pipe*
  1
*
  1
*
 70
     0
  1
*
  1
*
  0
XRECORD
  5
1CC
102
{ACAD_REACTORS
330
36
102
}
330
36
100
AcDbXrecord
280
     1
  1
Pipes1
  1
pipes1*
  1
*
  1
*
 70
     0
  1
*
  1
*
  0
XRECORD
  5
1CD
102
{ACAD_REACTORS
330
36
102
}
330
36
100
AcDbXrecord
280
     1
  1
Pipework
  1
*Pipe*
  1
*
  1
*
 70
     0
  1
*
  1
*
  0
XRECORD
  5
1CE
102
{ACAD_REACTORS
330
36
102
}
330
36
100
AcDbXrecord
280
     1
  1
pirmas
  1
K-*
  1
*
  1
*
 70
     0
  1
*
  1
*
  0
XRECORD
  5
1CF
102
{ACAD_REACTORS
330
36
102
}
330
36
100
AcDbXrecord
280
     1
  1
PIZZA
  1
PIZZA*,2D*
  1
*
  1
*
 70
     0
  1
*
  1
*
  0
XRECORD
  5
1D0
102
{ACAD_REACTORS
330
36
102
}
330
36
100
AcDbXrecord
280
     1
  1
pk 2d-plan
  1
*
  1
*
  1
*
 70
     3
  1
*
  1
*
  0
XRECORD
  5
1D1
102
{ACAD_REACTORS
330
36
102
}
330
36
100
AcDbXrecord
280
     1
  1
pl
  1
*
  1
*
  1
*
 70
  1024
  1
*
  1
*
  0
XRECORD
  5
1D2
102
{ACAD_REACTORS
330
36
102
}
330
36
100
AcDbXrecord
280
     1
  1
PL1
  1
PAUL
  1
*
  1
*
 70
     0
  1
*
  1
*
  0
XRECORD
  5
1D3
102
{ACAD_REACTORS
330
36
102
}
330
36
100
AcDbXrecord
280
     1
  1
PLAKALAR
  1
PLAKA*
  1
*
  1
*
 70
     0
  1
*
  1
*
  0
XRECORD
  5
1D4
102
{ACAD_REACTORS
330
36
102
}
330
36
100
AcDbXrecord
280
     1
  1
planas
  1
k-*
  1
*
  1
*
 70
     0
  1
*
  1
*
  0
XRECORD
  5
1D5
102
{ACAD_REACTORS
330
36
102
}
330
36
100
AcDbXrecord
280
     1
  1
PLINTH
  1
*PLINTH*
  1
*
  1
*
 70
     0
  1
*
  1
*
  0
XRECORD
  5
1D6
102
{ACAD_REACTORS
330
36
102
}
330
36
100
AcDbXrecord
280
     1
  1
PLINTHS
  1
*PLINTH*
  1
*
  1
*
 70
     0
  1
*
  1
*
  0
XRECORD
  5
1D7
102
{ACAD_REACTORS
330
36
102
}
330
36
100
AcDbXrecord
280
     1
  1
PLO
  1
*
  1
*
  1
*
 70
  1036
  1
*
  1
*
  0
XRECORD
  5
1D8
102
{ACAD_REACTORS
330
36
102
}
330
36
100
AcDbXrecord
280
     1
  1
plot
  1
*
  1
*
  1
*
 70
  1024
  1
*
  1
*
  0
XRECORD
  5
1D9
102
{ACAD_REACTORS
330
36
102
}
330
36
100
AcDbXrecord
280
     1
  1
plumbing
  1
*plumbing*
  1
*
  1
*
 70
     0
  1
*
  1
*
  0
XRECORD
  5
1DA
102
{ACAD_REACTORS
330
36
102
}
330
36
100
AcDbXrecord
280
     1
  1
PN
  1
PN_*
  1
*
  1
*
 70
     0
  1
*
  1
*
  0
XRECORD
  5
1DB
102
{ACAD_REACTORS
330
36
102
}
330
36
100
AcDbXrecord
280
     1
  1
PN_N
  1
PN_*N
  1
*
  1
*
 70
     0
  1
*
  1
*
  0
XRECORD
  5
1DC
102
{ACAD_REACTORS
330
36
102
}
330
36
100
AcDbXrecord
280
     1
  1
PN_P
  1
PN_*P
  1
*
  1
*
 70
     0
  1
*
  1
*
  0
XRECORD
  5
1DD
102
{ACAD_REACTORS
330
36
102
}
330
36
100
AcDbXrecord
280
     1
  1
porch
  1
porch*
  1
*
  1
*
 70
     0
  1
*
  1
*
  0
XRECORD
  5
1DE
102
{ACAD_REACTORS
330
36
102
}
330
36
100
AcDbXrecord
280
     1
  1
Power
  1
Power*
  1
*
  1
*
 70
     0
  1
*
  1
*
  0
XRECORD
  5
1DF
102
{ACAD_REACTORS
330
36
102
}
330
36
100
AcDbXrecord
280
     1
  1
PR
  1
X-NIVEL1*
  1
10
  1
*
 70
    13
  1
*
  1
*
  0
XRECORD
  5
1E0
102
{ACAD_REACTORS
330
36
102
}
330
36
100
AcDbXrecord
280
     1
  1
PR-TRASSID
  1
pr-*
  1
*
  1
*
 70
     0
  1
*
  1
*
  0
XRECORD
  5
1E1
102
{ACAD_REACTORS
330
36
102
}
330
36
100
AcDbXrecord
280
     1
  1
prep
  1
*prep*
  1
*
  1
*
 70
     0
  1
*
  1
*
  0
XRECORD
  5
1E2
102
{ACAD_REACTORS
330
36
102
}
330
36
100
AcDbXrecord
280
     1
  1
primary
  1
*primary*
  1
*
  1
*
 70
     0
  1
*
  1
*
  0
XRECORD
  5
1E3
102
{ACAD_REACTORS
330
36
102
}
330
36
100
AcDbXrecord
280
     1
  1
proj
  1
pr*
  1
*
  1
*
 70
     0
  1
*
  1
*
  0
XRECORD
  5
1E4
102
{ACAD_REACTORS
330
36
102
}
330
36
100
AcDbXrecord
280
     1
  1
proj-trassid
  1
pr*
  1
*
  1
*
 70
     0
  1
*
  1
*
  0
XRECORD
  5
1E5
102
{ACAD_REACTORS
330
36
102
}
330
36
100
AcDbXrecord
280
     1
  1
PROP
  1
PROP *
  1
*
  1
*
 70
     0
  1
*
  1
*
  0
XRECORD
  5
1E6
102
{ACAD_REACTORS
330
36
102
}
330
36
100
AcDbXrecord
280
     1
  1
prop builders work
  1
*
  1
*
  1
*
 70
    16
  1
*
  1
*
  0
XRECORD
  5
1E7
102
{ACAD_REACTORS
330
36
102
}
330
36
100
AcDbXrecord
280
     1
  1
proposed
  1
???????5*
  1
*
  1
*
 70
     0
  1
*
  1
*
  0
XRECORD
  5
1E8
102
{ACAD_REACTORS
330
36
102
}
330
36
100
AcDbXrecord
280
     1
  1
ps
  1
*ps
  1
*
  1
*
 70
     0
  1
*
  1
*
  0
XRECORD
  5
1E9
102
{ACAD_REACTORS
330
36
102
}
330
36
100
AcDbXrecord
280
     1
  1
PU
  1
PU *
  1
*
  1
*
 70
     0
  1
*
  1
*
  0
XRECORD
  5
1EA
102
{ACAD_REACTORS
330
36
102
}
330
36
100
AcDbXrecord
280
     1
  1
qq
  1
02bu*
  1
*
  1
*
 70
     0
  1
*
  1
*
  0
XRECORD
  5
1EB
102
{ACAD_REACTORS
330
36
102
}
330
36
100
AcDbXrecord
280
     1
  1
r
  1
11*
  1
*
  1
*
 70
     0
  1
*
  1
*
  0
XRECORD
  5
1EC
102
{ACAD_REACTORS
330
36
102
}
330
36
100
AcDbXrecord
280
     1
  1
R0
  1
*R0*
  1
*
  1
*
 70
     0
  1
*
  1
*
  0
XRECORD
  5
1ED
102
{ACAD_REACTORS
330
36
102
}
330
36
100
AcDbXrecord
280
     1
  1
R1
  1
*R1*
  1
*
  1
*
 70
     0
  1
*
  1
*
  0
XRECORD
  5
1EE
102
{ACAD_REACTORS
330
36
102
}
330
36
100
AcDbXrecord
280
     1
  1
R2
  1
*R2*
  1
*
  1
*
 70
     0
  1
*
  1
*
  0
XRECORD
  5
1EF
102
{ACAD_REACTORS
330
36
102
}
330
36
100
AcDbXrecord
280
     1
  1
R3
  1
*R3*
  1
*
  1
*
 70
     0
  1
*
  1
*
  0
XRECORD
  5
1F0
102
{ACAD_REACTORS
330
36
102
}
330
36
100
AcDbXrecord
280
     1
  1
rack
  1
*rack*
  1
*
  1
*
 70
     0
  1
*
  1
*
  0
XRECORD
  5
1F1
102
{ACAD_REACTORS
330
36
102
}
330
36
100
AcDbXrecord
280
     1
  1
RCP
  1
A-CLG-*
  1
*
  1
*
 70
     0
  1
*
  1
*
  0
XRECORD
  5
1F2
102
{ACAD_REACTORS
330
36
102
}
330
36
100
AcDbXrecord
280
     1
  1
RED
  1
*
  1
RED
  1
*
 70
     0
  1
*
  1
*
  0
XRECORD
  5
1F3
102
{ACAD_REACTORS
330
36
102
}
330
36
100
AcDbXrecord
280
     1
  1
reds
  1
*
  1
red
  1
*
 70
     0
  1
*
  1
*
  0
XRECORD
  5
1F4
102
{ACAD_REACTORS
330
36
102
}
330
36
100
AcDbXrecord
280
     1
  1
ref ceiling
  1
*
  1
*
  1
*
 70
    16
  1
*
  1
*
  0
XRECORD
  5
1F5
102
{ACAD_REACTORS
330
36
102
}
330
36
100
AcDbXrecord
280
     1
  1
ref ceiling 1
  1
*
  1
*
  1
*
 70
    16
  1
*
  1
*
  0
XRECORD
  5
1F6
102
{ACAD_REACTORS
330
36
102
}
330
36
100
AcDbXrecord
280
     1
  1
REFLECTED CEILING PLAN
  1
*
  1
*
  1
*
 70
    16
  1
*
  1
*
  0
XRECORD
  5
1F7
102
{ACAD_REACTORS
330
36
102
}
330
36
100
AcDbXrecord
280
     1
  1
REI ainult
  1
REI-
  1
*
  1
*
 70
     1
  1
*
  1
*
  0
XRECORD
  5
1F8
102
{ACAD_REACTORS
330
36
102
}
330
36
100
AcDbXrecord
280
     1
  1
RELECTED CEILING PLAN 012
  1
*
  1
*
  1
*
 70
    16
  1
*
  1
*
  0
XRECORD
  5
1F9
102
{ACAD_REACTORS
330
36
102
}
330
36
100
AcDbXrecord
280
     1
  1
REST
  1
REST*
  1
*
  1
*
 70
     0
  1
*
  1
*
  0
XRECORD
  5
1FA
102
{ACAD_REACTORS
330
36
102
}
330
36
100
AcDbXrecord
280
     1
  1
restaurant
  1
rest*
  1
*
  1
*
 70
     0
  1
*
  1
*
  0
XRECORD
  5
1FB
102
{ACAD_REACTORS
330
36
102
}
330
36
100
AcDbXrecord
280
     1
  1
rev
  1
*revc*
  1
*
  1
*
 70
     0
  1
*
  1
*
  0
XRECORD
  5
1FC
102
{ACAD_REACTORS
330
36
102
}
330
36
100
AcDbXrecord
280
     1
  1
Revs
  1
r*
  1
*
  1
*
 70
     0
  1
*
  1
*
  0
XRECORD
  5
1FD
102
{ACAD_REACTORS
330
36
102
}
330
36
100
AcDbXrecord
280
     1
  1
ROHELINE
  1
*
  1
GREEN
  1
*
 70
     0
  1
*
  1
*
  0
XRECORD
  5
1FE
102
{ACAD_REACTORS
330
36
102
}
330
36
100
AcDbXrecord
280
     1
  1
ROOFLIGHT
  1
ROOFLIGHT*
  1
*
  1
*
 70
     0
  1
*
  1
*
  0
XRECORD
  5
1FF
102
{ACAD_REACTORS
330
36
102
}
330
36
100
AcDbXrecord
280
     1
  1
rsfl
  1
a33*
  1
*
  1
*
 70
     0
  1
*
  1
*
  0
XRECORD
  5
200
102
{ACAD_REACTORS
330
36
102
}
330
36
100
AcDbXrecord
280
     1
  1
s
  1
s-*
  1
*
  1
*
 70
     0
  1
*
  1
*
  0
XRECORD
  5
201
102
{ACAD_REACTORS
330
36
102
}
330
36
100
AcDbXrecord
280
     1
  1
S - LAYERS
  1
*S_*
  1
*
  1
*
 70
     0
  1
*
  1
*
  0
XRECORD
  5
202
102
{ACAD_REACTORS
330
36
102
}
330
36
100
AcDbXrecord
280
     1
  1
s 1
  1
*
  1
7
  1
*
 70
     0
  1
*
  1
*
  0
XRECORD
  5
203
102
{ACAD_REACTORS
330
36
102
}
330
36
100
AcDbXrecord
280
     1
  1
saldymas
  1
*
  1
*
  1
*
 70
     0
  1
*
  1
*
  0
XRECORD
  5
204
102
{ACAD_REACTORS
330
36
102
}
330
36
100
AcDbXrecord
280
     1
  1
san
  1
*san*
  1
*
  1
*
 70
     0
  1
*
  1
*
  0
XRECORD
  5
205
102
{ACAD_REACTORS
330
36
102
}
330
36
100
AcDbXrecord
280
     1
  1
SANDSTONE
  1
SAND*
  1
*
  1
*
 70
     0
  1
*
  1
*
  0
XRECORD
  5
206
102
{ACAD_REACTORS
330
36
102
}
330
36
100
AcDbXrecord
280
     1
  1
sanitary
  1
*san*
  1
*
  1
*
 70
     0
  1
*
  1
*
  0
XRECORD
  5
207
102
{ACAD_REACTORS
330
36
102
}
330
36
100
AcDbXrecord
280
     1
  1
SCALE 100 TEXT
  1
*F
  1
*
  1
*
 70
     0
  1
*
  1
*
  0
XRECORD
  5
208
102
{ACAD_REACTORS
330
36
102
}
330
36
100
AcDbXrecord
280
     1
  1
SCALE 200 TEXT
  1
*G
  1
*
  1
*
 70
     0
  1
*
  1
*
  0
XRECORD
  5
209
102
{ACAD_REACTORS
330
36
102
}
330
36
100
AcDbXrecord
280
     1
  1
SCALE 50 TEXT
  1
*E
  1
*
  1
*
 70
     0
  1
*
  1
*
  0
XRECORD
  5
20A
102
{ACAD_REACTORS
330
36
102
}
330
36
100
AcDbXrecord
280
     1
  1
screed plan
  1
*
  1
*
  1
*
 70
    16
  1
*
  1
*
  0
XRECORD
  5
20B
102
{ACAD_REACTORS
330
36
102
}
330
36
100
AcDbXrecord
280
     1
  1
SEC
  1
*sec*
  1
*
  1
*
 70
     0
  1
*
  1
*
  0
XRECORD
  5
20C
102
{ACAD_REACTORS
330
36
102
}
330
36
100
AcDbXrecord
280
     1
  1
secondary
  1
*secondary*
  1
*
  1
*
 70
     0
  1
*
  1
*
  0
XRECORD
  5
20D
102
{ACAD_REACTORS
330
36
102
}
330
36
100
AcDbXrecord
280
     1
  1
section
  1
sec*
  1
*
  1
*
 70
     0
  1
*
  1
*
  0
XRECORD
  5
20E
102
{ACAD_REACTORS
330
36
102
}
330
36
100
AcDbXrecord
280
     1
  1
SELF SERVICE
  1
*SELF SERV*
  1
*
  1
*
 70
     0
  1
*
  1
*
  0
XRECORD
  5
20F
102
{ACAD_REACTORS
330
36
102
}
330
36
100
AcDbXrecord
280
     1
  1
servery
  1
servery*
  1
*
  1
*
 70
     0
  1
*
  1
*
  0
XRECORD
  5
210
102
{ACAD_REACTORS
330
36
102
}
330
36
100
AcDbXrecord
280
     1
  1
SERVICES
  1
00*
  1
*
  1
*
 70
     0
  1
*
  1
*
  0
XRECORD
  5
211
102
{ACAD_REACTORS
330
36
102
}
330
36
100
AcDbXrecord
280
     1
  1
SF
  1
SF*
  1
*
  1
*
 70
     0
  1
*
  1
*
  0
XRECORD
  5
212
102
{ACAD_REACTORS
330
36
102
}
330
36
100
AcDbXrecord
280
     1
  1
shadow
  1
*shadow
  1
*
  1
*
 70
     0
  1
*
  1
*
  0
XRECORD
  5
213
102
{ACAD_REACTORS
330
36
102
}
330
36
100
AcDbXrecord
280
     1
  1
shadow-off
  1
*SHADOW
  1
*
  1
*
 70
     0
  1
*
  1
*
  0
XRECORD
  5
214
102
{ACAD_REACTORS
330
36
102
}
330
36
100
AcDbXrecord
280
     1
  1
SHELF
  1
*SHEL*
  1
*
  1
*
 70
    12
  1
*
  1
*
  0
XRECORD
  5
215
102
{ACAD_REACTORS
330
36
102
}
330
36
100
AcDbXrecord
280
     1
  1
SHELVES
  1
*SHEL*
  1
*
  1
*
 70
     0
  1
*
  1
*
  0
XRECORD
  5
216
102
{ACAD_REACTORS
330
36
102
}
330
36
100
AcDbXrecord
280
     1
  1
shema
  1
*shema
  1
*
  1
*
 70
     0
  1
*
  1
*
  0
XRECORD
  5
217
102
{ACAD_REACTORS
330
36
102
}
330
36
100
AcDbXrecord
280
     1
  1
sienos
  1
Sie*
  1
*
  1
*
 70
     0
  1
*
  1
*
  0
XRECORD
  5
218
102
{ACAD_REACTORS
330
36
102
}
330
36
100
AcDbXrecord
280
     1
  1
SIGNAGE
  1
*
  1
*
  1
*
 70
     0
  1
*
  1
*
  0
XRECORD
  5
219
102
{ACAD_REACTORS
330
36
102
}
330
36
100
AcDbXrecord
280
     1
  1
SINBLU
  1
*
  1
blue
  1
*
 70
     0
  1
*
  1
*
  0
XRECORD
  5
21A
102
{ACAD_REACTORS
330
36
102
}
330
36
100
AcDbXrecord
280
     1
  1
Sinergy
  1
_*
  1
*
  1
*
 70
     0
  1
*
  1
*
  0
XRECORD
  5
21B
102
{ACAD_REACTORS
330
36
102
}
330
36
100
AcDbXrecord
280
     1
  1
SININE
  1
*
  1
BLUE
  1
*
 70
     0
  1
*
  1
*
  0
XRECORD
  5
21C
102
{ACAD_REACTORS
330
36
102
}
330
36
100
AcDbXrecord
280
     1
  1
SININE1
  1
*
  1
BLUE
  1
*
 70
     0
  1
*
  1
*
  0
XRECORD
  5
21D
102
{ACAD_REACTORS
330
36
102
}
330
36
100
AcDbXrecord
280
     1
  1
SIT
  1
SIT*
  1
*
  1
*
 70
     0
  1
*
  1
*
  0
XRECORD
  5
21E
102
{ACAD_REACTORS
330
36
102
}
330
36
100
AcDbXrecord
280
     1
  1
SITE
  1
SITE*
  1
*
  1
*
 70
     0
  1
*
  1
*
  0
XRECORD
  5
21F
102
{ACAD_REACTORS
330
36
102
}
330
36
100
AcDbXrecord
280
     1
  1
siyah
  1
*
  1
*
  1
*
 70
     4
  1
*
  1
siyah
  0
XRECORD
  5
220
102
{ACAD_REACTORS
330
36
102
}
330
36
100
AcDbXrecord
280
     1
  1
skersinis
  1
Sk*
  1
*
  1
*
 70
     0
  1
*
  1
*
  0
XRECORD
  5
221
102
{ACAD_REACTORS
330
36
102
}
330
36
100
AcDbXrecord
280
     1
  1
solid
  1
*hatch*
  1
*
  1
*
 70
     0
  1
*
  1
*
  0
XRECORD
  5
222
102
{ACAD_REACTORS
330
36
102
}
330
36
100
AcDbXrecord
280
     1
  1
solid fills
  1
*-h
  1
*
  1
*
 70
     0
  1
*
  1
*
  0
XRECORD
  5
223
102
{ACAD_REACTORS
330
36
102
}
330
36
100
AcDbXrecord
280
     1
  1
SPIRAL
  1
SPIRAL*
  1
*
  1
*
 70
     0
  1
*
  1
*
  0
XRECORD
  5
224
102
{ACAD_REACTORS
330
36
102
}
330
36
100
AcDbXrecord
280
     1
  1
SPOTLIGHTS
  1
SPOT*
  1
*
  1
*
 70
     0
  1
*
  1
*
  0
XRECORD
  5
225
102
{ACAD_REACTORS
330
36
102
}
330
36
100
AcDbXrecord
280
     1
  1
stairs
  1
*240*
  1
*
  1
*
 70
     0
  1
*
  1
*
  0
XRECORD
  5
226
102
{ACAD_REACTORS
330
36
102
}
330
36
100
AcDbXrecord
280
     1
  1
standard
  1
*###
  1
*
  1
*
 70
     0
  1
*
  1
*
  0
XRECORD
  5
227
102
{ACAD_REACTORS
330
36
102
}
330
36
100
AcDbXrecord
280
     1
  1
stoły
  1
MU*
  1
*
  1
*
 70
     0
  1
*
  1
*
  0
XRECORD
  5
228
102
{ACAD_REACTORS
330
36
102
}
330
36
100
AcDbXrecord
280
     1
  1
Stru
  1
s-*
  1
*
  1
*
 70
     0
  1
*
  1
*
  0
XRECORD
  5
229
102
{ACAD_REACTORS
330
36
102
}
330
36
100
AcDbXrecord
280
     1
  1
Structure
  1
s*
  1
*
  1
*
 70
     0
  1
*
  1
*
  0
XRECORD
  5
22A
102
{ACAD_REACTORS
330
36
102
}
330
36
100
AcDbXrecord
280
     1
  1
STRUT
  1
*STRUT*
  1
*
  1
*
 70
     0
  1
*
  1
*
  0
XRECORD
  5
22B
102
{ACAD_REACTORS
330
36
102
}
330
36
100
AcDbXrecord
280
     1
  1
STUBS
  1
*STUB*
  1
*
  1
*
 70
     0
  1
*
  1
*
  0
XRECORD
  5
22C
102
{ACAD_REACTORS
330
36
102
}
330
36
100
AcDbXrecord
280
     1
  1
SUFLATORI
  1
*
  1
*
  1
*
 70
     1
  1
*
  1
*
  0
XRECORD
  5
22D
102
{ACAD_REACTORS
330
36
102
}
330
36
100
AcDbXrecord
280
     1
  1
surv
  1
1784surv$0$*
  1
*
  1
*
 70
     0
  1
*
  1
*
  0
XRECORD
  5
22E
102
{ACAD_REACTORS
330
36
102
}
330
36
100
AcDbXrecord
280
     1
  1
SURVEY
  1
*
  1
*
  1
*
 70
     0
  1
*
  1
*
  0
XRECORD
  5
22F
102
{ACAD_REACTORS
330
36
102
}
330
36
100
AcDbXrecord
280
     1
  1
Susanne
  1
310,40,41,70,910,913,921,930,940
  1
*
  1
*
 70
     7
  1
*
  1
*
  0
XRECORD
  5
230
102
{ACAD_REACTORS
330
36
102
}
330
36
100
AcDbXrecord
280
     1
  1
SWEET
  1
SWEET*
  1
*
  1
*
 70
     0
  1
*
  1
*
  0
XRECORD
  5
231
102
{ACAD_REACTORS
330
36
102
}
330
36
100
AcDbXrecord
280
     1
  1
SYNERGY
  1
SYN-*
  1
*
  1
*
 70
     0
  1
*
  1
*
  0
XRECORD
  5
232
102
{ACAD_REACTORS
330
36
102
}
330
36
100
AcDbXrecord
280
     1
  1
T1
  1
00#
  1
*
  1
*
 70
     0
  1
*
  1
*
  0
XRECORD
  5
233
102
{ACAD_REACTORS
330
36
102
}
330
36
100
AcDbXrecord
280
     1
  1
TABLE
  1
*TABLE
  1
*
  1
*
 70
     0
  1
*
  1
*
  0
XRECORD
  5
234
102
{ACAD_REACTORS
330
36
102
}
330
36
100
AcDbXrecord
280
     1
  1
tags
  1
*220t
  1
*
  1
*
 70
     0
  1
*
  1
*
  0
XRECORD
  5
235
102
{ACAD_REACTORS
330
36
102
}
330
36
100
AcDbXrecord
280
     1
  1
TEACH
  1
TEACH*
  1
*
  1
*
 70
     0
  1
*
  1
*
  0
XRECORD
  5
236
102
{ACAD_REACTORS
330
36
102
}
330
36
100
AcDbXrecord
280
     1
  1
test
  1
*E1*
  1
*
  1
*
 70
     1
  1
*
  1
*
  0
XRECORD
  5
237
102
{ACAD_REACTORS
330
36
102
}
330
36
100
AcDbXrecord
280
     1
  1
TEXT
  1
*TEXT*
  1
*
  1
*
 70
     0
  1
*
  1
*
  0
XRECORD
  5
238
102
{ACAD_REACTORS
330
36
102
}
330
36
100
AcDbXrecord
280
     1
  1
TH
  1
*
  1
*
  1
*
 70
    12
  1
*
  1
*
  0
XRECORD
  5
239
102
{ACAD_REACTORS
330
36
102
}
330
36
100
AcDbXrecord
280
     1
  1
thaw
  1
*
  1
*
  1
*
 70
    12
  1
*
  1
*
  0
XRECORD
  5
23A
102
{ACAD_REACTORS
330
36
102
}
330
36
100
AcDbXrecord
280
     1
  1
thawed
  1
*
  1
*
  1
*
 70
    12
  1
*
  1
*
  0
XRECORD
  5
23B
102
{ACAD_REACTORS
330
36
102
}
330
36
100
AcDbXrecord
280
     1
  1
THP
  1
THP*
  1
*
  1
*
 70
     0
  1
*
  1
*
  0
XRECORD
  5
23C
102
{ACAD_REACTORS
330
36
102
}
330
36
100
AcDbXrecord
280
     1
  1
tjp
  1
tjp*
  1
*
  1
*
 70
     0
  1
*
  1
*
  0
XRECORD
  5
23D
102
{ACAD_REACTORS
330
36
102
}
330
36
100
AcDbXrecord
280
     1
  1
tone
  1
tone*
  1
*
  1
*
 70
     0
  1
*
  1
*
  0
XRECORD
  5
23E
102
{ACAD_REACTORS
330
36
102
}
330
36
100
AcDbXrecord
280
     1
  1
TOP
  1
*TOP*
  1
*
  1
*
 70
     0
  1
*
  1
*
  0
XRECORD
  5
23F
102
{ACAD_REACTORS
330
36
102
}
330
36
100
AcDbXrecord
280
     1
  1
Topo
  1
REI*
  1
*
  1
*
 70
     0
  1
*
  1
*
  0
XRECORD
  5
240
102
{ACAD_REACTORS
330
36
102
}
330
36
100
AcDbXrecord
280
     1
  1
tr
  1
tr*
  1
*
  1
*
 70
     0
  1
*
  1
*
  0
XRECORD
  5
241
102
{ACAD_REACTORS
330
36
102
}
330
36
100
AcDbXrecord
280
     1
  1
trassid
  1
tr*
  1
*
  1
*
 70
     0
  1
*
  1
*
  0
XRECORD
  5
242
102
{ACAD_REACTORS
330
36
102
}
330
36
100
AcDbXrecord
280
     1
  1
trassid-txt
  1
ttxt*
  1
*
  1
*
 70
     0
  1
*
  1
*
  0
XRECORD
  5
243
102
{ACAD_REACTORS
330
36
102
}
330
36
100
AcDbXrecord
280
     1
  1
tree
  1
*tree*
  1
*
  1
*
 70
     0
  1
*
  1
*
  0
XRECORD
  5
244
102
{ACAD_REACTORS
330
36
102
}
330
36
100
AcDbXrecord
280
     1
  1
tu_
  1
tu_*
  1
*
  1
*
 70
     0
  1
*
  1
*
  0
XRECORD
  5
245
102
{ACAD_REACTORS
330
36
102
}
330
36
100
AcDbXrecord
280
     1
  1
Tugiplaan
  1
*
  1
*
  1
*
 70
     0
  1
*
  1
*
  0
XRECORD
  5
246
102
{ACAD_REACTORS
330
36
102
}
330
36
100
AcDbXrecord
280
     1
  1
txt
  1
txt*
  1
*
  1
*
 70
     0
  1
*
  1
*
  0
XRECORD
  5
247
102
{ACAD_REACTORS
330
36
102
}
330
36
100
AcDbXrecord
280
     1
  1
UFR
  1
*
  1
*
  1
*
 70
    12
  1
*
  1
*
  0
XRECORD
  5
248
102
{ACAD_REACTORS
330
36
102
}
330
36
100
AcDbXrecord
280
     1
  1
UNITA
  1
*a
  1
*
  1
*
 70
     0
  1
*
  1
*
  0
XRECORD
  5
249
102
{ACAD_REACTORS
330
36
102
}
330
36
100
AcDbXrecord
280
     1
  1
UNITB
  1
*B
  1
*
  1
*
 70
     0
  1
*
  1
*
  0
XRECORD
  5
24A
102
{ACAD_REACTORS
330
36
102
}
330
36
100
AcDbXrecord
280
     1
  1
UNITC
  1
*C
  1
*
  1
*
 70
     0
  1
*
  1
*
  0
XRECORD
  5
24B
102
{ACAD_REACTORS
330
36
102
}
330
36
100
AcDbXrecord
280
     1
  1
UP
  1
UP*
  1
*
  1
*
 70
     0
  1
*
  1
*
  0
XRECORD
  5
24C
102
{ACAD_REACTORS
330
36
102
}
330
36
100
AcDbXrecord
280
     1
  1
UPLO
  1
*
  1
*
  1
*
 70
  3084
  1
*
  1
*
  0
XRECORD
  5
24D
102
{ACAD_REACTORS
330
36
102
}
330
36
100
AcDbXrecord
280
     1
  1
upper
  1
*
  1
*
  1
*
 70
    16
  1
*
  1
*
  0
XRECORD
  5
24E
102
{ACAD_REACTORS
330
36
102
}
330
36
100
AcDbXrecord
280
     1
  1
uus
  1
*
  1
*
  1
*
 70
     4
  1
*
  1
*
  0
XRECORD
  5
24F
102
{ACAD_REACTORS
330
36
102
}
330
36
100
AcDbXrecord
280
     1
  1
v31
  1
V31*
  1
*
  1
*
 70
     0
  1
*
  1
*
  0
XRECORD
  5
250
102
{ACAD_REACTORS
330
36
102
}
330
36
100
AcDbXrecord
280
     1
  1
VAADE
  1
VAADE *
  1
*
  1
*
 70
     0
  1
*
  1
*
  0
XRECORD
  5
251
102
{ACAD_REACTORS
330
36
102
}
330
36
100
AcDbXrecord
280
     1
  1
Valgus
  1
*
  1
*
  1
*
 70
     0
  1
*
  1
*
  0
XRECORD
  5
252
102
{ACAD_REACTORS
330
36
102
}
330
36
100
AcDbXrecord
280
     1
  1
varem-proj-trassid
  1
vp-*
  1
*
  1
*
 70
     0
  1
*
  1
*
  0
XRECORD
  5
253
102
{ACAD_REACTORS
330
36
102
}
330
36
100
AcDbXrecord
280
     1
  1
Vertikaal
  1
*
  1
*
  1
*
 70
     0
  1
*
  1
*
  0
XRECORD
  5
254
102
{ACAD_REACTORS
330
36
102
}
330
36
100
AcDbXrecord
280
     1
  1
vertikalinis
  1
*
  1
*
  1
*
 70
     0
  1
*
  1
*
  0
XRECORD
  5
255
102
{ACAD_REACTORS
330
36
102
}
330
36
100
AcDbXrecord
280
     1
  1
viewports
  1
*view*
  1
*
  1
*
 70
     0
  1
*
  1
*
  0
XRECORD
  5
256
102
{ACAD_REACTORS
330
36
102
}
330
36
100
AcDbXrecord
280
     1
  1
VK
  1
VK*
  1
*
  1
*
 70
     0
  1
*
  1
*
  0
XRECORD
  5
257
102
{ACAD_REACTORS
330
36
102
}
330
36
100
AcDbXrecord
280
     1
  1
vor
  1
vor*
  1
*
  1
*
 70
     0
  1
*
  1
*
  0
XRECORD
  5
258
102
{ACAD_REACTORS
330
36
102
}
330
36
100
AcDbXrecord
280
     1
  1
vormistus
  1
vor*
  1
*
  1
*
 70
     0
  1
*
  1
*
  0
XRECORD
  5
259
102
{ACAD_REACTORS
330
36
102
}
330
36
100
AcDbXrecord
280
     1
  1
vpl
  1
vpl*
  1
*
  1
*
 70
     0
  1
*
  1
*
  0
XRECORD
  5
25A
102
{ACAD_REACTORS
330
36
102
}
330
36
100
AcDbXrecord
280
     1
  1
VS_01
  1
*_01*
  1
*
  1
*
 70
     0
  1
*
  1
*
  0
XRECORD
  5
25B
102
{ACAD_REACTORS
330
36
102
}
330
36
100
AcDbXrecord
280
     1
  1
VS_02
  1
*_02*
  1
*
  1
*
 70
     0
  1
*
  1
*
  0
XRECORD
  5
25C
102
{ACAD_REACTORS
330
36
102
}
330
36
100
AcDbXrecord
280
     1
  1
VS_03
  1
*_03*
  1
*
  1
*
 70
     0
  1
*
  1
*
  0
XRECORD
  5
25D
102
{ACAD_REACTORS
330
36
102
}
330
36
100
AcDbXrecord
280
     1
  1
VS_04
  1
*_04*
  1
*
  1
*
 70
     0
  1
*
  1
*
  0
XRECORD
  5
25E
102
{ACAD_REACTORS
330
36
102
}
330
36
100
AcDbXrecord
280
     1
  1
VS_05
  1
*_05*
  1
*
  1
*
 70
     0
  1
*
  1
*
  0
XRECORD
  5
25F
102
{ACAD_REACTORS
330
36
102
}
330
36
100
AcDbXrecord
280
     1
  1
VS_06
  1
*_06*
  1
*
  1
*
 70
     0
  1
*
  1
*
  0
XRECORD
  5
260
102
{ACAD_REACTORS
330
36
102
}
330
36
100
AcDbXrecord
280
     1
  1
VS_07
  1
*_07*
  1
*
  1
*
 70
     0
  1
*
  1
*
  0
XRECORD
  5
261
102
{ACAD_REACTORS
330
36
102
}
330
36
100
AcDbXrecord
280
     1
  1
VS_08
  1
*_08*
  1
*
  1
*
 70
     0
  1
*
  1
*
  0
XRECORD
  5
262
102
{ACAD_REACTORS
330
36
102
}
330
36
100
AcDbXrecord
280
     1
  1
VS_09
  1
*_09*
  1
*
  1
*
 70
     0
  1
*
  1
*
  0
XRECORD
  5
263
102
{ACAD_REACTORS
330
36
102
}
330
36
100
AcDbXrecord
280
     1
  1
VS_10
  1
*_10*
  1
*
  1
*
 70
     0
  1
*
  1
*
  0
XRECORD
  5
264
102
{ACAD_REACTORS
330
36
102
}
330
36
100
AcDbXrecord
280
     1
  1
VS_11
  1
*_11*
  1
*
  1
*
 70
     0
  1
*
  1
*
  0
XRECORD
  5
265
102
{ACAD_REACTORS
330
36
102
}
330
36
100
AcDbXrecord
280
     1
  1
VS_12
  1
*_12*
  1
*
  1
*
 70
     0
  1
*
  1
*
  0
XRECORD
  5
266
102
{ACAD_REACTORS
330
36
102
}
330
36
100
AcDbXrecord
280
     1
  1
VS_13
  1
*_13*
  1
*
  1
*
 70
     0
  1
*
  1
*
  0
XRECORD
  5
267
102
{ACAD_REACTORS
330
36
102
}
330
36
100
AcDbXrecord
280
     1
  1
VS_14
  1
*_14*
  1
*
  1
*
 70
     0
  1
*
  1
*
  0
XRECORD
  5
268
102
{ACAD_REACTORS
330
36
102
}
330
36
100
AcDbXrecord
280
     1
  1
VS_15
  1
*_15*
  1
*
  1
*
 70
     0
  1
*
  1
*
  0
XRECORD
  5
269
102
{ACAD_REACTORS
330
36
102
}
330
36
100
AcDbXrecord
280
     1
  1
VS_16
  1
*_16*
  1
*
  1
*
 70
     0
  1
*
  1
*
  0
XRECORD
  5
26A
102
{ACAD_REACTORS
330
36
102
}
330
36
100
AcDbXrecord
280
     1
  1
VS_17
  1
*_17*
  1
*
  1
*
 70
     0
  1
*
  1
*
  0
XRECORD
  5
26B
102
{ACAD_REACTORS
330
36
102
}
330
36
100
AcDbXrecord
280
     1
  1
VS_18
  1
*_18*
  1
*
  1
*
 70
     0
  1
*
  1
*
  0
XRECORD
  5
26C
102
{ACAD_REACTORS
330
36
102
}
330
36
100
AcDbXrecord
280
     1
  1
VS_19
  1
*_19*
  1
*
  1
*
 70
     0
  1
*
  1
*
  0
XRECORD
  5
26D
102
{ACAD_REACTORS
330
36
102
}
330
36
100
AcDbXrecord
280
     1
  1
VS_20
  1
*_20*
  1
*
  1
*
 70
     0
  1
*
  1
*
  0
XRECORD
  5
26E
102
{ACAD_REACTORS
330
36
102
}
330
36
100
AcDbXrecord
280
     1
  1
W
  1
*SYMB*
  1
*
  1
*
 70
     0
  1
*
  1
*
  0
XRECORD
  5
26F
102
{ACAD_REACTORS
330
36
102
}
330
36
100
AcDbXrecord
280
     1
  1
W.M.T.
  1
W.M.T.*
  1
*
  1
*
 70
     0
  1
*
  1
*
  0
XRECORD
  5
270
102
{ACAD_REACTORS
330
36
102
}
330
36
100
AcDbXrecord
280
     1
  1
WADE
  1
*DEMO*
  1
*
  1
*
 70
     0
  1
*
  1
*
  0
XRECORD
  5
271
102
{ACAD_REACTORS
330
36
102
}
330
36
100
AcDbXrecord
280
     1
  1
waiter
  1
waiter*
  1
*
  1
*
 70
     0
  1
*
  1
*
  0
XRECORD
  5
272
102
{ACAD_REACTORS
330
36
102
}
330
36
100
AcDbXrecord
280
     1
  1
WALL
  1
*WALL
  1
*
  1
*
 70
     0
  1
*
  1
*
  0
XRECORD
  5
273
102
{ACAD_REACTORS
330
36
102
}
330
36
100
AcDbXrecord
280
     1
  1
Walls
  1
*ExtWalls
  1
*
  1
*
 70
     0
  1
*
  1
*
  0
XRECORD
  5
274
102
{ACAD_REACTORS
330
36
102
}
330
36
100
AcDbXrecord
280
     1
  1
white
  1
*
  1
white
  1
*
 70
     0
  1
*
  1
*
  0
XRECORD
  5
275
102
{ACAD_REACTORS
330
36
102
}
330
36
100
AcDbXrecord
280
     1
  1
white color
  1
*
  1
7
  1
*
 70
     0
  1
*
  1
*
  0
XRECORD
  5
276
102
{ACAD_REACTORS
330
36
102
}
330
36
100
AcDbXrecord
280
     1
  1
whs-zebra-issue
  1
*
  1
*
  1
*
 70
     0
  1
*
  1
*
  0
XRECORD
  5
277
102
{ACAD_REACTORS
330
36
102
}
330
36
100
AcDbXrecord
280
     1
  1
window
  1
window*
  1
*
  1
*
 70
     0
  1
*
  1
*
  0
XRECORD
  5
278
102
{ACAD_REACTORS
330
36
102
}
330
36
100
AcDbXrecord
280
     1
  1
WINEBIN
  1
WINE*,2D*
  1
*
  1
*
 70
     0
  1
*
  1
*
  0
XRECORD
  5
279
102
{ACAD_REACTORS
330
36
102
}
330
36
100
AcDbXrecord
280
     1
  1
winebins
  1
wine*
  1
*
  1
*
 70
     0
  1
*
  1
*
  0
XRECORD
  5
27A
102
{ACAD_REACTORS
330
36
102
}
330
36
100
AcDbXrecord
280
     1
  1
WORK
  1
L*,P*,XREF,M*,F*,C*
  1
*
  1
*
 70
     0
  1
*
  1
*
  0
XRECORD
  5
27B
102
{ACAD_REACTORS
330
36
102
}
330
36
100
AcDbXrecord
280
     1
  1
X
  1
x-*
  1
*
  1
*
 70
     0
  1
*
  1
*
  0
XRECORD
  5
27C
102
{ACAD_REACTORS
330
36
102
}
330
36
100
AcDbXrecord
280
     1
  1
xerf
  1
*
  1
*
  1
*
 70
     0
  1
*
  1
*
  0
XRECORD
  5
27D
102
{ACAD_REACTORS
330
36
102
}
330
36
100
AcDbXrecord
280
     1
  1
XREF
  1
Xref*
  1
*
  1
*
 70
     0
  1
*
  1
*
  0
XRECORD
  5
27E
102
{ACAD_REACTORS
330
36
102
}
330
36
100
AcDbXrecord
280
     1
  1
xref-of
  1
*|*
  1
*
  1
*
 70
     0
  1
*
  1
*
  0
XRECORD
  5
27F
102
{ACAD_REACTORS
330
36
102
}
330
36
100
AcDbXrecord
280
     1
  1
XREFID
  1
XREF *
  1
*
  1
*
 70
     0
  1
*
  1
*
  0
XRECORD
  5
280
102
{ACAD_REACTORS
330
36
102
}
330
36
100
AcDbXrecord
280
     1
  1
YARDIMLAR
  1
*YARDIM
  1
*
  1
*
 70
     0
  1
*
  1
*
  0
XRECORD
  5
281
102
{ACAD_REACTORS
330
36
102
}
330
36
100
AcDbXrecord
280
     1
  1
YUZEYLER
  1
*YUZEY*
  1
*
  1
*
 70
     0
  1
*
  1
*
  0
ENDSEC
  0
EOF
